#TITLE:Utopia;
#SUBTITLE:;
#ARTIST:☺;
#TITLETRANSLIT:;
#SUBTITLETRANSLIT:;
#ARTISTTRANSLIT:Smiley;
#GENRE:;
#CREDIT:;
#MUSIC:Utopia.ogg;
#BANNER:utopia-bn.png;
#BACKGROUND:Utopia-bg.png;
#CDTITLE:;
#SAMPLESTART:40.500;
#SAMPLELENGTH:11.540;
#SELECTABLE:YES;
#OFFSET:-0.023;
#BPMS:0.000=166.000
,324.000=148.540
,324.500=144.360
,325.000=134.180
,325.500=130.000
,326.000=120.000
,326.500=111.500
,327.000=96.500
,327.500=87.000
;
#STOPS:;
#BGCHANGES:;
#FGCHANGES:;

//--------------- dance-single - M. Puls ----------------
#NOTES:
     dance-single:
     M. Puls:
     Beginner:
     1:
     0.09,0.155,0.024,0,0:
0000
0000
0000
0000
,
0000
0000
0000
0000
,
0000
0000
0000
0000
,
0000
0000
0000
0000
,
0010
0000
0000
0000
,
0000
0000
0000
0000
,
0010
0000
0000
0000
,
0000
0000
0000
0000
,
1001
0000
0000
0000
,
0001
0000
0000
0000
,
1000
0000
0000
0000
,
0001
0000
0000
0000
,
0001
0000
0000
0000
,
1000
0000
0000
0000
,
0010
0000
0000
0000
,
0100
0000
0000
0000
,
0001
0000
0000
0000
,
0001
0000
0000
0000
,
0001
0000
0000
0000
,
0001
0000
0000
0000
,
1000
0000
0000
0000
,
0000
0000
0000
0000
,
0001
0000
0000
0000
,
0000
0000
0000
0000
,
1000
0000
1000
0000
,
1000
0000
0000
0000
,
0001
0000
0000
0000
,
0000
0000
0000
0000
,
1000
0000
0000
0000
,
0010
0000
0000
0000
,
0100
0000
0000
0000
,
0010
0000
0000
0000
,
1000
0000
0000
0000
,
0001
0000
0000
0000
,
0100
0000
0000
0000
,
0010
0000
0000
0000
,
1000
0000
0000
0000
,
0001
0000
0000
0000
,
1000
0000
1000
0000
,
0001
0000
0000
0000
,
0001
0000
0000
0000
,
1000
0000
0000
0000
,
0010
0000
0010
0000
,
0100
0000
0000
0000
,
0001
0000
0000
0000
,
0001
0000
0000
0000
,
1000
0000
0000
0000
,
1000
0000
0000
0000
,
0001
0000
0001
0000
,
0001
0000
0000
0000
,
1000
0000
1000
0000
,
1000
0000
0000
0000
,
0001
0000
0000
0000
,
0010
0000
0000
0000
,
0001
0000
0000
0000
,
1000
0000
0000
0000
,
0001
0000
0000
0000
,
0010
0000
0000
0000
,
0001
0000
0000
0000
,
1000
0000
0000
0000
,
1001
0000
0000
0000
,
0000
0000
0000
0000
,
1000
0000
0000
0000
,
0001
0000
0000
0000
,
0100
0000
0000
0000
,
0010
0000
0000
0000
,
1000
0000
0000
0000
,
0100
0000
0000
0000
,
1000
0000
0000
0000
,
0001
0000
0000
0000
,
1000
0000
0000
0000
,
0100
0000
0000
0000
,
1000
0000
1000
0000
,
0001
0000
0000
0000
,
0001
0000
0000
0000
,
1000
0000
0000
0000
,
0001
0000
0001
0000
,
1000
0000
0000
0000
,
1001
0000
0000
0000
;

//--------------- dance-single - K. Ward ----------------
#NOTES:
     dance-single:
     K. Ward:
     Easy:
     3:
     0.163,0.196,0.024,0.008,0:
0000
0000
0000
0000
,
0000
0000
0000
0000
,
0000
0000
0000
0000
,
0000
0000
0000
0000
,
0010
0000
0000
0000
,
0000
0000
0000
0100
,
0100
0000
0000
0000
,
1000
0000
0001
1000
,
0001
0000
0100
0000
,
1000
0000
0000
0000
,
1000
0000
0100
0000
,
0001
0000
0000
0000
,
0100
0000
0010
0000
,
0010
0000
0000
0000
,
0100
0000
1000
0000
,
0001
0000
0000
0000
,
0000
1000
0000
0001
,
0000
1000
0000
0001
,
0000
0010
0000
0100
,
0000
0020
0000
0000
,
0031
0000
0000
0000
,
0000
0000
0000
0000
,
1000
0000
0000
0000
,
0000
0000
0000
0000
,
1001
0000
0010
0000
,
0010
0000
0000
0000
,
1001
0000
0100
0000
,
0100
0000
0000
0000
,
0001
1000
0001
1000
,
0001
0000
0000
0000
,
0100
0100
0100
0100
,
0100
0000
0000
0000
,
1000
0001
1000
0001
,
1000
0000
0000
0000
,
0010
0010
0010
0010
,
0010
0000
0000
0000
,
0100
1000
0100
0010
,
0100
0000
0000
0000
,
0010
0001
0010
0100
,
0010
0000
0000
0000
,
1000
0001
1000
0001
,
1000
0000
0000
0000
,
0100
0100
0100
0100
,
0100
0000
0000
0000
,
1000
0000
0001
0000
,
1000
0000
0000
0000
,
0100
0000
0010
0000
,
0010
0000
0000
0000
,
0001
0000
1000
0000
,
0001
0000
0000
0000
,
0010
0000
0100
0000
,
0100
0000
0000
0000
,
0000
1000
0000
1000
,
0000
0001
0000
0001
,
0000
0010
0000
0010
,
0000
1001
0000
0000
,
0000
0001
0000
0001
,
0000
1000
0000
1000
,
0000
0010
0000
0010
,
0000
0100
0100
0000
,
1000
0000
0000
0000
,
0001
0000
0000
0000
,
1000
0001
1000
0001
,
1000
0000
0000
0000
,
0010
0010
0010
0010
,
0010
0000
0000
0000
,
0001
1000
0001
1000
,
0001
0000
0000
0000
,
0100
0100
0100
0100
,
0100
0000
0000
0000
,
0010
0000
0100
0000
,
0001
0000
1000
0000
,
0100
0000
0100
0000
,
0100
0000
0000
0000
,
1000
0000
0001
0000
,
1000
0000
0001
0000
,
0100
0000
0010
0000
,
0100
0000
0000
0000
,
1000
0000
0000
0000
,
0000
0000
0000
0000
,
0001
0000
0000
0000
,
0000
0000
0000
0000
,
0100
0000
0000
0000
;

//--------------- dance-single - K. Ward ----------------
#NOTES:
     dance-single:
     K. Ward:
     Medium:
     7:
     0.369,0.392,0.263,0.112,0:
0000
0000
0000
0000
,
0000
0000
0000
0000
,
0000
0000
0000
0000
,
0000
0000
0000
0000
,
1001
0000
0000
0000
0000
0000
0000
0100
,
0000
0000
0000
0100
,
1001
0000
0000
0000
0000
0000
0000
0010
,
0000
0000
1001
1001
,
0010
0100
0010
0100
,
0001
0000
1000
0000
0001
0000
1000
0100
,
0010
0100
0010
0100
,
0100
0000
0010
0000
0001
0000
0100
0010
,
1000
0100
0100
0010
,
0001
0000
1000
0000
1000
0000
0001
1000
,
0001
0000
0100
0000
0010
0000
0100
0010
,
0100
0001
1000
0100
,
0010
1100
0000
0001
,
0100
0011
0000
0100
,
0010
1010
0000
0100
,
0010
0101
0000
0000
,
1000
0000
1000
0000
1000
0000
1000
0100
,
0010
0010
0010
0000
,
0100
0000
0100
0000
0100
0000
0100
1000
,
0001
0001
0001
0000
,
1000
0100
0010
0000
0010
0000
0100
0000
,
1000
0001
1000
0000
1000
0000
0000
0000
,
0010
0100
0001
0000
0010
0000
0100
0000
,
1000
0000
0100
0010
0001
0000
0000
0000
,
1000
0000
0001
0000
0100
0001
0100
0000
,
0001
0000
1000
0000
0010
1000
0010
0000
,
1000
0010
0100
0001
,
0011
0000
1100
0000
,
1000
0000
0001
0000
0100
0001
0010
0000
,
0001
0000
1000
0000
0100
0010
0100
0000
,
1000
0010
0100
0001
,
0011
0000
1100
0000
,
1000
0000
0001
0000
1000
0001
0000
0000
,
0100
0000
0010
0000
0100
0010
0000
0000
,
2000
0001
0010
3001
,
0002
1000
0100
1003
,
1000
0000
0001
0000
1000
0001
0000
0000
,
0010
0000
0100
0000
0100
0010
0000
0000
,
0002
0010
0100
0013
,
2000
0100
0010
3100
,
1000
1000
0001
0001
,
0200
0000
0300
0000
,
1000
0000
0000
0000
0001
1000
0001
0000
,
1001
0000
0000
0000
,
0100
1001
0010
1001
,
0200
0000
0300
0000
,
0010
0100
0001
0010
,
0200
0000
1000
1300
,
0000
0011
0000
1010
,
0000
0000
0001
0000
0100
0010
1000
0000
,
0000
1100
0000
0101
,
0000
0000
0010
0000
0100
0010
0100
0000
,
0000
0011
0000
1010
,
0000
0000
1000
0000
0001
1000
0001
0000
,
0000
1100
0000
0101
,
0000
0000
0010
0000
1000
0100
0010
0000
,
1001
0000
0000
0000
,
0110
0000
1001
1001
,
1000
0000
0001
0000
0100
0001
0010
0000
,
0001
0000
1000
0000
0100
0010
0100
0000
,
1000
0010
0100
0001
,
0011
0000
1100
0000
,
0100
0000
0010
0000
0001
0010
0000
0000
,
0001
0000
1000
0000
0010
0100
0000
0000
,
0010
1000
0100
0010
,
0011
0000
1100
0000
,
1001
0001
1000
0001
,
0010
0100
1000
0100
,
2000
0001
0010
3001
,
0002
1000
0100
1003
,
1001
0000
0001
0000
1000
0001
0000
0000
,
0100
0000
0010
0000
0100
0010
0000
0000
,
2000
0001
0010
3001
,
0002
1000
0100
1003
,
2000
0000
0000
0000
3100
0010
0001
0020
,
0000
0000
0000
0130
,
2000
0000
0000
0000
0000
0000
0000
3001
,
0000
0000
0000
0000
0100
0001
0010
0100
,
1000
0000
0000
0000
;

//--------------- dance-single - R. McKanna ----------------
#NOTES:
     dance-single:
     R. McKanna:
     Hard:
     12:
     0.552,0.556,0.271,0.04,0.076:
0000
0000
0000
0000
,
0000
0000
0000
0000
,
0000
0000
0000
0000
,
0000
0000
0000
0000
,
1000
0000
0000
0000
1000
0001
0010
0100
,
0000
0100
0000
0001
0100
0010
1000
0000
,
1000
0000
0000
0000
0100
0001
0010
0000
,
1000
0000
1001
0110
,
1001
0000
1000
0000
0100
0010
0000
1001
,
0000
0100
1000
0001
0010
0100
1000
0000
,
0001
0000
0100
0010
0100
0001
0000
0100
,
0000
1000
0000
0100
0010
0100
1000
0000
,
1001
0000
1000
0000
0010
0100
0000
1001
,
0000
0010
1000
0001
0100
0010
1000
0000
,
0001
0000
0010
0100
0010
0001
0000
0100
,
0000
1000
0000
0010
0100
0010
1000
0000
,
0100
1010
0010
1010
,
0100
0000
0101
0000
0010
0000
0100
0001
,
0100
0011
0010
0011
,
0100
0000
1100
0000
0010
0000
0100
1000
,
0100
0000
1000
0000
0010
0000
0001
0100
,
0001
0000
0000
0000
0010
0000
0000
0000
0100
0000
0000
1000
0000
0000
0010
0000
,
1000
0000
0100
0000
0010
0000
0001
0010
,
0001
0000
0000
0000
0010
0000
0000
0000
0100
0000
0000
1000
0000
0000
1000
0000
,
0100
0000
0000
0100
1000
0000
0000
1000
0010
0000
0000
0010
0100
0000
0001
0000
,
0100
0000
0000
0100
0010
0000
0000
0010
1000
0000
0000
1000
0100
0000
0010
0000
,
0100
0000
0000
0100
1000
0000
0000
1000
0010
0000
0000
0010
0100
0000
0001
0000
,
0100
0000
0000
0100
0010
0000
0000
0010
1000
0000
0000
1000
0100
0000
0010
0000
,
0100
0000
1001
0000
0100
0010
1000
0000
,
0001
0000
1000
0010
0100
0010
1000
0000
,
0100
0000
1001
0000
0100
0010
0001
0000
,
1000
0000
0001
0010
0100
0010
0001
0000
,
1000
0000
1100
0000
1000
0010
0000
1010
,
0000
0010
0001
0010
1000
0100
0001
0000
,
1000
0000
1010
0000
1000
0100
0000
1100
,
0000
0100
0001
0100
1000
0010
0001
0000
,
0010
0000
1001
0000
0010
0100
0001
0000
,
1000
0000
0001
0100
0010
0100
0001
0000
,
0010
0000
1001
0000
0010
0100
1000
0000
,
0001
0000
1000
0100
0010
0100
1000
0000
,
0001
0000
0011
0000
0001
0100
0000
0101
,
0000
0100
1000
0100
0001
0010
1000
0000
,
0001
0000
0101
0000
0001
0010
0000
0011
,
0000
0010
1000
0010
0001
0100
1000
0000
,
0001
0000
0000
0000
0010
0001
0010
0000
0001
0000
0000
0000
0100
0000
0000
0000
,
0200
0000
0000
0300
0000
0001
0010
0100
,
0200
0000
0000
0300
1000
0010
1000
0100
,
2000
0000
0000
0000
0000
0100
3100
0000
,
0100
0000
0000
0000
1000
0100
1000
0000
0100
0000
0000
0000
1000
0100
0000
0000
,
2000
0000
0000
0000
0000
0000
0000
0000
3000
0000
0100
0000
1000
0010
0000
0000
,
1000
0000
0000
0001
0010
0100
0010
0100
,
2000
0001
0001
3001
,
1000
0100
1000
0001
1000
0100
1000
0001
,
0010
0001
0100
0001
1000
0001
0100
0100
,
0100
0010
1000
0001
0010
0100
1000
0001
,
0100
0010
1000
0001
0010
0100
1000
0010
,
0001
0100
0001
1000
0001
0100
0001
1000
,
0010
1000
0100
1000
0001
1000
0100
0100
,
0100
0010
0001
1000
0010
0100
0001
1000
,
0100
0010
0001
1000
0010
0100
0001
0000
,
1001
0000
0000
0100
0010
0000
0100
0000
,
1001
0000
1010
0101
,
1001
0000
1000
0000
0100
0010
0000
1001
,
0000
0100
1000
0001
0010
0100
1000
0000
,
0001
0000
0100
0010
0100
0001
0000
0100
,
0000
1000
1000
0000
0000
0001
0001
0000
,
1001
0000
1000
0000
0010
0100
0000
1001
,
0000
0010
1000
0001
0100
0010
1000
0000
,
0001
0000
0010
0100
0010
0001
0000
0100
,
0000
0001
0001
0000
0000
1000
1000
0000
,
1000
0100
0010
0001
1000
0100
0010
0001
,
0000
0100
0010
0100
0001
0100
0010
1000
,
0001
0010
0100
1000
0001
0010
0100
1000
,
0000
0010
0100
0010
1000
0010
0100
0001
,
1000
0000
0010
0000
0100
0001
0000
1001
,
0000
1000
0100
0000
0001
0001
0001
0000
,
0001
0000
0100
0000
0010
1000
0000
1001
,
0000
0000
1000
0001
0100
0001
0010
0001
,
1000
0000
0000
0000
1000
0001
0010
0100
,
0000
0100
0000
0001
0100
0010
1000
0001
,
0100
0000
0000
0000
0100
0001
1000
0010
,
0000
0000
0010
0000
1000
0100
1000
0000
0100
0000
0010
0000
0001
0000
0100
0000
,
0010
0000
0000
0000
;

//--------------- dance-single - C. Foy ----------------
#NOTES:
     dance-single:
     C. Foy:
     Challenge:
     16:
     0.851,1,0.407,0.789,0.554:
0000
0000
0000
0000
,
0000
0000
0000
0000
,
0000
0000
0000
0000
,
0000
0000
0000
0000
,
2000
0000
3001
0100
0001
0000
1000
0000
0100
0000
1000
0000
0010
0000
0200
0000
,
0300
0000
0010
0000
0000
0000
1000
0010
1000
0000
0100
0000
0010
0000
0001
0000
,
2000
3001
0100
0001
0010
0100
1000
0002
,
0003
0010
0001
0100
1001
0100
1001
0100
,
0002
1003
0010
1000
0001
0100
1000
0200
,
0300
0000
0001
0000
0000
0000
0010
0001
0010
0000
0100
0000
0010
0000
0001
0000
,
2000
3001
0100
0001
1000
0100
0001
0200
,
0300
1000
0010
1000
0001
0010
0100
1000
,
0020
0031
0010
1000
0100
1000
0100
0020
,
0030
0000
0001
0000
0000
0000
1000
0001
0100
0000
0010
0000
0100
0000
0010
0000
,
2000
3100
1000
0001
0100
0001
0010
0002
,
0003
1000
0010
0100
0001
0100
0001
1000
,
0002
0003
1000
0000
0100
0010
0001
2000
,
3000
0001
0010
0000
0001
1000
0010
1000
,
0002
0003
0001
0100
0001
0010
0100
2000
,
3000
0000
0010
0000
1000
0000
0010
1000
0000
0000
0010
1000
0001
0000
0100
0000
,
2002
3003
0220
0000
0000
0330
2020
0000
,
0000
0000
3030
0000
0202
0000
0000
0000
0303
0000
0002
0000
0020
0003
2000
0000
,
0000
0000
3000
0000
0002
0000
0000
0000
0030
0000
0200
0003
2000
0000
0000
0300
,
0200
3000
0000
0000
0002
0000
0000
0003
0000
0000
2000
3000
0020
0300
2030
0000
,
3100
0000
0000
0010
1000
0000
0001
1000
0100
0000
1000
0010
0100
0000
0001
0010
,
0100
1000
0001
0100
0010
0000
0100
0010
1000
0000
0001
1000
0000
0000
0010
0000
,
0010
0000
0000
0010
1000
0000
0100
0010
0001
0000
0100
0001
1000
0100
1000
0001
,
0100
0010
1000
0010
1000
0000
0001
0100
0001
1000
0010
1000
0100
0000
0100
0000
,
0001
0000
0000
0000
0001
0000
0000
0000
0000
0001
0000
0000
0000
0000
0001
0000
0000
0000
0000
0001
0000
0000
0000
0000
0001
0000
0000
0000
0000
0001
0000
0000
,
0001
0000
0000
0000
0001
0000
0000
0000
0001
0000
0001
0000
0001
0000
0000
0002
,
0000
0003
0000
0000
0001
0000
0000
0000
0001
0000
0001
0000
0000
0000
0001
0000
,
0000
0000
0001
0000
0000
0000
0001
0000
0000
0000
0001
0000
0000
0000
0001
0000
0000
0000
0001
0000
0000
0001
0000
0000
,
0001
0000
0000
0000
0001
0000
0000
0000
0000
0001
0000
0000
0000
0000
0001
0000
0000
0000
0000
0001
0000
0000
0000
0000
0001
0000
0000
0000
0000
0001
0000
0000
,
0001
0000
0000
0000
0001
0000
0000
0000
0001
0000
0001
0000
0001
0000
0000
0002
,
0000
0003
0000
0000
0001
0000
0000
0000
0001
0000
0001
0000
0000
0000
0001
0000
,
0000
0000
0001
0000
0000
0000
0001
0000
0000
0000
0001
0000
0000
0000
0001
0000
0000
0000
0001
0000
0000
0001
0000
0000
,
1001
1000
1000
1000
,
1000
0000
1000
0000
1000
0000
1000
1000
,
1000
1000
1000
1000
,
1000
0000
1000
0000
1000
0000
1000
1000
,
1001
0000
0000
0000
0001
0000
0000
0000
1000
0001
0000
0000
0000
0000
0001
0000
1000
0000
0000
0001
0000
0000
0000
0000
1001
0000
0000
0000
0000
0001
0000
0000
,
1001
0000
0000
0000
1001
0000
0000
0000
1001
0000
0001
0000
1001
0000
1000
0002
,
1000
0003
0000
0000
1001
0000
0000
0000
1001
0000
0001
0000
1000
0000
0001
0000
,
1000
0000
0001
0000
0000
0000
1001
0000
0000
0000
0001
0000
1000
0000
0001
0000
0000
0000
1001
0000
0000
1001
0000
0000
,
0020
0000
0000
0030
1000
0010
0200
0000
0002
0000
0300
0000
0020
0003
0000
0000
,
2000
0000
0000
0000
0000
0000
0000
0000
0030
0000
0020
3000
0002
0030
0200
0003
,
2000
0000
0000
0000
0000
0000
0300
0000
0200
3000
0020
0300
2000
0030
0200
3000
,
0002
0000
0000
0000
0000
0000
0000
0000
0000
0000
0000
0000
0000
0000
0000
0000
0303
0000
0000
0001
0100
0000
0000
0000
0000
0010
0001
0000
0000
0000
0000
0000
,
2000
0000
0000
0000
3010
0100
0020
0000
0002
0000
0000
0033
0001
0010
0000
0000
,
2000
0000
0000
0000
0000
0000
0000
0000
3000
0000
0010
0000
0010
1000
0000
0000
,
2000
0000
0000
0000
0000
0000
0200
3000
0010
0000
0010
0000
1000
0000
2300
0000
,
0200
0000
3300
0000
0000
0000
0000
0000
1000
0001
1000
0001
1000
0001
1000
0001
,
0100
0001
1000
0001
0010
0001
1000
0010
1000
0100
1000
0001
0100
0010
0100
0000
,
0100
0010
1000
0010
0100
0010
0100
0001
0100
0010
0100
0001
1000
0100
0010
0000
,
0010
0001
0010
0100
0010
0001
0100
0001
1000
0001
0100
0001
1000
0001
1000
0000
,
1000
0010
1000
0001
1000
0100
1000
0001
0010
0001
1000
0001
1000
0000
1000
0000
,
1000
0001
1000
0100
0010
0001
1000
0001
1000
0010
1000
0001
1000
0100
1000
0000
,
1000
0001
1000
0001
0010
0001
1000
0010
1000
0001
1000
0001
0100
0010
0100
0000
,
0100
0001
1000
0010
0100
0010
0100
0001
0100
0010
0100
0001
1000
0100
0010
0000
,
0010
0001
0010
0100
0010
0001
1000
0001
0010
0001
1000
0001
0100
0001
1000
0000
,
1001
0000
0000
0100
0010
0000
0100
0000
,
0100
0000
0000
0000
2002
3003
0220
0330
,
1001
0000
0000
0000
0001
0000
0000
0000
1000
0001
0000
0000
0000
0000
0001
0000
1000
0000
0000
0001
0000
0000
0000
0000
1001
0000
0000
0000
0000
0001
0000
0000
,
1001
0000
0000
0000
1001
0000
0000
0000
1001
0000
0001
0000
1001
0000
0000
0002
,
1000
0003
0000
0000
1001
0000
0000
0000
1001
0000
0001
0000
1000
0000
0001
0000
,
1000
0000
0200
0000
0300
0000
1200
0000
0300
0000
0001
0000
1000
0000
0200
0000
0300
0000
1200
0000
0300
1001
0000
0000
,
1001
0000
0000
0000
0001
0000
0000
0000
1000
0001
0000
0000
0000
0000
0001
0000
1000
0000
0000
0001
0000
0000
0000
0000
1001
0000
0000
0000
0000
0001
0000
0000
,
1001
0000
0000
0000
1001
0000
0000
0000
1001
0000
0001
0000
1001
0000
1000
0002
,
1000
0003
0000
0000
1001
0000
0000
0000
1001
0000
0001
0000
1000
0000
1001
0000
,
1000
0000
0200
0000
0300
0000
1200
0000
0300
0000
0001
0000
1000
0000
0200
0000
0300
0000
0200
0000
0000
0300
0000
0000
,
1001
0000
0000
0000
0001
0000
0010
0100
1000
0000
0010
0000
0001
0000
0011
0000
,
0000
0000
0001
0000
0010
0000
1000
0010
0100
0000
1000
0000
0010
0000
1000
0002
,
1000
0003
0000
0000
0100
0000
0010
0000
0001
0000
0010
0000
1000
0000
1100
0000
,
0000
0000
1000
0000
0100
0000
1000
0100
0010
0000
0001
0000
0100
0000
1000
0000
,
1100
0000
0001
0000
0010
1000
0010
1001
,
0000
0000
0100
0000
0001
0000
0010
0000
0100
0000
1000
0000
0010
0000
1000
0002
,
1000
0003
0000
0000
0100
0000
0001
0000
0010
0000
0100
0000
1000
0000
0110
0000
,
0010
0000
1000
0000
0100
0000
1000
0100
0000
0000
0000
1000
0010
0000
1000
0000
,
0001
0000
2000
0000
0002
3000
0200
0003
2000
0300
0002
3000
0010
0003
0110
0000
,
0000
0000
2000
0000
0000
0000
3010
0002
0020
0003
2000
0030
0200
3000
1000
0300
,
1100
0000
0002
0000
0020
0003
2030
0000
0020
3000
0002
0030
0100
0003
0110
0000
,
0000
0000
0200
0000
0310
0002
0020
0003
2030
0000
0020
3000
0002
0030
0200
0003
,
2000
0000
3300
0000
;

//--------------- dance-double - K. Ward ----------------
#NOTES:
     dance-double:
     K. Ward:
     Easy:
     4:
     0.281,0.294,0,0,0:
00000000
00000000
00000000
00000000
,
00000000
00000000
00000000
00000000
,
00000000
00000000
00000000
00000000
,
00000000
00000000
00000000
00000000
,
00000000
00000100
00001000
00000010
,
00000000
00000100
00010000
00000100
,
00000000
00100000
00001000
00010000
,
00000000
00100000
00010000
01000000
,
00100000
00100000
00000000
00100000
,
10000000
10000000
00000000
10000000
,
00100000
01000000
01000000
01000000
,
00010000
00000000
00100000
00000000
,
00001000
00001000
00000000
00001000
,
00010000
00010000
00000000
00000100
,
00001000
00001000
00001000
00001000
,
00000010
00000000
00000010
00000010
,
00001000
00000000
00000100
00000000
,
00010000
00000000
00001000
00000000
,
00100000
00010000
00100000
00001000
,
00010000
00000000
00000010
00000000
,
00001000
00001000
00000000
00000001
,
00000010
00000010
00000000
00000001
,
00000100
00000100
00000010
00010000
,
00001000
00000000
00000000
00000000
,
00100000
00100000
00010000
00010000
,
01000000
01000000
01000000
00000000
,
00001000
00001000
00010000
00010000
,
00001000
00001000
00001000
00000000
,
10000000
00100000
01000000
00010000
,
00100000
00001000
00010000
00000100
,
00001000
00000010
00000100
00000001
,
00000001
00000000
00000001
00000001
,
00000001
00000100
00000010
00001000
,
00000100
00010000
00001000
00100000
,
00010000
01000000
00100000
10000000
,
10000000
00000000
10000000
00000000
,
10000000
00100000
01000000
00010000
,
00100000
00001000
00010000
00000100
,
00001000
00000010
00000100
00000001
,
00000001
00000000
00000001
00000000
,
00000001
00000100
00000010
00001000
,
00000100
00010000
00001000
00100000
,
00010000
01000000
00100000
10000000
,
10000000
00000000
10000000
00000000
,
10000000
00010000
01000000
00001000
,
00001000
00000000
00000000
00000000
,
00010000
00000100
00001000
00000001
,
00000100
00000000
00000000
00000000
,
00000001
00001000
00000010
00010000
,
00010000
00000000
00000000
00000000
,
00001000
00100000
00010000
10000000
,
00100000
00000000
00000000
00000000
,
00100000
00100000
00100000
00000000
,
00001000
00001000
00001000
00000000
,
00010000
00010000
00010000
00000000
,
00000010
00000010
00000010
00000001
,
00000010
00000010
00000010
00000000
,
00010000
00010000
00010000
00000000
,
00001000
00001000
00001000
00000000
,
00100000
00100000
00100000
00000000
,
00001000
00000000
00000000
00000000
,
00100000
00000000
00001000
00000000
,
10000000
00100000
01000000
00010000
,
00100000
00001000
00010000
00000100
,
00001000
00000010
00000100
00000001
,
00000001
00000000
00000001
00000001
,
00000001
00000100
00000010
00001000
,
00000100
00010000
00001000
00100000
,
00010000
01000000
00100000
10000000
,
10000000
00000000
10000000
00000000
,
10000000
00100000
01000000
00010000
,
00100000
00001000
00010000
00000100
,
00001000
00000010
00000100
00000001
,
00000001
00000000
00000001
00000000
,
00000001
00000100
00000010
00001000
,
00000100
00010000
00001000
00100000
,
00010000
01000000
00100000
10000000
,
10000000
00000000
00010000
00000000
,
00000000
00100000
00010000
01000000
,
00000000
00100000
00001000
00100000
,
00000000
00000100
00010000
00001000
,
00000000
00001000
00000010
00000100
,
00000001
00000000
00000000
00000000
;

//--------------- dance-double - K. Ward ----------------
#NOTES:
     dance-double:
     K. Ward:
     Medium:
     6:
     0.413,0.392,0.263,0.064,0:
00000000
00000000
00000000
00000000
,
00000000
00000000
00000000
00000000
,
00000000
00000000
00000000
00000000
,
00000000
00000000
00000000
00000000
,
00001000
00000000
00100000
00000000
00010000
00000000
10000000
00100000
,
00000000
00100000
01000000
00000000
00010000
00000000
01000000
00000000
,
00010000
00100000
00001000
00010000
,
00000020
00000000
00001000
00001030
,
00000001
00000100
00000010
00001000
,
00000100
00000000
00010000
00000000
00001000
00100000
00010000
00000000
,
10000000
01000000
00100000
00010000
,
10000000
00000000
00000000
00000000
00010000
00100000
00010000
10000000
,
00100000
01000000
00100000
10000000
,
00010000
00000000
00100000
00000000
00001000
00010000
00001000
00000000
,
00010000
00001000
00100000
00001000
,
00010000
00000000
00000000
00000000
00001000
00000100
00001000
00000000
,
00000001
00000000
00001000
00000000
00000100
00000000
00010000
00001000
,
00000000
00001000
00100000
00000000
00010000
00000000
10000000
00000000
,
10000000
00000000
00010000
00000000
00100000
00000000
00001000
00010000
,
00000000
00010000
00000100
00000000
00001000
00000000
00000001
00000000
,
00000101
00000000
00000100
00000100
,
00000010
00000000
00000000
00000000
00001000
00000000
00000100
00010000
,
00000100
00001100
00010000
00001000
,
00110000
00000000
00010000
00010000
,
10100000
00100000
10000000
10000000
,
00010000
00010000
00100000
00000000
,
00001000
00001000
00010000
00010000
,
00000010
00000010
00001100
00000000
,
00000001
00000110
00000010
00001000
,
00000100
00011000
00001000
00100000
,
00010000
01100000
00100000
10000000
,
10010000
00000000
00000000
00000000
10000000
01000000
10000000
00000000
,
10000000
01100000
01000000
00010000
,
00100000
00011000
00010000
00000100
,
00001000
00000110
00000100
00000001
,
00001001
00000000
00000000
00000000
00000001
00000100
00000001
00000100
,
00000001
00000110
00000010
00001000
,
00000100
00011000
00001000
00100000
,
00010000
01100000
00100000
10000000
,
10010000
00000000
00000000
00000000
10000000
01000000
10000000
00000000
,
10000000
01100000
01000000
00010000
,
00100000
00011000
00010000
00000100
,
00001000
00000110
00000100
00000001
,
00001001
00000000
00000000
00000000
00000001
00000100
00000002
00000000
,
00001003
00000000
00001000
00000000
00000010
00000000
00010000
00001000
,
00020000
00000000
00000000
00000000
00030000
00000000
00001000
00010000
,
00001000
00100000
00010000
10000000
,
00200000
00000000
00300000
10000000
,
10000000
00000000
00010000
00000000
01000000
00000000
00001000
00010000
,
00002000
00000000
00000000
00000000
00003000
00000000
00010000
00001000
,
00010000
00000100
00001000
00000001
,
00000200
00000000
00000301
00001000
,
00000010
00001000
00000010
00000000
00000010
00000000
00001000
00000000
,
00010000
00001000
00100000
00000000
00010000
00000000
00010000
00000000
,
10000000
00100000
01000000
00000000
00001000
00010000
00000100
00000000
,
00001000
00000001
00000001
00001000
,
00000010
00001000
00000010
00000000
00000010
00000000
00001000
00000000
,
00010000
00001000
00100000
00000000
00010000
00000000
00010000
00000000
,
10000000
00010000
00100000
00000000
00001000
00010000
00000100
00000000
,
00001000
00000001
00000001
00001000
,
00002002
00000000
00003003
00000000
,
00001100
00000000
00000011
00001100
,
00000001
00000110
00000010
00001000
,
00000100
00011000
00001000
00100000
,
00010000
01100000
00100000
10000000
,
10010000
00000000
00000000
00000000
10000000
01000000
10000000
00000000
,
10000000
01100000
01000000
00010000
,
00100000
00011000
00010000
00000100
,
00001000
00000110
00000100
00000001
,
00001001
00000000
00000000
00000000
00000001
00000100
00000001
00000100
,
00000001
00000100
00000010
00001000
,
00000100
00000000
00010000
00000000
00001000
00010000
00001000
00100000
,
00010000
01000000
00100000
10000000
,
10000000
00000000
00000000
00000000
10000000
01000000
10000000
00000000
,
10000000
00100000
01000000
00010000
,
00100000
00000000
00001000
00000000
00010000
00000100
00001000
00000000
,
00000001
00000000
00000100
00000000
00000001
00000100
00000001
00000100
,
00000001
00000000
00000000
00000000
00001000
00000100
00010000
00000000
,
00001000
00000000
00100000
00000000
00010000
00000000
10000000
00100000
,
00000000
00100000
01000000
00000000
00010000
00000000
00100000
00000000
,
00100000
00001000
00010000
00000100
,
00001000
00000000
00000010
00001000
,
00000100
00000000
00000000
00000000
;

//--------------- dance-double - K. Ward ----------------
#NOTES:
     dance-double:
     K. Ward:
     Hard:
     9:
     0.597,0.588,0.534,0.072,0.092:
00000000
00000000
00000000
00000000
,
00000000
00000000
00000000
00000000
,
00000000
00000000
00000000
00000000
,
00000000
00000000
00000000
00000000
,
00001000
00000100
00000010
00000001
00000100
00000010
00001000
00000100
,
00000000
00001010
00000000
00000100
00000010
00000000
00001100
00000000
,
00110000
00000000
00010000
00100000
01000000
10000000
00100000
01000000
,
00000000
00001000
00010000
00000000
00001100
00000000
00001001
00000000
,
00001000
00000100
00001000
00000001
00000010
00000100
00001000
00000100
,
00000000
00010000
00001000
00000000
00100000
01000000
10000000
00000000
,
10000000
01000000
00100000
00010000
00100000
00001000
00010000
00000100
,
00000000
00001000
00000010
00000100
00000001
00000000
00000001
00000000
,
00001000
00000010
00000100
00000001
00000010
00000100
00001000
00000100
,
00000000
00010000
00001000
00000000
00100000
01000000
10000000
00000000
,
10000000
01000000
00100000
00010000
00100000
00001000
00010000
00000100
,
00000000
00001000
00000010
00000100
00000001
00000000
00000001
00000000
,
00001001
00000110
00001001
00011000
,
00110000
00000000
11000000
00000000
00010000
00100000
00001000
00000000
,
00001100
00000011
00000110
00001001
,
00010010
00001100
00010000
00110000
,
10000000
00000000
00010000
00000000
00100000
00000000
00001000
00010000
,
00000010
00000000
00000000
00000000
00000100
00000000
00000000
00000000
00000200
00000000
00000000
00000010
00000000
00000000
00000010
00000000
,
00000310
00000000
00000100
00000000
00000001
00000000
00000010
00000100
,
00001000
00000100
00110000
10010000
,
10000000
00000000
00000000
10000000
00100000
00000000
00000000
00100000
01000000
00000000
00000000
01000000
00010000
00000000
00000000
00010000
,
00100000
00000000
00000000
00100000
00001000
00000000
00000000
00001000
00020000
00000000
00000000
00000000
00000000
00000000
00000000
00000000
,
00030001
00000000
00000000
00000001
00000100
00000000
00000000
00000100
00000010
00000000
00000000
00000010
00001000
00000000
00000000
00001000
,
00000100
00000000
00000000
00000100
00010000
00000000
00000000
00010000
00001000
00000000
00000000
00000000
00001100
00000000
00000000
00000000
,
00000001
00000010
00000100
00000000
00010000
00001000
00100000
00000000
,
00010000
10000000
00100000
01000000
00010000
00100000
00100000
00000000
,
00001000
00010000
00000100
00000000
00001000
00000010
00000100
00000000
,
00000010
00000010
00000100
00000100
,
00000001
00000010
00000100
00000000
00010000
00001000
00100000
00000000
,
00010000
10000000
00100000
01000000
00010000
00100000
00001000
00000000
,
00001000
00010000
00000010
00000100
00000001
00000010
00000100
00001000
,
00000100
00000110
00001001
00000110
,
00000001
00000010
00000100
00000000
00010000
00001000
00100000
00000000
,
00010000
10000000
00100000
01000000
00010000
00100000
00100000
00000000
,
00001000
00010000
00000100
00001000
00000010
00000100
00000001
00000100
,
00000010
00000000
00001000
00000000
00000101
00000000
00001001
00001000
,
00000001
00000010
00000100
00000000
00010000
00001000
00100000
00000000
,
00010000
10000000
00100000
01000000
00010000
00100000
00100000
00000000
,
00001000
00010000
00000010
00001000
00000100
00000010
00000001
00000100
,
00000010
00000000
00000000
00000000
00000110
00000000
00000000
00000000
00001000
00000001
00000000
00000001
00000010
00000000
00000100
00000000
,
00001000
00002000
00000010
00003010
,
00010000
00020000
00001000
00031000
,
00100000
01000000
00010000
00000000
00100000
00001000
00010000
00000100
,
00002000
00000000
00000000
00000000
00000010
00000000
00000000
00000000
00000010
00000000
00000000
00000010
00003000
00000000
00000010
00000000
,
00010000
00020000
00000100
00031000
,
00002000
00000000
00100000
00000000
00013000
00000000
00010000
00001000
,
00200000
00000000
00000000
00300000
01000000
10000000
01000000
10000000
,
01000000
00000000
00000000
00000000
00100000
00000000
00000000
00000000
00100000
01000000
00000000
01000000
00100000
00000000
01000000
00000000
,
01100000
10010000
01100000
01010000
,
00101000
00110000
00011000
00001010
,
00000101
00000011
00001100
00010010
,
00101000
00000000
01010000
00000000
10000000
01000000
00100000
00000000
,
00110000
10010000
01100000
10010000
,
01001000
00110000
00010100
00001100
,
00000101
00000011
00001100
00010010
,
01001000
00000000
10010000
00000000
01000000
00100000
01000000
00010000
,
10010000
00000000
00000000
00000000
,
00001001
00000000
00011000
00011000
,
00000001
00000010
00000100
00000000
00010000
00001000
00100000
00000000
,
00010000
10000000
00100000
01000000
00010000
00100000
00100000
00000000
,
00001000
00010000
00000100
00001000
00000010
00000100
00000001
00000100
,
00000010
00000000
00000000
00000000
00000010
00000000
00000000
00000000
00000100
00000010
00000000
00000000
00000100
00000000
00000010
00000000
,
00001000
00000100
00010000
00000000
00010000
00001000
00100000
00000000
,
00010000
10000000
00100000
01000000
00010000
00100000
00100000
00000000
,
00001000
00010000
00000100
00001000
00000001
00000100
00000010
00000100
,
00000010
00000000
00000000
00000000
00000010
00000000
00000000
00000000
00001000
00000001
00000000
00000001
00000010
00000000
00000100
00000000
,
00000010
00000000
00001001
00000000
00010000
00001000
00100000
00000000
,
10000000
00100000
01000000
00010000
00100000
00001000
00010000
00000000
,
00001000
00010000
00000100
00001000
00000010
00000100
00000001
00000011
,
00000000
00000110
00000000
00000001
00001001
00000000
00001100
00000000
,
00000001
00000010
00000100
00000000
00010000
00001000
00100000
01000000
,
00000000
00000000
10010000
00000000
00010000
00100000
00001000
00000000
,
00001000
00010000
00000010
00000100
00000001
00000010
00000100
00000020
,
00000000
00000000
00000000
00000000
00000031
00000000
00000000
00000000
00000100
00000010
00000000
00000100
00000010
00000000
00000000
00000000
,
00001000
00000100
00010000
00001000
00100000
00010000
01000000
00100000
,
00000000
10010000
00000000
00000000
01000000
00100000
10000000
00000000
,
00100000
01000000
00001000
00010000
00000010
00000100
00000001
00000010
,
00000000
00000100
00001000
00000000
00000100
00000000
00000010
00000000
,
00001001
00000000
00000000
00000000
;

//--------------- dance-double - M. Emirzian ----------------
#NOTES:
     dance-double:
     M. Emirzian:
     Challenge:
     11:
     0.759,0.85,0.255,0.048,0.299:
00000000
00000000
00000000
00000000
,
00000000
00000000
00000000
00000000
,
00000000
00000000
00000000
00000000
,
00000000
00000000
00000000
00000000
,
00100000
10000000
01000000
00010000
01000000
10000000
00010000
10010000
,
00000000
00000000
00101000
00000000
00000000
00000000
00010000
00001000
00010000
00000000
00000100
00000000
00001000
00000000
00000010
00000000
,
00000100
00000001
00000010
00001000
00000010
00000001
00000100
00001001
,
00000000
00000110
00000100
00001000
00001001
0000M00M
00011000
000MM000
,
00100000
00000000
10000000
00000000
01000000
00000000
00010000
00000000
01000000
00000000
10000000
00010000
10000000
00000000
00100000
00000000
,
01000000
00000000
00100000
00000000
00010000
00000000
00001000
00010000
00001000
00000000
00100000
00000000
01000000
00000000
00010000
00000000
,
00001000
00000000
00000010
00000000
00001000
00000000
00010000
00000000
00000010
00000000
00001000
00000010
00000100
00000000
00000010
00000000
,
00000100
00000000
00000001
00000000
00000010
00000000
00000100
00001000
00000100
00000000
00000001
00000000
00000100
00000000
00001000
00000000
,
00000010
00000000
00000100
00000000
00001000
00000000
00010000
00000000
00001000
00000000
01000000
00010000
00100000
00000000
00001000
00000000
,
00010000
00000000
00100000
00000000
10000000
00000000
01000000
00100000
00010000
00000000
10000000
00000000
00010000
00000000
01000000
00000000
,
00100000
00000000
10000000
00000000
01000000
00000000
00010000
00000000
00001000
00000000
00000010
00000100
00001000
00000000
00000001
00000000
,
00000100
00000000
00000010
00000000
00001000
00000000
00000100
00000010
00000001
00000000
00001000
00000000
00000001
00000000
00000100
00000000
,
00000010
00000000
00001000
00000100
00010000
00001000
00011000
01001000
,
00000000
00000000
00110000
00000000
00000000
00000000
10000000
00010000
01000000
00000000
00100000
00000000
01000000
00000000
00010000
00000000
,
00100000
00000000
01000000
10000000
00100000
00010000
00100000
10000000
,
01000000
00100000
00010000
00000000
00100000
00001000
00010000
00000000
00001000
00010000
00000010
00000000
00001010
00000000
00001000
00000000
,
00000100
00000000
00000010
00000001
00000100
00000110
0000000M
00000001
,
00000100
00000000
00000010
00001000
00000100
00000010
00000100
00000000
,
00010000
000M0000
00100000
10000000
01000000
00110000
0M000000
01000000
,
00100000
00000000
10000000
01000000
00010000
01000000
10000000
00100000
,
01000000
00000000
00000000
01000000
00010000
00000000
01000000
00100000
01000000
00000000
00001000
00000000
00010000
00000000
00000010
00000000
,
00001000
00000100
00000010
00000100
00010000
00000010
00000100
00000000
,
00000001
00000000
00000000
00000100
00000010
00000000
00000000
00000000
00001001
00000000
00000000
00000000
00000010
00000000
00000100
00000000
,
00001000
00010100
00022000
00033000
,
00001000
00000000
00010000
00000000
01000000
00000000
10000000
00000000
00010000
00000000
01000000
00100000
10000000
00000000
00010000
00000000
,
00100000
01000000
10000000
00000000
00010000
00000000
10000000
00000000
01000000
00010000
00001000
00000000
00100000
00000000
00001000
00000000
,
00010000
00000010
00001000
00000100
00000010
00000001
00000100
00000010
,
00000100
00000001
00001000
00000000
00000100
00000000
00000010
00000000
00000100
00001000
00000001
00000000
00000100
00000000
00001000
00000000
,
00010000
00000000
00100000
00000000
00010000
00000000
00001000
00000000
00100000
00000000
01000000
10000000
00100000
00000000
10000000
00000000
,
01000000
00100000
00010000
00000000
10000000
00000000
00100000
00000000
01000000
00001000
00010000
00000000
00001000
00000000
00000100
00000000
,
00000010
00000100
00000001
00000010
00000100
00001000
00000001
00000100
,
00000010
00001000
00000100
00000000
00000010
00000000
00000001
00000000
00000100
00000010
00001000
00000000
00000100
00000000
00010000
00000000
,
00001000
00000000
01000000
00000000
00100000
00000000
00010000
00000000
00100000
00000000
10000000
01000000
00100000
00000000
00010000
00000000
,
01000000
00100000
10000000
00000000
01000000
00000000
00100000
00000000
00010000
01000000
00001000
00000000
00010000
00000000
01000000
00000000
,
00010000
00001000
00000010
00001000
00010000
00000100
00000010
00000100
,
00001000
00000100
00000001
00000000
00000100
00000000
00001000
00000000
00000010
00000100
00001000
00000000
00000001
00000000
00000010
00000000
,
00001000
00000000
00000100
00000000
00000010
00000000
00001000
00000000
00100000
00000000
01000000
10000000
00100000
00000000
01000000
00000000
,
00100000
10000000
01000000
00000000
00100000
00000000
00010000
00000000
10000000
01000000
00010000
00000000
01000000
00000000
10000000
00000000
,
00010000
01000000
00100000
00010000
00100000
01000000
00001000
00000010
,
00000100
00010000
00001000
00000000
00000100
00000000
00000001
00000000
00000100
00000010
00001000
00000000
00000100
00000000
00000010
00000000
,
00000001
0000000M
00000100
00000010
00001000
00000000
00000100
00000000
,
00010100
000M0M00
00010000
00000000
00001000
01000000
00010000
00000000
,
00100000
00M00000
01000000
10000000
00010000
00000000
10010000
00000000
,
02020000
00000000
00100000
00000000
10000000
03000000
00130000
00000000
,
00010000
000M0000
00100000
01000000
10000000
M0000000
00010000
00000000
,
00202000
00000000
00010000
00000000
00000100
00300000
00013000
00000000
,
00000010
00000000
00001000
00000100
00000010
00000000
00000001
0000000M
,
00000010
00000000
00000100
00001000
00000010
00000100
00000010
00001000
,
00000100
00000000
00000010
00000001
00001000
00000000
00000100
00010000
00001000
00000000
00010000
00001000
00100000
00000000
00001000
00000000
,
01000000
00000000
00100000
10000000
00010000
00000000
01000000
00010000
10000000
00000000
00100000
10000000
00010000
00000000
01000000
00000000
,
00001000
00000000
00100000
00010000
01000000
00000000
00001000
00010000
01000000
00000000
00010000
00001000
00010000
00000000
00001000
00000000
,
00010000
00000000
00000010
00010000
00001000
00000000
00000010
00000000
00000100
00000000
00001000
00000001
00000010
00000000
00000100
00000000
,
00001000
00000000
00000010
00001000
00000100
00000000
00000010
00000100
00001000
00000000
00000010
00000100
00000001
00000000
00001000
00000000
,
00000001
00000000
00000100
00001000
00010000
00000000
00010000
00100000
10000000
00000000
00100000
10000000
01000000
00000000
01100000
00000000
,
00100000
00000000
00010000
10000000
01000000
00000000
10000000
01000000
00010000
00000000
01000000
00010000
00001000
00000000
00001000
00000100
,
00000010
00000000
00001000
00000100
00000010
00000001
00000100
00000010
00010000
00001000
00000100
00000000
00000001
00000000
00000010
00000000
,
00001001
00000000
00001000
00000100
00000010
00000000
00000100
00000000
,
00001000
0000M000
00000010
00001000
00001100
00000000
00011000
000MM000
,
10000000
00000000
00100000
00000000
01000000
00000000
00010000
00000000
00100000
00000000
01000000
10000000
01000000
00000000
00010000
00000000
,
00001000
00000000
01000000
00000000
00100000
00000000
01000000
00010000
00100000
00000000
00001000
00000000
00010000
00000000
00000010
00000000
,
00001000
00000000
00000100
00000000
00000001
00000000
00000100
00000000
00001000
00000000
00000010
00000100
00000001
00000000
00001000
00000000
,
00000001
00000000
00000100
00000000
00000010
00000000
00001000
00000100
00000010
00000000
00000100
00000000
00010000
00000000
00001000
00000000
,
00000100
00000000
00001000
00000000
00010000
00000000
00100000
00000000
10000000
00000000
00010000
01000000
10000000
00000000
01000000
00000000
,
00010000
00000000
00100000
00000000
10000000
00000000
00100000
00010000
01000000
00000000
00100000
00000000
00010000
00000000
00000010
00000000
,
00001000
00000000
00000100
00000000
00000010
00000000
00000001
00000000
00000100
00000000
00000010
00001000
00000100
00000000
00000010
00000000
,
00000001
00000000
00000100
00000000
00001000
00000000
00000100
00001000
00010000
00000000
00001000
00000000
00010000
00000000
01000000
00000000
,
10000000
00100000
10000000
01000000
00100000
00010000
10000000
10010000
,
M00M0000
00000000
00011000
00000000
000MM000
00000000
00010000
00001000
00000100
00000000
00001000
00000000
00000100
00000000
00000010
00000000
,
00001000
00000100
00000010
00000001
00000100
00000010
00001000
00001001
,
0000M00M
00000000
00000100
00000000
00000010
00000000
00000100
00000000
00001000
00000000
00000001
00000100
00000010
00000000
00000100
00000000
,
00001000
00000000
00011000
000MM000
01000000
00010000
00100000
10010000
,
M00M0000
11000000
MM000000
00100000
00010000
01000000
10000000
01000000
,
00010000
10000000
01000000
00100000
00001000
00000100
00000001
00000010
,
00000100
00000000
00010000
00000000
00001000
00010000
00000010
00001000
00000100
00000010
00000001
00000000
00001001
00000000
00001100
00000000
,
00000001
00000000
00000100
00000010
00001000
0000M000
00000100
00000100
,
00000000
00010000
00000000
00001000
00001000
0000M000
00110000
00000000
,
01000000
00100000
10000000
M0000000
01000000
00000000
00100000
00010000
,
00000000
00000000
01000000
00000000
00100000
10000000
00100000
00000000
01000000
00000000
00010000
00000000
00100000
00000000
01000000
00000000
,
10000000
00000000
00000000
00000000
;

//--------------- dance-couple - Easy ----------------
#NOTES:
     dance-couple:
     Easy:
     Easy:
     4:
     0.452,0.588,0.853,0.223,0:
00000000
00000000
00000000
00000000
,
00000000
00000000
00000000
00000000
,
00000000
00000000
00000000
00000000
,
00000000
00000000
00000000
00000000
,
01000000
00000000
00000000
00000000
,
00001000
00000000
00000000
00000000
,
00100000
00000000
00000001
00000000
,
01000010
00100100
01011010
01011010
,
00001000
00010000
00000000
00001000
,
00100000
00100000
00000000
00001000
,
00010000
00010000
00000000
00001000
,
00100000
00000100
00100000
00000100
,
00010000
00001000
00000000
00010000
,
00000010
00000010
00000000
01000000
,
00000001
00000001
00000000
00001000
,
00100000
00000100
00100000
00000100
,
00000100
00010000
00001000
00100000
,
02000020
00000000
03000030
00011000
,
10000001
00100100
01000010
00011000
,
00022000
00000000
00033000
00100100
,
20000010
00000100
00000001
00000100
,
30000010
00000000
00010000
00000000
,
10000200
00100000
01000000
00010000
,
00000310
00000000
00001000
00000100
,
01100000
00001001
00001001
00000000
,
00110000
00001100
00001100
00000000
,
00000110
10010000
10010000
00000000
,
00001100
00110000
00110000
00011000
,
01000001
00010000
01000100
00001000
,
00100000
00001000
00010000
00100010
,
10000001
01000010
00100100
00011000
,
00011000
00100100
01000010
10000001
,
00000010
00001000
00000010
00010000
,
00000100
00010000
00001000
00000100
,
10000001
01000010
00100100
00011000
,
00011000
00100100
01000010
10000001
,
01000000
00010000
01000000
00001000
,
00100000
00001000
00010000
00100000
,
10000001
01000010
00100100
00011000
,
00011000
00100100
01000010
10000001
,
00000010
00001000
00000010
00010000
,
00000100
00010000
00001000
00000100
,
10000001
01000010
00100100
00011000
,
00011000
00100100
01000010
10000001
,
00020200
00000000
00000000
00000000
,
20032300
00000000
00000000
00000000
,
30003002
00000000
00200003
00000000
,
00300200
00020300
00031000
00010000
,
20002000
00000000
00000000
00000000
,
30203002
00000000
00000000
00000000
,
00320003
00000000
00030200
00000000
,
00200300
00000000
00302000
00000000
00013000
00000000
00001000
00010000
,
00000100
00010000
00000000
00001000
,
00100000
00000100
00000000
00100000
,
00000100
00001000
00000001
00000100
,
00010000
10000000
01001000
00000010
,
00100000
00001000
00000000
00010000
,
00000100
00100000
00000000
00000100
,
00000010
00001000
10000001
00100000
,
00001000
00000010
00010000
01000100
,
02000000
00000000
03000020
00000000
,
00001130
00000000
01101100
00110110
,
01000001
00010000
01000100
00001000
,
00100000
00001000
00010000
00100010
,
10000001
01000010
00100100
00011000
,
00011000
00100100
01000010
10000001
,
00000010
00001000
00000010
00010000
,
00000100
00010000
00001000
00000100
,
10000001
01000010
00100100
00011000
,
00011000
00100100
01000010
10000001
,
01000000
00010000
01000000
00001000
,
00100000
00001000
00010000
00100000
,
10000001
01000010
00100100
00011000
,
00011000
00100100
01000010
10000001
,
00000010
00001000
00000010
00010000
,
00000100
00010000
00001000
00000100
,
10000001
01000010
00100100
00011000
,
00011000
00100100
01000010
10000001
,
00020000
00000000
00000000
00000000
00000000
00000000
00000000
00030002
,
00000000
00000000
00000000
00000000
,
20000003
00000000
00000000
00000000
,
30002000
00000000
00000000
00000000
,
00003000
00000000
00000000
00000000
;

//--------------- dance-couple - Medium ----------------
#NOTES:
     dance-couple:
     Medium:
     Medium:
     6:
     0.748,0.85,1,0.167,0:
00000000
00000000
00000000
00000000
,
00000000
00000000
00000000
00000000
,
00000000
00000000
00000000
00000000
,
00000000
00000000
00000000
00000000
,
10010000
00000000
00000000
00000000
00000000
00000000
00000000
00000110
,
00000000
00000000
00000000
01000000
,
10010000
00000000
00001001
00000100
,
01000010
00000000
10100101
01011010
,
10011001
00100100
01000010
00101000
,
00010001
00000000
00100010
00000000
01000100
00000000
00100000
01000000
,
00011000
01000010
00100100
01000001
,
00011000
00000000
00000001
00000000
10000010
00000000
00100001
00000010
,
00011000
00100001
00010010
10000001
,
00011000
00000000
01000001
00000000
00100100
00000000
01000010
00100000
,
10001000
00100010
01000100
00100010
,
00010001
00000000
00101000
00000000
01000010
00000000
00100100
00000010
,
00100100
10011001
00100010
10000100
,
00010010
10001100
01000001
00110100
,
10001000
00100011
01000010
11001000
,
00100010
01011100
00100010
00110011
,
10012002
00000000
10000000
00000000
10000000
00000000
10000000
00103003
,
20020100
00000000
00000100
00000000
00000100
00000000
00000100
30030100
,
00102002
00000000
00100000
00003003
20020010
00000000
00000010
30030000
,
00100100
00100100
00100100
00000000
,
10000000
10000000
00000010
00000000
00000100
00000100
00010000
00000000
,
01000000
01000000
00000001
00000000
00000100
00000100
01000000
00000000
,
00010000
00010000
00000100
00000000
00000001
00000001
10000000
00000000
,
00100010
00100010
01000100
00000000
00011000
00011000
01000100
01000100
,
10000001
00000000
00011000
00000000
00000000
01000100
00000000
00011000
,
00000000
00000000
10000010
00000000
00000000
10000100
00010010
00000000
,
10000001
01000010
00100100
00011000
,
00011000
00100100
01000010
10000001
,
00011000
00000000
10000001
00000000
00000000
00100100
00000000
10000010
,
00000000
00000000
00010001
00000000
00000000
00011000
10000001
00000000
,
10000001
00000010
01000001
00000100
00100001
00000001
00011000
00000000
,
00011000
00100000
00010100
01000000
00010010
10000000
10000001
00000000
,
10000001
00000000
00011000
00000000
00000000
01000100
00000000
00011000
,
00000000
00000000
10000010
00000000
00000000
10000100
00010010
00000000
,
10000001
01000010
00100100
00011000
,
00011000
00100100
01000010
10000001
,
00011000
00000000
10000001
00000000
00000000
00100100
00000000
10000010
,
00000000
00000000
00010001
00000000
00000000
00011000
10000001
00000000
,
10000001
00000010
01000001
00000100
00100001
00000001
00011000
00000000
,
00011000
00100000
00010100
01000000
00010010
10000000
10000001
00000000
,
10001000
00020000
10031000
01000000
,
02000001
00000000
00000000
00000000
03000001
00010000
10000000
00010000
,
10000200
00000000
00000000
00000000
10000301
00001000
00000001
00001000
,
00010200
00000000
00000000
00000000
00010300
00001000
00000001
00001000
,
10000010
02000000
03101000
00010000
,
00020010
00000000
00000000
00000000
00031000
10000000
00200000
00000000
,
10300200
00000000
00000000
00000310
00101000
00000001
00001000
00000001
,
10000200
00000000
00000000
00000000
00100000
00000000
00000310
00001000
,
01000010
10011001
01000010
10011001
,
01000010
00000000
00100100
00000000
01000010
00000000
00100100
10000001
,
01000010
11000011
01000010
11000011
,
01000010
00000000
00100100
00000000
01000010
00100100
01000010
10000001
,
01000010
10100101
01000010
10100101
,
01000010
00000000
01000010
00000000
01000010
00000000
00011000
00100100
,
01000010
11000011
00100100
00111100
,
00100100
00000000
00011000
00000000
00100100
00011000
01000010
00000000
,
00010000
00000000
00000000
00000001
00010000
00000000
00000010
00000000
,
00011000
00000000
01100110
01100110
,
10000001
00000000
00011000
00000000
00000000
01000100
00000000
00011000
,
00000000
00000000
10000010
00000000
00000000
10000100
00010010
00000000
,
10000001
01000010
00100100
00011000
,
00011000
00100100
01000010
10000001
,
00011000
00000000
10000001
00000000
00000000
00100100
00000000
10000010
,
00000000
00000000
00010001
00000000
00000000
00011000
10000001
00000000
,
10000001
00000010
01000001
00000100
00100001
00000001
00011000
00000000
,
00011000
00100000
00010100
01000000
00010010
10000000
10000001
00000000
,
10000001
00000000
00011000
00000000
00000000
01000100
00000000
00011000
,
00000000
00000000
10000010
00000000
00000000
10000100
00010010
00000000
,
10000001
01000010
00100100
00011000
,
00011000
00100100
01000010
10000001
,
00011000
00000000
10000001
00000000
00000000
00100100
00000000
10000010
,
00000000
00000000
00010001
00000000
00000000
00011000
10000001
00000000
,
10000001
00000010
01000001
00000100
00100001
00000001
00011000
00000000
,
00011000
00100000
00010100
01000000
00010010
10000000
10000001
00100000
,
20000000
00000000
00000000
00000000
31000000
00100000
00001000
00000200
,
00000000
00000000
00000000
00000000
00000000
00000300
00100010
00000000
,
20000002
00000000
00000000
00000000
00000000
00000000
30000003
01000100
,
00000000
00100100
00011000
01000010
00100100
10000001
01000010
00100100
,
00011000
00000000
00000000
00000000
;

//--------------- dance-couple - Hard ----------------
#NOTES:
     dance-couple:
     Hard:
     Hard:
     8:
     0.915,1,1,0.088,0.052:
00000000
00000000
00000000
00000000
,
00000000
00000000
00000000
00000000
,
00000000
00000000
00000000
00000000
,
00000000
00000000
00000000
00000000
,
01000010
00000000
00000000
00000000
01000100
00001000
00010000
00100000
,
00000000
00100000
00000000
00001000
00100000
00010000
01000010
00000000
,
01000010
00000000
00000000
00000000
00100010
00001000
00010001
00000000
,
01000010
00000000
01101001
10010110
,
00100010
00000000
00100001
00000000
00001000
00010000
00000000
00000100
,
00000000
00010000
10000100
00000100
10001000
00000010
01001000
00000000
,
00000001
00000000
00010000
00001000
00010000
00000100
00000000
00010000
,
00000010
00100000
00000001
00010000
00001000
00010000
00100000
00000000
,
00100010
00000000
00100010
00000000
00001000
00010000
00000000
00000100
,
00000000
00010000
00000100
00000100
10001000
00000010
01001000
00000000
,
00000100
00000000
00010000
00001000
00010000
00000100
00000000
00010000
,
00000010
00100000
00000000
00010010
10001000
00010010
10001000
00000000
,
00100100
01011010
00100100
01011010
,
10000001
01011010
10000001
01011010
,
00100100
00110011
00100010
00111100
,
10101000
00100101
10100010
00010101
,
10000001
00000000
00011000
00000000
01000100
00000000
00010010
01001000
,
00010010
00000000
00000000
00000000
00000100
00000000
00000000
00000000
00101000
00000000
00000000
00010010
00000000
00000000
00100100
00000000
,
00011000
00000000
00011000
00000000
01000010
00000000
00100010
01000100
,
00100010
00000000
00000000
00000000
01000100
00000000
00000000
00000000
00101000
00000000
00000000
10000000
00000000
00000000
00101000
00000000
,
00010000
00000000
00000000
00010000
10000001
00000000
00000000
00000000
00000010
00000000
00000000
00000010
00011000
00000000
00000000
00000000
,
00010000
00000000
00000000
00010000
10000001
00000000
00000000
00000000
00000001
00000000
00000000
00000001
01000010
00000000
00000000
00000000
,
00100000
00000000
00000000
00100000
10000001
00000000
00000000
00000000
00000001
00000000
00000000
00000001
00011000
00000000
00000000
00000000
,
00011000
00000000
00000000
00011000
00100100
00000000
00000000
00000000
00100100
00000000
00000000
00100100
00011000
00000000
00000000
00000000
,
10001000
00000001
01000100
00000000
00100000
00010000
01000100
00000000
,
00001000
00000001
01000100
00010000
00100000
00010000
01000001
00000000
,
10000001
01000010
10000001
00100100
10000001
00011000
10000001
00000000
,
00011000
00100100
00011000
01000010
00011000
10000001
00011000
00000000
,
10001000
00010000
01000100
00000000
00000010
00000001
01000100
00000000
,
10000000
00010000
01000100
00000001
00000010
00000001
00010100
00000000
,
00011000
00100100
00011000
01000010
00011000
10000001
00011000
00000000
,
10000001
01000010
10000001
00100100
10000001
00011000
10000001
00000000
,
10001000
00000001
01000100
00000000
00100000
00010000
01000100
00000000
,
00001000
00000001
01000100
00010000
00100000
00010000
01000001
00000000
,
10000001
01000010
10000001
00100100
10000001
00011000
10000001
00100100
,
00011000
00100100
00011000
01000010
00011000
10000001
00011000
00000000
,
10001000
00010000
01000100
00000000
00000010
00000001
01000100
00000000
,
10000000
00010000
01000100
00000001
00000010
00000001
00010100
00000000
,
00011000
00100100
00011000
01000010
00011000
10000001
00011000
01000010
,
10000001
01000010
10000001
00100100
10000001
00011000
10000001
00000000
,
00011000
00000000
00000000
00000000
01000100
00010000
00100000
00000000
00010000
00000000
00000000
00000000
00010010
00000000
00000000
00000000
,
20000200
00000000
00000000
30000300
00000000
00000010
00010100
00000010
,
10002000
00000000
00100000
00003000
01000010
00000100
00010001
00000100
,
00200020
00000000
00000000
00000000
00000000
00000000
00311030
00011000
,
10000001
00000000
00000000
00000000
01000100
00000001
00000010
00000000
00000001
00000000
00000000
00000000
00100001
00000000
00000000
00000000
,
02002000
00000000
00000000
03003000
00000000
00100000
01000001
00100000
,
20001000
00000000
00000010
30000000
00100100
01000000
00010001
01000000
,
00200020
00000000
00000000
00000000
00000000
00000000
10300031
10000001
,
00011000
00011000
01000000
00000010
00010000
00000100
01000000
00000001
,
00100100
00000000
10000001
00000000
00100100
10000001
00011000
00000000
,
00011000
00011000
01000000
00000010
00010000
00000100
01000000
00000001
,
00100100
00000000
10000001
00000000
00100100
10000001
00011000
00000000
,
00011000
00011000
01000000
00000010
00010000
00000100
01000000
00000001
,
00100100
00000000
10000001
00000000
00100100
10000001
00011000
00000000
,
00011000
00011000
01000000
00000010
00010000
00000100
01000000
00000001
,
00100100
00000000
10000001
00000000
00100100
10000001
00011000
00000000
,
01002000
00000000
00000000
00100000
00013000
00000001
00100010
00000000
,
10001000
01000100
10101010
01010101
,
10001000
00000001
01000100
00000000
00100000
00010000
01000100
00000000
,
00001000
00000001
01000100
00010000
00100000
00010000
01000001
00000000
,
10000001
01000010
10000001
00100100
10000001
00011000
10000001
00000000
,
00011000
00100100
00011000
01000010
00011000
10000001
00011000
00000000
,
10001000
00010000
01000100
00000000
00000010
00000001
01000100
00000000
,
10000000
00010000
01000100
00000001
00000010
00000001
00010100
00000000
,
00011000
00100100
00011000
01000010
00011000
10000001
00011000
00000000
,
10000001
01000010
10000001
00100100
10000001
00011000
10000001
00000000
,
10001000
00000001
01000100
00000000
00100000
00010000
01000100
00000000
,
00001000
00000001
01000100
00010000
00100000
00010000
01000001
00000000
,
10000001
01000010
10000001
00100100
10000001
00011000
10000001
00100100
,
00011000
00100100
00011000
01000010
00011000
10000001
00011000
00000000
,
10001000
00010000
01000100
00000000
00000010
00000001
01000100
00000000
,
10000000
00010000
01000100
00000001
00000010
00000001
00010100
00000000
,
00011000
00100100
00011000
01000010
00011000
10000001
00011000
01000010
,
10000001
01000010
10000001
00100100
10000001
00011000
10000001
00000000
,
00011000
00000000
00000000
00000000
00101000
10000010
00010100
01000001
,
00000000
00100010
00000000
00000000
00010010
01000000
00011000
00100000
,
00010010
00000000
00000000
00000000
00010000
10000001
00011000
01000010
,
00000000
00000000
01000010
00000000
00011000
00100100
00011000
00000000
00100100
00000000
01000010
00000000
10000001
00000000
00100100
00000000
,
01000010
00000000
00000000
00000000
;

//--------------- lights-cabinet - ----------------
#NOTES:
     lights-cabinet:
     :
     Easy:
     1:
     0.824,1,1,0.072,0.076:
000000
000000
000000
000000
,
000000
000000
000000
000000
,
000000
000000
000000
000000
,
000000
000000
000000
000000
,
100000
000000
000000
000000
100000
000100
001000
010000
,
000000
010000
000000
000100
010000
001000
100000
000000
,
100000
000000
000000
000000
010000
000100
001000
000000
,
100000
000000
100111
011011
,
100100
000000
100000
000000
010000
001000
000000
100100
,
000000
010000
100000
000100
001000
010000
100000
000000
,
000100
000000
010000
001000
010000
000100
000000
010000
,
000000
100000
000000
010000
001000
010000
100000
000000
,
100100
000000
100000
000000
001000
010000
000000
100100
,
000000
001000
100000
000100
010000
001000
100000
000000
,
000100
000000
001000
010000
001000
000100
000000
010000
,
000000
100000
000000
001000
010000
001000
100000
000000
,
010000
101000
001000
101000
,
010000
000000
010100
000000
001000
000000
010000
000100
,
010000
001100
001000
001100
,
010000
000000
110000
000000
001000
000000
010000
100000
,
010000
000000
100000
000000
001000
000000
000100
010000
,
000100
000000
000000
000000
001000
000000
000000
000000
010000
000000
000000
100000
000000
000000
001000
000000
,
100000
000000
010000
000000
001000
000000
000100
001000
,
000100
000000
000000
000000
001000
000000
000000
000000
010000
000000
000000
100000
000000
000000
100000
000000
,
010000
000000
000000
010000
100000
000000
000000
100000
001000
000000
000000
001000
010000
000000
000100
000000
,
010000
000000
000000
010000
001000
000000
000000
001000
100000
000000
000000
100000
010000
000000
001000
000000
,
010000
000000
000000
010000
100000
000000
000000
100000
001000
000000
000000
001000
010000
000000
000100
000000
,
010000
000000
000000
010000
001000
000000
000000
001000
100000
000000
000000
100000
010000
000000
001000
000000
,
010010
000001
100110
000001
010010
001001
100010
000000
,
000110
000001
100010
001001
010010
001001
100010
000000
,
010011
000000
100100
000000
010011
001000
000100
000000
,
100011
000000
000111
001000
010011
001000
000100
000000
,
100010
000001
110010
000001
100010
001001
000010
101000
,
000010
001001
000110
001001
100010
010001
000110
000000
,
100011
000000
101011
000000
100011
010000
000000
110000
,
000011
010000
000100
010000
100011
001000
000100
000000
,
001010
000001
100110
000001
001010
010001
000110
000000
,
100010
000001
000110
010001
001010
010001
000110
000000
,
001011
000000
100100
000000
001011
010000
100000
000000
,
000111
000000
100011
010000
001011
010000
100000
000000
,
000110
000001
001110
000001
000110
010001
000010
010100
,
000010
010001
100010
010001
000110
001001
100010
000000
,
000111
000000
010100
000000
000111
001000
000000
001100
,
000011
001000
100011
001000
000111
010011
100011
000000
,
000100
000000
000000
000000
001000
000100
001000
000000
000100
000000
000000
000000
010000
000000
000000
000000
,
020000
000000
000000
030000
000000
000100
001000
010000
,
020000
000000
000000
030000
100000
001000
100000
010000
,
200000
000000
000000
000000
000000
010000
310000
000000
,
010000
000000
000000
000000
100000
010000
100000
000000
010000
000000
000000
000000
100000
010000
000000
000000
,
200000
000000
000000
000000
000000
000000
000000
000000
300000
000000
010000
000000
100000
001000
000000
000000
,
100000
000000
000000
000100
001000
010000
001000
010000
,
200000
000100
000100
300100
,
100000
010000
100011
000100
100000
010000
100000
000100
,
001000
000100
010011
000100
100000
000100
010000
010000
,
010000
001000
100011
000100
001000
010000
100000
000100
,
010000
001000
100011
000100
001000
010000
100000
001000
,
000100
010000
000111
100000
000100
010000
000100
100000
,
001000
100000
010011
100000
000100
100000
010000
010000
,
010000
001000
000111
100000
001000
010000
000100
100000
,
010000
001000
000111
100000
001000
010000
000111
000000
,
100111
000000
000000
010000
001000
000000
010000
000000
,
100100
000000
101011
010111
,
100110
000001
100010
000001
010010
001001
000010
100100
,
000010
010001
100010
000101
001010
010001
100010
000000
,
000111
000000
010011
001000
010011
000100
000000
010000
,
000011
100000
100000
000000
000011
000100
000100
000000
,
100110
000001
100010
000001
001010
010001
000010
100100
,
000010
001001
100010
000101
010010
001001
100010
000000
,
000111
000000
001011
010000
001011
000100
000000
010000
,
000011
000100
000100
000000
000011
100000
100000
000000
,
100010
010001
001010
000101
100010
010001
001010
000100
,
000010
010001
001010
010001
000110
010001
001010
100000
,
000111
001000
010011
100000
000111
001000
010000
100000
,
000011
001000
010011
001000
100011
001000
010000
000100
,
100010
000001
001010
000001
010010
000101
000010
100100
,
000010
100001
010010
000001
000110
000101
000110
000000
,
000111
000000
010011
000000
001011
100000
000000
100100
,
000011
000000
100000
000100
010011
000100
001000
100000
,
111111
000000
000000
000000
100000
000100
001000
010000
,
000000
010000
000000
000100
010000
001000
100000
000100
,
010000
000000
000000
000000
010000
000100
100000
001000
,
000000
000000
001000
000000
100000
010000
100000
000000
010000
000000
001000
000000
000100
000000
010000
000000
,
222200
000000
333300
000000
;
