#TITLE:Turn It On;
#SUBTITLE:;
#ARTIST:Georgetown;
#TITLETRANSLIT:;
#SUBTITLETRANSLIT:;
#ARTISTTRANSLIT:;
#GENRE:;
#CREDIT:;
#MUSIC:Turn It On.ogg;
#BANNER:Turn It On.png;
#BACKGROUND:Turn It On-bg.png;
#CDTITLE:;
#SAMPLESTART:47.537;
#SAMPLELENGTH:11.940;
#SELECTABLE:YES;
#OFFSET:-0.044;
#BPMS:0.000=119.985;
#STOPS:;
#BGCHANGES:;
#FGCHANGES:;

//--------------- dance-single - M. Puls ----------------
#NOTES:
     dance-single:
     M. Puls:
     Beginner:
     1:
     0.067,0.098,0.031,0,0:
0000
0000
0000
0000
,
0000
0000
0000
0000
,
0000
0000
0000
0000
,
0000
0000
0000
0000
,
1000
0000
0000
0000
,
0000
0000
0000
0000
,
1000
0000
0000
0000
,
0000
0000
0000
0000
,
0001
0000
0000
0000
,
0000
0000
0000
0000
,
0001
0000
0000
0000
,
0000
0000
0000
0000
,
0100
0000
0000
0000
,
0000
0000
0000
0000
,
0010
0000
0000
0000
,
0000
0000
0000
0000
,
0001
0000
0000
0000
,
0010
0000
0000
0000
,
0001
0000
0000
0000
,
1000
0000
0000
0000
,
0100
0000
0000
0000
,
1000
0000
0000
0000
,
1001
0000
0000
0000
,
0000
0000
0000
0000
,
0001
0000
0001
0000
,
0001
0000
0000
0000
,
1000
0000
1000
0000
,
1000
0000
0000
0000
,
0010
0000
0000
0000
,
0100
0000
0000
0000
,
0010
0000
0000
0000
,
0100
0000
0000
0000
,
1001
0000
0000
0000
,
1000
0000
0000
0000
,
1000
0000
0000
0000
,
0001
0000
0000
0000
,
0001
0000
0000
0000
,
0100
0000
0000
0000
,
0001
0000
0000
0000
,
1000
0000
0000
0000
,
0100
0000
0000
0000
,
1000
0000
0000
0000
,
1000
0000
0001
0000
,
1000
0000
0000
0000
,
0001
0000
0000
0000
,
1000
0000
0000
0000
,
0100
0000
0000
0000
,
0010
0000
0000
0000
,
1001
0000
0000
0000
,
1000
0000
0000
0000
,
0100
0000
0000
0000
,
0010
0000
0000
0000
,
0001
0000
0000
0000
,
0010
0000
0000
0000
,
0100
0000
0000
0000
,
1000
0000
0000
0000
,
0001
0000
0000
0000
,
0001
0000
0000
0000
,
1000
0000
0000
0000
,
1000
0000
0000
0000
,
0100
0000
0000
0000
,
0100
0000
0000
0000
,
0010
0000
0000
0000
,
0010
0000
0000
0000
,
1001
0000
0000
0000
;

//--------------- dance-single - R. McKanna ----------------
#NOTES:
     dance-single:
     R. McKanna:
     Easy:
     4:
     0.195,0.221,0.077,0.008,0:
0000
0000
0000
0000
,
0000
0000
0000
0000
,
0000
0000
0000
0000
,
0000
0000
0000
0000
,
1000
0000
0000
0000
,
0001
0000
0000
0000
,
0010
0000
0000
0100
,
0100
0000
0000
0010
,
1001
0000
0100
0000
,
1000
0000
0001
0001
,
0001
0000
0100
0100
,
0100
0000
1000
1000
,
2000
0000
3010
0000
,
0100
0000
1000
1000
,
1000
0000
0000
0000
0000
0100
0000
0000
,
0100
0000
0001
0001
,
0001
0000
0010
0000
,
1000
0000
0100
0101
,
0001
0000
0100
0000
,
1000
0000
0010
0011
,
0001
0000
0100
0100
,
1000
0000
0100
0100
,
0001
0000
0010
0000
,
0100
0000
1001
0110
,
0001
0000
0001
0000
,
0010
0100
1000
0100
,
1000
0000
1000
0000
,
0001
0010
0001
0100
,
0010
0000
0010
0000
,
1000
0100
1000
0010
,
0100
0000
0100
0000
,
0100
0010
1000
0001
,
0100
0000
0100
0000
,
0100
0000
0100
0000
,
0010
0000
0010
0000
,
0010
1001
0100
1001
,
0010
1000
0010
0000
,
0100
0001
0100
0000
,
0010
0100
0000
0000
,
0100
0010
0000
0000
,
1001
0001
0100
0000
,
1001
1000
0100
0000
,
0001
0010
0000
0000
,
1000
0010
0000
0000
,
1000
0100
1000
0100
,
0001
0100
0001
0100
,
1000
0010
0001
0100
,
1000
0100
0001
0010
,
1000
0000
1000
0000
,
0100
0010
0001
0010
,
0001
0000
0001
0000
,
1000
0100
1000
0010
,
0100
0000
0100
0000
,
0001
0010
0001
0100
,
0010
0000
0010
0000
,
0010
0100
0001
1000
,
0100
0000
0100
0000
,
0001
1000
0010
1000
,
0010
0000
0010
0000
,
0100
0001
0100
1000
,
0001
0000
0001
0000
,
0010
1000
0010
0001
,
1000
0000
1000
0000
,
1000
0001
0010
0100
,
1001
0000
0000
0000
;

//--------------- dance-single - R. McKanna ----------------
#NOTES:
     dance-single:
     R. McKanna:
     Medium:
     8:
     0.345,0.369,0.1,0.069,0:
0000
0000
0000
0000
,
0000
0000
0000
0000
,
0000
0000
0000
0000
,
0000
0000
0000
0000
,
1000
0000
1000
0000
,
1000
0000
1000
0100
,
0010
0000
0010
0000
,
0010
0000
0010
0001
,
0100
0000
0001
0000
0010
0000
1000
1000
,
1000
0000
0010
0000
0001
0001
0001
0000
,
0010
0000
1000
0000
0100
0000
0001
0001
,
0001
0000
0100
0000
1000
1000
1000
0000
,
0002
0000
0013
0100
,
1000
0000
0100
0000
0001
0001
0001
0000
,
0100
0000
0010
0000
0000
1001
0000
0000
,
0100
0010
1000
0001
,
1000
0000
1000
0000
0010
0100
0010
0000
,
1000
0000
0100
0000
0010
0001
0010
0000
,
0100
0000
1000
0000
0001
1000
0001
0000
,
0100
0000
0010
0000
1000
0100
1000
0000
,
2000
0000
3010
0100
,
0002
0000
0103
0010
,
1000
0000
0001
0000
0000
0110
0000
0000
,
1000
0001
0010
1001
,
1000
0100
0010
0000
0100
0010
0001
0000
,
1000
0100
0010
0100
0010
0001
0100
0000
,
0001
0100
0010
0000
0100
0010
1000
0000
,
0001
0100
0010
0100
0010
1000
0100
0000
,
0100
1000
0010
0000
0100
0001
0010
0000
,
0100
1000
0010
0100
0010
0100
0001
0000
,
0010
0001
0100
0000
0010
1000
0100
0000
,
0010
0001
0100
0010
0100
0010
1000
0000
,
1001
0100
0100
0100
,
0100
0100
0100
0100
,
1000
0100
0001
1001
,
0001
1001
0100
1001
,
0001
0000
0001
0000
0001
0000
0010
0010
,
1000
0000
1000
0000
1000
0000
0010
0010
,
0100
0000
1010
0000
0000
0000
0100
0100
,
0010
0000
0101
0000
1000
0001
1000
0001
,
1000
0000
1000
0000
1000
0000
0100
0100
,
0001
0000
0001
0000
0001
0000
0100
0100
,
0010
0000
0101
0000
0000
0000
0010
0010
,
0100
1010
0100
0010
,
0002
0000
0000
2003
0000
0000
3100
0000
,
2000
0000
0000
3002
0000
0000
0103
0000
,
0002
0000
0000
0023
0000
0000
0130
0000
,
1000
0010
0100
0000
0001
0000
1001
0000
,
0001
0010
0100
0000
0010
0100
1000
0000
,
0001
0010
0100
0010
0100
1000
0010
0000
,
1000
0010
0100
0000
0010
0100
0001
0000
,
1000
0010
0100
0010
0100
0001
0010
0000
,
0010
0001
0100
0000
0010
1000
0100
0000
,
0010
0001
0100
0010
0100
0010
1000
0000
,
0100
1000
0010
0000
0100
0001
0010
0000
,
0100
1000
0010
0100
0010
0100
0001
0000
,
1001
1000
0100
0100
,
0001
0010
0001
0000
0100
0001
0100
0000
,
0001
0001
0010
0010
,
1000
0100
1000
0000
0010
1000
0010
0000
,
0001
0010
0100
1000
,
0001
0010
0100
0000
0010
0100
0001
0000
,
1000
0100
0010
0001
,
1000
0100
0010
0000
0100
0010
0001
1000
,
0100
0000
0000
0000
;

//--------------- dance-single - R. McKanna ----------------
#NOTES:
     dance-single:
     R. McKanna:
     Hard:
     11:
     0.462,0.517,0.108,0.031,0.204:
0000
0000
0000
0000
,
0000
0000
0000
0000
,
0000
0000
0000
0000
,
0000
0000
0000
0000
,
1000
0100
1000
0100
,
1000
0000
0000
0000
0100
0000
0000
1000
0000
0000
0010
0000
0100
0000
0000
0000
,
0001
0100
0001
0100
,
0001
0000
0000
0000
0100
0000
0000
0001
0000
0000
0010
0000
0100
0000
0000
0000
,
1000
0000
0000
0000
0101
0000
0000
1000
0000
0000
0010
0000
0100
0000
0001
0000
,
1000
0000
0000
0000
0101
0000
0000
1000
0000
0000
0100
0000
0010
0000
0000
0000
,
0001
0000
0000
0000
1100
0000
0000
0001
0000
0000
0100
0000
0010
0000
0000
0000
,
1000
0000
0000
0000
0101
0000
0000
1000
0000
0000
0100
0000
0010
0000
0000
0000
,
2000
0000
0002
3003
,
1000
0000
0000
0000
0001
0000
0000
1000
0000
0000
0010
0000
0100
0000
0000
0000
,
0001
0000
0000
0000
1000
0000
0000
0010
0000
0000
1001
0000
0000
0000
0000
0000
,
1000
0000
0000
0000
0001
0000
0000
1000
0000
0000
0100
0000
0010
0000
0000
0000
,
1001
0000
0000
0000
0100
0000
0000
0001
0010
0000
0100
0000
0010
0000
0001
0000
,
1000
0000
0000
0000
0100
0000
0000
1000
0100
0000
0010
0000
0001
0000
0000
0000
,
1001
0000
0000
0000
0100
0000
0000
0001
0100
0000
0010
0000
1000
0000
0000
0000
,
1001
0000
0000
0000
0100
0000
0000
1000
0100
0000
0010
0000
0001
0000
0000
0000
,
0002
0000
2000
3003
,
0001
0000
0000
0000
0010
0000
0000
0001
0010
0000
0100
0000
1000
0000
0000
0000
,
1001
0000
0000
0000
0010
0000
0000
1000
0010
0000
0100
0000
0001
0000
0000
0000
,
1001
0000
0000
0000
0010
0000
0000
0001
0010
0000
0000
0000
0100
0000
0000
0000
,
1000
0100
0010
0100
0010
0001
0010
0100
,
1000
0100
1000
0000
0001
0100
0001
0000
1000
0100
1000
0000
0001
0100
0001
0000
,
0001
0010
0100
0010
0100
1000
0100
0010
,
0001
0010
0001
0000
1000
0010
1000
0000
0001
0010
0001
0000
1000
0010
1000
0000
,
1000
0010
0100
0001
0010
0100
1000
0010
,
1000
0100
1000
0000
0001
0010
0001
0000
1000
0100
1000
0000
0001
0010
0001
0000
,
0001
0100
0010
1000
0100
0010
0001
0100
,
0100
0001
0010
0100
1000
0010
0100
0001
,
1000
1000
1000
1000
,
0001
0001
0001
0001
,
1000
0000
0000
0000
1000
0000
0000
0000
1000
0100
0000
0000
1001
0000
0000
0000
,
0001
0000
0001
0100
0001
1000
0001
0000
,
1000
0000
0000
0000
0100
0000
0000
0000
0010
0000
0000
0001
0010
0000
0100
0000
,
1000
0000
0000
0000
0010
0000
0000
0000
0100
0000
0000
0001
0100
0000
0010
0000
,
1000
0000
0000
0000
0001
0000
0000
0000
0100
0000
0000
0010
0100
0000
0001
0000
,
1000
0000
0001
0000
1000
0001
0100
0001
,
1000
0000
0000
0000
0000
0000
0000
1000
0000
0000
0100
0000
0010
0000
0100
0000
,
1000
0000
0000
0000
0000
0000
0000
1000
0000
0000
0100
0000
0010
0000
0000
0000
,
0001
0000
0000
0000
0000
0000
0000
0001
0000
0000
0010
0000
0001
0000
0000
0000
,
1000
0000
0000
0000
0000
0000
0000
1000
0000
0000
0100
0000
1000
0000
0000
0000
,
0100
1000
0100
0010
0001
0000
0100
0000
,
0100
0010
1000
0100
0010
0100
1000
0000
,
0001
0100
0010
1000
0100
0000
0100
0000
,
1000
0100
0000
0010
0001
0000
0010
0000
0100
0000
0000
0000
1001
0000
0000
0000
,
0010
1000
0100
1000
0010
0100
0001
0010
,
0001
0010
0001
0000
0100
0001
0100
0000
0001
0010
0001
0000
0100
0001
0100
0000
,
0001
0010
0100
1000
0010
1000
0100
0010
,
0001
0010
0001
0000
0100
0001
0100
0000
0010
1000
0010
0000
1000
0100
1000
0000
,
0100
1000
0010
0100
0001
0010
0001
0100
,
0010
0100
0010
0000
1000
0010
1000
0000
0100
1000
0100
0000
0010
0100
0010
0000
,
0100
1000
0001
0010
0100
1000
0010
0100
,
0100
0010
1000
0100
0010
0000
1001
0000
,
0010
1000
0100
0001
0100
1000
0010
0100
,
0001
0000
1000
0000
0010
0000
1000
0000
0001
0000
1000
0000
0010
1000
0010
0000
,
0100
0001
0010
1000
0010
0001
0100
0010
,
1000
0000
0001
0000
0010
0000
0001
0000
1000
0000
0001
0000
0010
0001
0010
0000
,
0100
1000
0010
0001
0010
1000
0100
0010
,
0001
0000
1000
0000
0100
0000
1000
0000
0001
0000
1000
0000
0100
1000
0100
0000
,
0010
0001
0100
1000
0100
0001
1000
0010
,
0100
0001
0010
1000
0010
0001
0100
0010
,
1001
0000
0000
0000
;

//--------------- dance-single - R. McKanna ----------------
#NOTES:
     dance-single:
     R. McKanna:
     Challenge:
     14:
     0.66,0.689,0.169,0.061,0.711:
0000
0000
0000
0000
,
0000
0000
0000
0000
,
0000
0000
0000
0000
,
0000
0000
0000
0000
,
1000
0001
0100
0001
1000
0001
0100
0001
,
1000
0000
0001
0000
0100
0000
0001
0010
0000
0010
0100
0000
1000
0000
0010
0000
,
1000
0001
1000
0100
1000
0001
1000
0100
,
1000
0000
0001
0000
1000
0000
0100
0010
0000
0010
0001
0000
0100
0000
0010
0000
,
1001
0000
0100
0000
0010
0000
1000
0100
0000
0100
0010
0000
0001
0000
0100
0000
,
0110
0000
0010
0000
1000
0000
0100
0010
0000
0010
0001
0000
0100
0000
0010
0000
,
0110
0000
0100
0000
0001
0000
1000
0001
0000
0001
1000
0000
0100
0000
0010
0000
,
0011
0000
0001
0000
0100
0000
0010
0100
0000
0100
0010
0000
1000
0000
0100
0000
,
2000
0000
0001
0010
3002
0000
0013
0100
,
1000
0000
0001
0000
0100
0000
0010
1000
0000
0001
1000
0000
0010
0000
0100
0000
,
0001
0000
1000
0000
0010
0000
0100
0001
0000
0000
1001
0000
0100
0000
0010
0000
,
1000
0000
0100
0000
0001
0000
0100
1000
0000
1000
0010
0000
0100
0000
0000
0000
,
1001
0000
0000
0000
0001
0000
0010
0100
0000
0100
0010
0000
0001
0000
0100
0000
,
1001
0000
0000
0000
1000
0000
0010
0100
0000
0100
0010
0000
1000
0000
0000
0000
,
1001
0000
0000
0000
0100
0000
0001
0010
0000
0010
0001
0000
0100
0000
0000
0000
,
1001
0000
0000
0000
0010
0000
1000
0100
0000
0100
1000
0000
0010
0000
0000
0000
,
1000
0000
0001
0000
0100
0000
0020
0M00
0000
0000
0130
0000
0001
0000
1000
0000
,
0001
0000
1000
0000
0010
0000
0200
00M0
0000
0000
0310
0000
1000
0000
0001
0000
,
1000
0000
0001
0000
0100
0000
0010
1000
0000
0000
1001
0000
0010
0000
0100
0000
,
0001
1000
1000
0000
1010
0000
1100
0000
,
1000
0100
1000
0100
0000
0010
0100
0010
0100
0000
0010
0001
0010
0001
0000
0010
,
0001
0010
0100
0000
1000
0100
0010
0000
0001
0010
0100
0000
1000
0100
0010
0000
,
0001
0010
0001
0010
0000
0100
0010
0100
0010
0000
0100
1000
0100
1000
0000
0100
,
1000
0100
0010
0000
0001
0010
0100
0000
1000
0100
0010
0000
0001
0010
0100
0000
,
1000
0001
1000
0001
0000
0100
0010
0100
0010
0000
1000
0001
1000
0001
0000
1000
,
0100
0010
0001
0000
0100
0010
1000
0000
0100
0010
0001
0000
0100
0010
1000
0000
,
0001
1000
0001
1000
0000
0100
0010
0100
0010
0000
0001
1000
0001
1000
0000
0001
,
0010
0100
1000
0010
0100
0001
0010
0100
0000
1000
0010
0100
0000
0001
0010
0100
,
1000
0000
1000
0000
1000
0010
1000
0000
,
0001
0000
0001
0000
0001
0100
0001
0000
,
0001
0000
0000
0000
0001
0000
0000
0000
0001
0010
0000
0000
0011
0000
0000
0000
,
0101
0000
0101
0100
1100
0100
0101
0000
,
0002
0000
0100
0100
1000
1000
0100
0100
,
1000
1000
0010
0010
1000
1000
0103
0000
,
2000
0000
0001
0001
0100
0100
0001
0001
,
0010
0010
0001
0001
0100
0100
3001
0000
,
1001
0000
0000
0000
1000
0000
0100
0010
0000
0010
0100
0000
1000
0000
0010
0000
,
1001
0000
0000
0000
0001
0000
0100
0010
0000
0010
0100
0000
0001
0000
0000
0000
,
1001
0000
0000
0000
0010
0000
1000
0100
0000
0100
1000
0000
0010
0000
0000
0000
,
1001
0000
0000
0000
0100
0000
0001
0010
0000
0010
0001
0000
0100
0000
0000
0000
,
0001
0000
1000
0000
0010
0000
0002
00M0
0000
0000
0013
0000
1000
0000
0001
0000
,
1000
0000
0001
0000
0100
0000
2000
0M00
0000
0000
3100
0000
0001
0000
1000
0000
,
0001
0010
0100
1000
0010
1000
0001
0100
,
0001
0010
0000
0010
0100
0000
1000
0000
0010
0000
0000
0000
1001
0000
0000
0000
,
0001
0100
0001
0100
0000
0010
0100
0010
0100
0000
0010
1000
0010
1000
0000
0010
,
1000
0010
0100
0000
0001
0100
0010
0000
1000
0010
0100
0000
0001
0100
0010
0000
,
1000
0010
1000
0010
0000
0100
0010
0100
0010
0000
0100
0001
0100
0001
0000
0100
,
0001
0100
0010
0000
1000
0010
0100
0000
0001
0100
0010
0000
1000
0010
0100
0000
,
0001
1000
0001
1000
0000
0100
0010
0100
0010
0000
0001
1000
0001
1000
0000
0001
,
0100
0010
1000
0000
0100
0010
0001
0000
0100
0010
1000
0000
0100
0010
0001
0000
,
1000
0001
1000
0001
0000
0100
0010
0100
0010
0000
1000
0001
1000
0001
0000
1000
,
0010
0100
0001
0010
0100
1000
0010
0100
0000
0001
0010
0100
0000
1000
0010
0100
,
0001
0010
0100
1000
0000
1000
0100
0010
0001
0000
0001
0010
0100
1000
0000
1000
,
0001
0100
0010
0000
0010
0100
0001
0000
0001
0100
0010
0000
0010
0100
0001
0000
,
1000
0100
0010
0001
0000
0001
0010
0100
1000
0000
1000
0100
0010
0001
0000
0001
,
1000
0010
0100
0000
0100
0010
1000
0000
1000
0010
0100
0000
0100
0010
1000
0000
,
0001
0100
0010
1000
0000
0001
0100
0010
1000
0000
0001
0100
0010
1000
0000
1000
,
0001
0100
0010
0000
0010
0100
1000
0000
1000
0100
0010
0000
0010
0100
0001
0000
,
1000
0010
0100
0001
0000
1000
0010
0100
0001
0000
1000
0010
0100
0001
0000
0001
,
1000
0100
1000
0001
1000
0010
1000
0001
0000
0001
1000
0100
0000
0100
1000
0001
,
0010
0000
0000
0000
;

//--------------- dance-double - M. Emirzian ----------------
#NOTES:
     dance-double:
     M. Emirzian:
     Easy:
     2:
     0.159,0.246,0.008,0.061,0:
00000000
00000000
00000000
00000000
,
00000000
00000000
00000000
00000000
,
00000000
00000000
00000000
00000000
,
00000000
00000000
00000000
00000000
,
20000000
30000000
02000000
03000000
,
00020000
00030000
00002000
00003000
,
00000020
00000030
00000002
00000003
,
00000200
00000300
00002000
00010000
,
00013000
00000000
01000000
00000000
,
10000000
00000000
00100000
00000000
,
00010000
00000000
00001000
00000000
,
00000100
00000000
00000001
00000000
,
00000010
00000000
00001000
00000000
,
00010000
00000000
00100000
00000000
,
10000000
00000000
01000000
00000000
,
00010000
00000000
00001000
00010000
,
00010000
00000000
00001000
00000000
,
00000100
00000000
00000001
00000000
,
00000010
00000000
00001000
00000000
,
00010000
00000000
00100000
00000000
,
10000000
00000000
01000000
00000000
,
00010000
00000000
00001000
00000000
,
00000100
00000000
00000001
00000000
,
00000010
00000000
00001000
00001000
,
00010000
00000000
00100000
00000000
,
10000000
00010000
00001000
00000001
,
00000000
00000000
00000100
00000000
,
00000001
00001000
00010000
10000000
,
00000000
00100000
00000000
00000000
,
10000000
00010000
00001000
00000001
,
00000000
00000100
00000000
00000000
,
00000001
00000100
00001000
00010000
,
01000000
00000000
10000000
00000000
,
01000000
00000000
00010000
00000000
,
00100000
00000000
01000000
00000000
,
00001000
00000000
00010000
00000000
,
00000100
00000000
00000010
00000000
,
00000001
00000000
00000100
00000000
,
00001000
00000000
00010000
00000000
,
01000000
00000000
10000000
00010000
,
01100000
00000000
10000000
00000000
,
01000000
00000000
00010000
00000000
,
00001000
00000000
00000010
00000000
,
00000001
00000000
00000100
00000000
,
00001000
00000000
00010000
00000000
,
00001000
00000000
01000000
00000000
,
00100000
00000000
01000000
00000000
,
10000000
00010000
00001000
00000001
,
00000100
00000000
00000001
00000000
,
00000010
00000000
00001000
00000000
,
00010000
00000000
00100000
00000000
,
10000000
00010000
00001000
00000001
,
00000010
00000000
00001000
00000000
,
00010000
00000000
00000010
00000000
,
00000100
00000000
00000100
00000000
,
00001000
00000000
00001000
00010000
,
00010000
00000000
01000000
00000000
,
10000000
00000000
00010000
00000000
,
00001000
00000000
00000001
00000000
,
00000001
00000000
00001000
00000000
,
00010000
00000000
10000000
00000000
,
01000000
00000000
00010000
00000000
,
00001000
00000000
00000001
00000000
,
00000100
00000000
00001000
00001000
,
00010000
00000000
00000000
00000000
;

//--------------- dance-double - M. Emirzian ----------------
#NOTES:
     dance-double:
     M. Emirzian:
     Medium:
     5:
     0.278,0.32,0.015,0.023,0:
00000000
00000000
00000000
00000000
,
00000000
00000000
00000000
00000000
,
00000000
00000000
00000000
00000000
,
00000000
00000000
00000000
00000000
,
10000000
01000000
00010000
00001000
,
00010000
01000000
00010000
00001000
,
00000010
00000001
00000100
00000000
,
00000100
00000010
00010000
00001000
,
00010000
00100000
00010000
00001000
,
00010000
01000000
10000000
01000000
,
00010000
00001000
00000010
00001000
,
00010000
00001000
00000100
00000001
,
00000010
00000010
00000100
00000100
,
00010000
00001000
00000010
00001000
,
00010000
00100000
10000000
00010000
,
00100000
01000000
10000000
01000000
,
00110000
01000000
00100000
00010000
,
00001000
00010000
01000000
00010000
,
00001000
00000010
00000001
00001000
,
00000001
00000100
00001000
00010000
,
00002000
00000000
00023000
00000000
,
00031000
00010000
01000000
10000000
,
00100000
00010000
00001000
00000010
,
00001000
00010000
01000000
00010000
,
00001000
00000000
00000010
00000000
00000001
00000100
00000010
00001000
,
00000001
00001000
00010000
10000000
,
00010000
00000000
01000000
00000000
00100000
10000000
00010000
00100000
,
01000000
00010000
00000100
00000001
,
00000100
00000000
00000010
00000000
00000001
00001000
00000010
00000100
,
00000001
00001000
00010000
10000000
,
00100000
00000000
01000000
00000000
00010000
10000000
01000000
00000000
,
01000000
00010000
00001000
00000010
00000001
00000100
00000010
00000000
,
00000200
00000000
00000000
00000000
,
00000310
00000000
00001000
00000000
,
00000100
00000000
00010000
00000000
,
00001000
00000000
01000000
01000000
,
00010000
00010000
10000000
10000000
,
01000000
00100000
00010000
00100000
,
00001000
00010000
00000010
00001000
,
00000100
00000010
00000001
00000001
,
00000100
00001000
00010000
01000000
,
00010000
00001000
00010000
00100000
,
10000000
01000000
00010000
00001000
,
00000010
00001000
00010000
00001000
,
00000100
00000001
00000010
00000100
,
00001000
00000010
00000100
00000001
,
00000010
00001000
00010000
00001000
,
00000100
00001000
00010000
01000000
,
10000000
00000000
00100000
00000000
01000000
00010000
10000000
01000000
,
00100000
00001000
00000010
00000001
,
00000100
00000000
00000010
00000000
00001000
00000100
00000010
00000001
,
00000100
00001000
01000000
10000000
,
01000000
00000000
00100000
00000000
10000000
00010000
01000000
00100000
,
10000000
00010000
00001000
00000001
,
00000010
00000000
00000100
00000000
00001000
00000001
00000010
00000000
,
00000010
00001000
00010000
00100000
10000000
01000000
00100000
00000000
,
00100000
00100000
00010000
00100000
,
00100000
00001000
00010000
00000010
,
00000010
00000100
00000001
00000001
,
00000100
00000010
00010000
00001000
,
01000000
00010000
00010000
00000000
,
10000000
10000000
00000000
01000000
,
01000000
00010000
00010000
00010000
,
00001000
00000010
00001000
00010000
,
00010010
00000000
00000000
00000000
;

//--------------- dance-double - M. Emirzian ----------------
#NOTES:
     dance-double:
     M. Emirzian:
     Hard:
     8:
     0.44,0.443,0.046,0.038,0.123:
00000000
00000000
00000000
00000000
,
00000000
00000000
00000000
00000000
,
00000000
00000000
00000000
00000000
,
00000000
00000000
00000000
00000000
,
10000000
00000000
01000000
00100000
00010000
00000000
00100000
00000000
,
00100000
00000000
00001000
00000000
00020000
00000000
00000000
00001000
00000000
00000000
00001000
00000000
00031000
00000000
00000000
00000000
,
00010000
00000000
00000100
00000000
00000020
00000000
00000000
00000100
00000000
00000000
00000100
00000000
00000130
00000000
00000010
00000000
,
00000001
00000000
00001000
00000000
00001000
00000010
00000100
00001000
,
00010000
00100000
10000000
01000000
00010000
00001000
00010000
01000000
,
00010000
00001000
00000010
00001000
00010000
00001000
00000100
00000001
,
00000010
00001000
00000010
00000001
00000100
00001000
00010000
00000000
,
00101000
00000000
00000000
00000000
01010000
00000000
00000000
10000000
00000000
00000000
01000000
00000000
00010000
00000000
00000000
00000000
,
00001000
00010000
00000100
00000000
00001000
00000010
00000001
00000000
,
00000010
00000000
00000100
00000000
00001000
00000000
00000000
00010000
00000000
00000000
00100000
00000000
10000000
00000000
00000000
00000000
,
10000000
00000000
01000000
00000000
00010000
00000000
00000000
00001000
00000000
00000000
00000100
00000000
00000001
00000000
00000000
00000000
,
00000001
00000000
00000100
00000000
00001000
00000000
00000000
00000100
00000000
00000000
00000001
00000000
00000100
00000000
00001000
00000000
,
00010000
00000000
01000000
00000000
20000000
00000000
00000000
00010000
00000000
00000000
00010000
00000000
30010000
00000000
00000000
00000000
,
10000000
00000000
00100000
00000000
10000000
00000000
00000000
10000000
00000000
00000000
01000000
00000000
00010000
00000000
00000000
00000000
,
00001000
00000000
00000000
00000000
00010000
00000000
00000000
00000100
00000000
00000000
00001000
00000000
00000010
00000000
00000000
00000000
,
00000100
00000000
00000000
00000000
00000001
00000000
00000000
00000010
00000000
00000000
00000100
00000000
00001000
00000000
00000001
00000000
,
00000100
00001000
00010000
00001000
00000010
00001000
00010000
00100000
,
10000000
01000000
00010000
01000000
10000000
00100000
00010000
00000000
,
00001000
00000100
00001000
00010000
00001000
00000010
00000001
00000100
,
00001000
00000100
00000001
00000010
00000100
00001000
00000010
00000000
,
00000100
00000000
00001000
00000000
00010000
00000000
00000000
00010000
00000000
00100000
10000000
00000000
01000000
00000000
00010000
00000000
,
01000000
10000000
01000000
00010000
00001000
00000010
00000001
00000100
,
00000010
00000000
00000100
00000000
00001000
00000000
00000000
00001000
00000000
00010000
00100000
00000000
10000000
00000000
00100000
00000000
,
00010000
00001000
00010000
01000000
00010000
00001000
00000010
00000001
,
00000100
00000000
00000001
00000000
00000010
00000000
00000000
00000010
00000000
00001000
00010000
00000000
00001000
00000000
00000100
00000000
,
00001000
00010000
01000000
10000000
00100000
00010000
00100000
10000000
,
01000000
00000000
10000000
00000000
00100000
00000000
00010000
00000000
00001000
00010000
00001000
00000000
00010000
00000000
01000000
00000000
,
00010000
00001000
00000100
00001000
00010000
00100000
00010000
00001000
,
00000010
00000001
00000100
00000010
,
00001000
00000000
00000100
00000000
00000001
00000100
00001000
00000000
,
00000010
00000000
00000100
00000000
00001000
00010000
01000000
00000000
,
10000000
00100000
00010000
00001000
,
00000100
00000000
00000000
00001000
00000000
00000000
00000000
00011000
00000000
00000000
00000000
00000000
00100000
00000000
00000000
00000000
,
01000000
00000000
00000000
10000000
00000000
00000000
00000000
00110000
00000000
00000000
00000000
00000000
00001000
00000000
00000000
00000000
,
00010000
00000000
00000000
00010100
00000000
00000000
00000000
00000000
00000100
00000000
00000000
00000000
00000010
00000000
00000000
00000000
,
00000001
00000000
00000000
00001001
00000000
00000000
00000000
00000000
00000100
00000000
00000010
00000000
00001000
00000000
00000000
00000000
,
00000100
00000000
00010000
00001000
00100000
00000000
01000000
00000000
,
10000000
00000000
00010000
00000000
02000000
00000000
00000000
00100000
00000000
00000000
00100000
00000000
03100000
00000000
00000000
00000000
,
10000000
00000000
01000000
00000000
00020000
00000000
00000000
01000000
00000000
00000000
01000000
00000000
01030000
00000000
00000000
00000000
,
00010000
00001000
00000010
00000000
00000100
00001000
00000001
00000000
,
00000100
00001000
00010000
00001000
00000100
00001000
00010000
00000000
,
00100000
00010000
00001000
00010000
00100000
00010000
00001000
00000000
,
00010000
00000000
01000000
00000000
10000000
00100000
00010000
00000000
,
00001000
00000000
00000000
00000000
00010000
00000000
00000000
00000010
00001000
00000000
00000100
00000000
00000100
00000000
00000010
00000000
,
00000001
00000000
00000010
00000000
00000100
00000000
00000000
00001000
00000000
00000001
00000100
00000000
00000010
00000000
00000100
00000000
,
00001000
00010000
00100000
00010000
00001000
00010000
01000000
10000000
,
00100000
00000000
10000000
00000000
01000000
00000000
00000000
00010000
00000000
00001000
00010000
00000000
01000000
00000000
00010000
00000000
,
00001000
00000010
00000001
00001000
00000001
00000100
00001000
00010000
,
00001000
00000000
00000100
00000000
00000001
00000000
00000000
00000010
00000000
00001000
00010000
00000000
01000000
00000000
00010000
00000000
,
00001000
00010000
00100000
10000000
01000000
00010000
00001000
00000010
,
00001000
00010000
00000010
00000100
00000001
00000100
00001000
00010000
,
00100000
00010000
00001000
00000010
00001000
00010000
00100000
10000000
,
01000000
01000000
00010000
00010000
,
00001000
00010000
00000010
00000000
00001000
00000010
00000100
00000000
,
00000001
00000001
00000010
00000010
,
00001000
00010000
01000000
00000000
00010000
00001000
00000100
00000000
,
00001000
00010000
00000100
00010000
,
01000000
10000000
00100000
00000000
00010000
00001000
00000010
00000000
,
00000100
00001000
00000010
00000001
00000010
00001000
00000100
00000010
,
00001000
00010000
00100000
00010000
00001000
00000010
00001000
00010000
,
01000000
00000000
00000000
00000000
;

//--------------- dance-double - M. Emirzian ----------------
#NOTES:
     dance-double:
     M. Emirzian:
     Challenge:
     9:
     0.55,0.541,0.054,0.085,0.407:
00000000
00000000
00000000
00000000
,
00000000
00000000
00000000
00000000
,
00000000
00000000
00000000
00000000
,
00000000
00000000
00000000
00000000
,
00000002
00000000
00000103
00001000
00000100
00000001
00000010
00000000
,
00000100
00001000
00000000
00000000
00000001
00000000
00000010
00000100
00000000
00000000
00001000
00000000
00000010
00000000
00000100
00000000
,
00001000
00010000
00000000
00001000
00000000
00000000
00000010
00000000
00001000
00000000
00010000
00000000
01000000
00000000
10000000
00000000
,
00100000
01000000
00000000
00010000
00000000
00000000
00100000
01000000
00000000
00000000
10000000
00000000
00100000
00000000
01000000
00010000
,
01000000
00000000
00100000
00000000
10000000
00000000
00000000
01000000
00000000
00000000
00010000
00000000
00001000
00000000
00000100
00000000
,
00001000
00010000
00000000
00000000
00100000
00000000
00010000
00001000
00000000
00000000
00000010
00000000
00000001
00000000
00000000
00000000
,
00000100
00000010
00000000
00000000
00000001
00000000
00000010
00000100
00000000
00000000
00001000
00000000
00010000
00000000
00001000
00000000
,
00000010
00000001
00000000
00000000
00000100
00000000
00000001
00000010
00000000
00000000
00001000
00000000
00000010
00000000
00000001
00000000
,
00000100
00001000
00010000
01000000
00010000
00001000
00000100
00001000
,
00010000
00100000
00000000
00000000
10000000
00000000
00010000
01000000
00000000
00000000
10000000
00000000
01000000
00000000
00000000
00000000
,
00010000
10000000
00000000
00000000
00100000
00000000
00010000
00001000
00000000
00000000
00010000
00000000
01000000
00000000
10000000
00000000
,
01000000
00100000
00000000
00000000
10000000
00000000
00100000
01000000
00000000
00000000
00010000
00000000
00001000
00000000
01000000
00000000
,
00001000
00000100
00000000
00000000
00000001
00000000
00000010
00000100
00000000
00000000
00000010
00000000
00001000
00000000
00000010
00000000
,
00000001
00000100
00000000
00000000
00001000
00000000
00000100
00000001
00000000
00000000
00000010
00000000
00000100
00000000
00000000
00000000
,
00010000
00100000
00000000
00000000
00010000
00000000
00001000
00010000
00000000
00000000
01000000
00000000
00010000
00000000
00001000
00000000
,
00010000
00100000
00000000
00000000
10000000
00000000
00010000
00100000
00000000
00000000
10000000
00000000
00010000
00000000
00000000
00000000
,
01000000
10000000
01000000
00100000
00010000
01000000
00100000
00010000
,
00001000
00010000
00000000
00000000
01000000
00000000
00010000
00001000
00000000
00000000
00000010
00000000
00001000
00000000
00010000
00000000
,
00001000
00000100
00000000
00000000
00000001
00000000
00000010
00000100
00000000
00000000
00000001
00000000
00000100
00000000
00000010
00000000
,
00000001
00000100
00000000
00000000
00001000
00000000
00010000
00001000
00000000
00000000
00000100
00000000
00001000
00010000
01000000
00000000
,
10000000
00000000
01000000
00000000
00010000
00000000
00000000
01000000
00000000
01000000
10000000
00000000
00100000
00000000
00010000
00000000
,
00001000
00010000
01000000
00000000
00010000
01000000
10000000
00000000
01000000
10000000
00100000
00000000
10000000
00100000
00010000
00000000
,
00001000
00000000
00010000
00000000
00100000
00000000
00000000
00010000
00000000
00010000
00001000
00000000
00000010
00000000
00000001
00000000
,
00000100
00001000
00010000
00000000
00001000
00010000
00100000
00000000
00010000
00100000
10000000
00000000
00100000
10000000
01000000
00000000
,
00100000
00000000
00001000
00000000
00010000
00000000
00000000
01000000
00000000
01000000
00100000
00000000
00001000
00000000
01000000
00000000
,
00100000
00010000
00001000
00000000
00010000
00001000
00000010
00000000
00001000
00000010
00000001
00000000
00000010
00000001
00000100
00000000
,
00000010
00000000
00001000
00000000
00000100
00000000
00000001
00000000
00000100
00000000
00001000
00000000
00000010
00000100
00001000
00000000
,
00000100
00001000
00010000
00000000
00001000
00010000
00100000
00000000
00000000
00010000
00100000
10000000
00000000
00100000
10000000
00000000
,
20010000
000M0000
32000000
00000000
03100000
00010000
01000000
00000000
,
00100000
10000000
01000000
00010000
01000000
10000000
01000000
00000000
,
01020000
0M000000
00032000
00000000
00003100
00000001
00000010
00000000
,
00001000
00000010
00000001
00000010
00001000
00000010
00000001
00000000
,
00000100
00000000
00000000
00001010
00000000
000M00M0
00000000
00010010
00000000
00000000
00001000
00000000
00010000
00000000
01000000
00000000
,
10000000
00000000
00000000
10010000
00000000
0M0M0000
00000000
01010000
00000000
00000000
00100000
00000000
10000000
00000000
01000000
00000000
,
00100000
00010000
00000000
01000000
00000000
00000000
00100000
00000000
00010000
00000000
00001000
00000000
00000010
00000000
00001000
00000000
,
00010000
00001000
00000000
00000100
00000000
00000000
00000001
00000010
00000001
00000000
00001000
00000000
00000010
00000000
00000100
00000000
,
00000001
00000010
00000000
00000000
00000100
00000000
00001000
00000010
00000000
00000000
00000100
00000000
00001000
00000000
00010000
00000000
,
00001000
00000100
00000000
00000000
00001000
00000000
00010000
00100000
00000000
00000000
00010000
00000000
00001000
00000000
00010000
00000000
,
01000000
00100000
00000000
00000000
10000000
00000000
00100000
01000000
00000000
00000000
00010000
00000000
01000000
00000000
10000000
00000000
,
00100000
00010000
00000000
00000000
00001000
00000000
00100000
01000000
00000000
00000000
00010000
00000000
00001000
00000000
00000100
00000000
,
00000010
00000001
00000010
00000100
00000010
00010000
00001000
00100000
,
01000000
00010000
01000000
00100000
00001000
00010000
00000010
00000000
,
00000100
00001000
00100000
01000000
00010000
00001000
00000100
00001000
,
00010000
00000000
00100000
00000000
00010000
00000000
00001000
00000000
00000100
00000000
00000001
00000000
00000010
00000100
00000010
00000000
,
00000001
00000000
00000100
00000000
00001000
00000000
00000000
00000100
00000000
00000100
00000010
00000000
00001000
00000000
00000100
00000000
,
00000010
00001000
00010000
00000000
00001000
00010000
01000000
00000000
00010000
01000000
10000000
00000000
01000000
10000000
00100000
00000000
,
01000000
00000000
00010000
00000000
10000000
00000000
00000000
01000000
00000000
01000000
00010000
00000000
00001000
00000000
00010000
00000000
,
01000000
00010000
00001000
00000000
00010000
00001000
00000010
00000000
00001000
00000010
00000001
00000000
00000010
00000001
00000100
00000000
,
00000010
00000000
00001000
00000000
00000100
00000000
00000000
00000010
00000000
00000010
00000100
00000000
00001000
00000000
00000001
00000000
,
00000100
00001000
00010000
00000000
00001000
00010000
00100000
00000000
00010000
00100000
10000000
00000000
00100000
10000000
01000000
00000000
,
00100000
00000000
00010000
00000000
01000000
00000000
10000000
00000000
01000000
00000000
00010000
00000000
00100000
01000000
00100000
00000000
,
01000000
00010000
00001000
00000000
00010000
00001000
00000100
00000000
00000000
00001000
00000100
00000001
00000000
00000100
00000001
00000010
,
00000100
00001000
00000001
00000000
00000001
00000100
00001000
00000000
,
00000200
00000000
00000302
00000M00
00000013
0000100M
00010000
00000000
,
00100000
10000000
01000000
00000000
00010000
01000000
10000000
00000000
,
00200000
00000000
00000000
00000000
00020000
00000000
00000000
00000000
00001000
00330000
00000000
00000000
00001000
00000000
00000000
00000000
,
00010000
00001000
00000010
00000000
00000001
00000100
00000010
00000000
,
00002000
00000000
00003200
0000M000
00000310
00000M01
00000100
00000000
,
00001000
00010000
01000000
00010000
00001000
00010000
00100000
10000000
,
01000000
00000000
00010000
00000000
00000010
00000000
00000100
00000000
00001000
00000000
00010000
00000000
01000000
00100000
00010000
00000000
,
10010000
00000000
00000000
00000000
;

//--------------- lights-cabinet - ----------------
#NOTES:
     lights-cabinet:
     :
     Easy:
     1:
     0.473,0.517,0.123,0.046,0.204:
000000
000000
000000
000000
,
000000
000000
000000
000000
,
000000
000000
000000
000000
,
000000
000000
000000
000000
000000
111100
112200
000000
,
103300
010000
100000
010000
,
100000
000000
000000
000000
010000
000000
000000
100000
000000
000000
001000
000000
010000
000000
000000
000000
,
000100
010000
000100
010000
,
000100
000000
000000
000000
010000
000000
000000
000100
000000
000000
001000
000000
010000
000000
000000
000000
,
100000
000000
000000
000000
010100
000000
000000
100000
000000
000000
001000
000000
010000
000000
000100
000000
,
100000
000000
000000
000000
010100
000000
000000
100000
000000
000000
010000
000000
001000
000000
000000
000000
,
000100
000000
000000
000000
110000
000000
000000
000100
000000
000000
010000
000000
001000
000000
000000
000000
,
100000
000000
000000
000000
010100
000000
000000
100000
000000
000000
010000
000000
001000
000000
000000
000000
,
200000
000000
000200
300300
,
100000
000000
000000
000000
000100
000000
000000
100000
000000
000000
001000
000000
010000
000000
000000
000000
,
000100
000000
000000
000000
100000
000000
000000
001000
000000
000000
100100
000000
000000
000000
000000
000000
,
100000
000000
000000
000000
000100
000000
000000
100000
000000
000000
010000
000000
001000
000000
000000
000000
,
100100
000000
000000
000000
010000
000000
000000
000100
001000
000000
010000
000000
001000
000000
000100
000000
,
100000
000000
000000
000000
010000
000000
000000
100000
010000
000000
001000
000000
000100
000000
000000
000000
,
100100
000000
000000
000000
010000
000000
000000
000100
010000
000000
001000
000000
100000
000000
000000
000000
,
100100
000000
000000
000000
010000
000000
000000
100000
010000
000000
001000
000000
000100
000000
000000
000000
,
000200
000000
200000
300300
,
000100
000000
000000
000000
001000
000000
000000
000100
001000
000000
010000
000000
100000
000000
000000
000000
,
100100
000000
000000
000000
001000
000000
000000
100000
001000
000000
010000
000000
000100
000000
000000
000000
,
100100
000000
000000
000000
001000
000000
000000
000100
001000
000000
000000
000000
010000
000000
000000
000000
,
100000
010000
001000
010000
001000
000100
001000
010000
,
100000
010000
100000
000000
000100
010000
000100
000000
100000
010000
100000
000000
000100
010000
000100
000000
,
000100
001000
010000
001000
010000
100000
010000
001000
,
000100
001000
000100
000000
100000
001000
100000
000000
000100
001000
000100
000000
100000
001000
100000
000000
,
100000
001000
010000
000100
001000
010000
100000
001000
,
100000
010000
100000
000000
000100
001000
000100
000000
100000
010000
100000
000000
000100
001000
000100
000000
,
000100
010000
001000
100000
010000
001000
000100
010000
,
010000
000100
001000
010000
100000
001000
010000
000100
,
100000
100000
100000
100000
,
000100
000100
000100
000100
,
100000
000000
000000
000000
100000
000000
000000
000000
100000
010000
000000
000000
100100
000000
000000
000000
,
000100
000000
000100
010000
000100
100000
000100
000000
,
100000
000000
000000
000000
010000
000000
000000
000000
001000
000000
000000
000100
001000
000000
010000
000000
,
100000
000000
000000
000000
001000
000000
000000
000000
010000
000000
000000
000100
010000
000000
001000
000000
,
100000
000000
000000
000000
000100
000000
000000
000000
010000
000000
000000
001000
010000
000000
000100
000000
,
100000
000000
000100
000000
100000
000100
010000
000100
,
100000
000000
000000
000000
000000
000000
000000
100000
000000
000000
010000
000000
001000
000000
010000
000000
,
100000
000000
000000
000000
000000
000000
000000
100000
000000
000000
010000
000000
001000
000000
000000
000000
,
000100
000000
000000
000000
000000
000000
000000
000100
000000
000000
001000
000000
000100
000000
000000
000000
,
100000
000000
000000
000000
000000
000000
000000
100000
000000
000000
010000
000000
100000
000000
000000
000000
,
010000
100000
010000
001000
000100
000000
010000
000000
,
010000
001000
100000
010000
001000
010000
100000
000000
,
000100
010000
001000
100000
010000
000000
010000
000000
,
100000
010000
000000
001000
000100
000000
001000
000000
010000
000000
000000
000000
100100
000000
000000
000000
,
001000
100000
010000
100000
001000
010000
000100
001000
,
000100
001000
000100
000000
010000
000100
010000
000000
000100
001000
000100
000000
010000
000100
010000
000000
,
000100
001000
010000
100000
001000
100000
010000
001000
,
000100
001000
000100
000000
010000
000100
010000
000000
001000
100000
001000
000000
100000
010000
100000
000000
,
010000
100000
001000
010000
000100
001000
000100
010000
,
001000
010000
001000
000000
100000
001000
100000
000000
010000
100000
010000
000000
001000
010000
001000
000000
,
010000
100000
000100
001000
010000
100000
001000
010000
,
010000
001000
100000
010000
001000
000000
100100
000000
,
001000
100000
010000
000100
010000
100000
001000
010000
,
000100
000000
100000
000000
001000
000000
100000
000000
000100
000000
100000
000000
001000
100000
001000
000000
,
010000
000100
001000
100000
001000
000100
010000
001000
,
100000
000000
000100
000000
001000
000000
000100
000000
100000
000000
000100
000000
001000
000100
001000
000000
,
010000
100000
001000
000100
001000
100000
010000
001000
,
000100
000000
100000
000000
010000
000000
100000
000000
000100
000000
100000
000000
010000
100000
010000
000000
,
001000
000100
010000
100000
010000
000100
100000
001000
,
010000
000100
001000
100000
001000
000100
010000
001000
,
100100
000000
000000
000000
;
