#TITLE:Tough Enough;
#SUBTITLE:;
#ARTIST:Vanilla Ninja;
#TITLETRANSLIT:;
#SUBTITLETRANSLIT:;
#ARTISTTRANSLIT:;
#GENRE:;
#CREDIT:;
#MUSIC:Tough Enough.ogg;
#BANNER:toughenough-bn.png;
#BACKGROUND:toughenough-bg.png;
#CDTITLE:;
#SAMPLESTART:32.260;
#SAMPLELENGTH:13.920;
#SELECTABLE:YES;
#OFFSET:-0.458;
#BPMS:0.000=97.980
,10.000=98.210
,16.000=98.330
,20.000=97.990
,40.000=98.030
,51.500=97.860
,52.000=196.000
,212.000=196.020
,220.000=195.980
,244.000=196.140
,252.000=196.160
;
#STOPS:;
#BGCHANGES:;
#FGCHANGES:;

//--------------- dance-single - M. Puls ----------------
#NOTES:
     dance-single:
     M. Puls:
     Beginner:
     1:
     0.070717,0.168194,0.045002,0,0,55,50,5,0,0,0,0.070717,0.168194,0.045002,0,0,55,50,5,0,0,0:
0000
0000
0000
0000
,
0000
0000
0000
0000
,
0000
0000
0000
0000
,
0001
0000
0000
0000
,
1000
0000
0000
0000
,
0000
0000
0000
0000
,
0001
0000
0000
0000
,
0000
0000
0000
0000
,
0100
0000
0000
0000
,
0010
0000
0000
0000
,
1000
0000
0000
0000
,
0001
0000
0000
0000
,
1001
0000
0000
0000
,
1000
0000
0000
0000
,
0000
0000
0000
0000
,
0001
0000
0000
0000
,
0000
0000
0000
0000
,
0010
0000
0000
0000
,
0000
0000
0000
0000
,
0001
0000
0000
0000
,
0000
0000
0000
0000
,
1000
0000
0000
0000
,
0000
0000
0000
0000
,
0100
0000
0000
0000
,
0000
0000
0000
0000
,
1000
0000
0000
0000
,
0001
0000
0000
0000
,
1000
0000
0000
0000
,
0000
0000
0000
0000
,
0001
0000
0000
0000
,
0001
0000
0000
0000
,
1000
0000
0000
0000
,
1000
0000
0000
0000
,
0010
0000
0000
0000
,
0100
0000
0000
0000
,
1001
0000
0000
0000
,
0000
0000
0000
0000
,
0001
0000
0000
0000
,
0000
0000
0000
0000
,
0100
0000
0000
0000
,
0000
0000
0000
0000
,
0010
0000
0000
0000
,
0000
0000
0000
0000
,
1000
0000
0000
0000
,
0000
0000
0000
0000
,
0001
0000
0000
0000
,
1000
0000
0000
0000
,
0001
0000
0000
0000
,
0000
0000
0000
0000
,
0100
0000
0000
0000
,
0100
0000
0000
0000
,
0010
0000
0000
0000
,
0010
0000
0000
0000
,
1001
0000
0000
0000
,
0000
0000
0000
0000
,
0100
0000
0000
0000
,
0000
0000
0000
0000
,
0010
0000
0000
0000
,
0000
0000
0000
0000
,
1000
0000
0000
0000
,
0000
0000
0000
0000
,
0001
0000
0000
0000
,
0000
0000
0000
0000
,
0100
0000
0000
0000
,
0100
0000
0000
0000
,
0010
0000
0000
0000
,
0010
0000
0000
0000
,
1000
0000
0000
0000
,
0001
0000
0000
0000
,
1001
0000
0000
0000
,
0100
0000
0000
0000
,
1001
0000
0000
0000
,
0000
0000
0000
0000
,
0000
0000
0000
0000
,
0000
0000
0000
0100
;

//--------------- dance-single - M. Puls ----------------
#NOTES:
     dance-single:
     M. Puls:
     Easy:
     2:
     0.128576,0.202507,0.054002,0.081003,0,100,94,6,9,0,0,0.128576,0.202507,0.054002,0.081003,0,100,94,6,9,0,0:
0000
0000
0000
0000
,
0000
0000
0000
0000
,
0000
0001
0001
0000
,
0000
1000
1000
0000
,
0000
1000
0000
1000
,
0000
0100
0000
0100
,
0000
0001
0000
0001
,
0000
0010
0000
0010
,
0000
1000
0000
1000
,
0000
0010
0000
0010
,
0000
0001
0000
0001
,
0000
0100
0000
0100
,
0000
0100
0000
1001
,
0000
0000
1000
0000
,
0000
0000
0100
0000
,
0000
0000
0010
0000
,
0000
0000
1001
0000
,
0000
0000
0100
0000
,
0010
0000
0010
0000
,
1000
0000
0002
0000
,
0000
0000
0003
0000
,
1000
0000
0000
0000
,
0100
0000
0000
0000
,
1000
0000
0000
0000
,
0100
0000
0100
0000
,
1000
0000
0000
0000
,
1001
0000
0000
0000
,
0001
0000
2000
0000
,
0000
0000
3000
0000
,
1000
0000
0001
0000
,
1000
0000
0000
0000
,
0001
0000
1000
0000
,
0001
0000
0000
0000
,
1000
0000
0010
0000
,
1000
0000
0000
0000
,
0010
0000
0100
0000
,
0010
0000
0100
0000
,
0100
0000
0000
0000
,
0010
0000
0000
0000
,
2000
0000
0000
0000
,
3000
0000
1000
0000
,
0010
0000
1000
0000
,
1000
0000
0001
0000
,
0002
0000
0000
0000
,
0003
0000
0001
0000
,
0100
0000
0001
0000
,
0001
0000
0000
0000
,
2000
0000
0000
0000
,
3000
0000
0000
0000
,
0001
0000
0000
0000
,
1000
0000
0000
0000
,
0010
0000
0000
0000
,
1000
0000
0100
0000
,
2002
0000
0000
0000
,
3003
0000
0000
0000
,
1000
0000
0000
0000
,
0100
0000
0000
0000
,
1000
0000
0000
0000
,
1001
0000
0000
0000
,
0100
0000
0000
0000
,
0010
0000
0000
0000
,
1000
0000
0002
0000
,
0000
0000
0003
0000
,
0100
0000
0000
0000
,
0010
0000
0000
0000
,
1000
0000
1000
0000
,
0100
0000
0100
0000
,
1000
0000
0000
0000
,
1001
0000
0000
0000
,
0001
0000
1000
0000
,
0001
0000
1000
0000
,
2000
0000
0000
0000
,
0000
0000
0000
0000
,
0000
0000
0000
0000
,
0000
0000
0000
0000
,
3000
0000
0000
0000
;

//--------------- dance-single - M. Puls ----------------
#NOTES:
     dance-single:
     M. Puls:
     Medium:
     7:
     0.262295,0.371264,0.090003,0.135005,0,204,194,10,15,0,0,0.262295,0.371264,0.090003,0.135005,0,204,194,10,15,0,0:
0000
0000
0000
0000
,
0000
0000
0000
0000
,
0001
1000
0010
0000
,
1000
0001
0100
0000
,
0000
0000
1000
0001
0000
0000
1000
0000
,
0000
0000
0100
0001
0000
0000
0010
0000
,
0000
0000
0001
0100
0000
0000
0001
0000
,
0000
0000
0010
0001
0000
0000
0010
0000
,
0000
0000
1000
0100
0000
0000
1000
0000
,
0000
0000
0010
0100
0000
0000
0010
0000
,
0000
0000
0001
0010
0000
0000
0001
1000
,
0100
0010
0000
0000
,
0100
0010
0100
1001
,
0010
1000
0100
1000
,
0100
0000
1000
0000
,
1000
0010
0100
1000
,
0100
0000
1001
0000
,
0100
0100
1000
0000
,
0010
0000
0010
0000
0001
0000
1000
0100
,
0010
0000
0000
0000
,
0200
0000
0001
0000
,
0301
0000
0010
0001
,
0010
0000
0001
0000
,
0001
0100
0010
0001
,
0010
0000
1001
0000
,
0010
0010
0001
0000
,
0100
0000
0100
0000
1000
0000
0001
0010
,
0100
0000
0000
0000
,
0020
0000
1000
0000
,
1030
0000
0001
1000
,
0001
0000
0001
0000
,
1000
0000
1000
0000
,
0001
0000
1000
0001
,
1000
0000
1000
0000
,
0001
0000
0001
0000
,
1000
0000
0000
0100
,
0000
0010
0000
0100
,
0001
0000
2000
0020
,
0000
0000
3030
0001
,
1000
0000
0010
0000
,
1000
0000
1000
0001
,
0100
1000
0000
0002
,
0200
0000
0000
0303
,
1000
0001
0000
0100
,
0000
0001
0000
0001
,
1000
0010
0001
0010
,
0010
0000
0010
0100
,
1000
0000
0100
0010
,
0001
0000
0010
0100
,
1000
0000
0010
0001
,
1000
0010
0001
1000
,
0001
0100
1000
0000
,
1001
1001
1001
0000
,
2002
0000
0000
0000
,
3003
0000
1001
0000
,
0010
1000
0100
1000
,
0100
0000
1000
0000
,
1000
0010
0100
1000
,
0100
0000
1001
0000
,
0100
0100
1000
0000
,
0010
0000
0010
0000
0001
0000
1000
0100
,
0010
0000
0000
0000
,
0200
0320
0100
0230
,
0300
0000
0010
0001
,
0010
1000
0100
0001
,
0001
0100
0010
0001
,
0010
0000
1001
0000
,
0010
0010
0001
0000
,
0100
0000
0100
0000
1000
0000
0001
0010
,
0100
0000
0000
0000
,
0020
0230
0010
0320
,
2030
0000
0000
0000
,
0000
0000
0000
0000
,
0000
0000
0000
0000
,
0000
0000
0000
0000
,
3000
0000
0000
0000
;

//--------------- dance-single - M. Puls ----------------
#NOTES:
     dance-single:
     M. Puls:
     Hard:
     8:
     0.343298,0.472517,0.198007,0.315012,0.009,267,245,22,35,0,0,0.343298,0.472517,0.198007,0.315012,0.009,267,245,22,35,0,0:
0000
0000
0000
0000
,
0000
0000
0000
0000
,
1000
0000
1000
0000
0001
0000
0010
0100
0000
0000
0000
0000
0000
0000
0000
0000
,
0010
0000
0010
0000
0001
0000
1000
0001
0000
0000
0000
0000
0000
0000
0000
0000
,
0010
0100
0001
0000
0100
1000
0100
0000
,
0010
0100
1000
0100
0010
0100
0001
0000
,
1000
0001
0010
0000
0100
0010
0001
0000
,
0100
0010
0001
0010
0100
0010
1000
0000
,
0100
1100
0010
0011
,
0100
0010
1000
0000
0010
0100
0001
0010
,
0100
0000
0100
0000
1000
1000
1000
0000
,
0010
0000
0100
0000
0001
0001
0001
0000
,
2000
3100
0002
0013
,
1001
0000
0100
0000
,
0010
0100
0001
0000
0010
0000
0000
0000
,
0100
0100
0010
0000
,
0001
1000
0001
0000
0100
0000
0000
0000
,
0010
0010
0100
0000
,
0001
1000
0001
0000
0010
0000
0000
0000
,
0100
0000
0010
0100
1000
0000
0000
0000
,
0200
0000
0020
0300
0002
0030
0200
0003
,
0301
0000
1000
0000
,
0010
0100
0001
0000
0010
0000
0000
0000
,
0100
0010
0001
0000
0011
0000
0000
0000
,
0010
0100
1000
0000
1100
0000
0000
0000
,
0010
0100
0001
0000
,
1000
0001
1000
0000
0001
0000
0000
0000
,
0100
0000
0100
0010
0100
0000
0000
0000
,
0020
0000
0200
0030
0002
0300
0020
0003
,
0031
0000
1001
0000
,
0100
0000
1001
0000
,
0100
0010
0101
0000
,
0010
0100
1010
0000
,
0100
0010
0001
0010
,
0100
0010
0100
1000
,
1001
0010
0001
0010
,
0100
0010
0100
0000
,
1001
0000
2000
0000
,
0001
0000
3002
0000
,
0100
0000
0010
0000
,
0103
0000
1000
0000
0100
0010
0100
0000
,
0001
0000
2000
0000
,
0200
0000
3000
0020
,
0000
0000
0330
0000
,
1001
1001
1001
0000
,
0100
0010
0100
1000
,
0100
0010
0001
0010
,
0200
0000
0302
0000
,
2003
0000
3200
0010
,
0310
0000
0000
0100
0000
0000
1001
0000
,
0000
0000
0000
0000
0000
0000
0010
0100
,
0001
0000
0000
0010
0000
0000
0002
0000
,
0000
2000
0000
3003
,
0220
0000
0000
0000
,
0330
0000
1001
0000
,
0001
0000
1000
0000
0100
0000
0010
0100
,
1000
0010
0100
1000
,
0200
0010
0320
1000
,
2030
0100
3100
0000
,
0100
0010
0101
0000
,
0010
0100
1001
0000
,
1000
0000
0100
0010
0001
0000
0000
0000
,
0200
0000
0020
0300
2000
0030
0002
3000
,
0013
0000
0100
0000
,
0010
0100
1000
0000
0100
0000
0000
0000
,
0010
0100
0001
0000
0010
0000
0000
0000
,
0100
0010
0100
0000
1001
0000
0000
0000
,
0100
0010
0101
0000
,
0010
0100
0010
0000
1100
0000
0000
0000
,
0001
1000
0100
0010
,
0200
0000
2000
0300
0020
3000
0200
0030
,
0002
0300
0000
0000
0000
0000
0000
0000
,
0000
0000
0000
0000
,
0000
0000
0000
0000
,
0000
0000
0000
0000
,
0003
0000
0000
0000
;

//--------------- dance-single - M. Puls ----------------
#NOTES:
     dance-single:
     M. Puls:
     Challenge:
     12:
     0.563164,0.708776,0.387014,0.198007,0.040501,438,395,43,22,8,0,0.563164,0.708776,0.387014,0.198007,0.040501,438,395,43,22,8,0:
0000
0000
0000
0000
,
0000
0000
0000
0000
,
0001
0000
0001
0000
1000
0000
0100
0010
0000
0000
0000
0000
0000
0000
0000
0000
,
1000
0000
1000
0000
0001
0000
0010
0100
0000
0000
0000
0000
0000
0000
0000
0000
,
0110
0000
1000
0001
0010
0100
1000
0010
,
2000
0100
3100
0001
0010
1000
0110
0MM0
,
0001
1000
0100
0010
0001
0100
0002
0010
,
0013
1000
0001
0100
0110
0MM0
1010
M0M0
,
1000
0100
1000
0100
0010
0001
0100
0020
,
0000
0000
0100
0000
0100
0100
0130
0MM0
,
0001
1000
0010
0000
0100
0000
0010
0000
0001
0000
1000
0001
0100
0000
0010
0000
,
1000
0000
0001
1000
0001
0000
0100
0000
0001
0000
0200
0000
0301
0000
0000
0000
,
1000
0100
0000
1000
0001
0000
0010
0100
0000
1000
0001
0000
1001
0000
0110
0000
,
0010
0000
1000
0000
0100
0000
1000
1000
,
0100
0010
0001
1000
0010
0000
0000
0000
,
1100
0001
0010
0000
0100
0000
1000
0010
,
0100
0001
0010
0000
1001
0000
0010
0000
,
0100
0100
0100
0000
1000
0000
0100
0000
,
0010
0010
0010
0000
0001
0000
1000
0100
,
0010
0001
0010
0100
1000
0000
0000
0002
,
0103
0200
0310
2000
3001
0020
0130
0000
,
1000
0000
0001
0000
0010
0000
0001
0001
,
0010
0100
1000
0001
0100
0000
0000
0000
,
0011
1000
0100
0000
0010
0000
0001
0100
,
0010
1000
0100
0000
1001
0000
0100
0000
,
1010
0010
1010
0000
0001
0000
0010
0000
,
0101
0100
0101
0000
1000
0000
0001
0010
,
0100
1000
0100
0010
0001
0000
0000
0002
,
0103
0200
0310
2000
3001
0020
0130
0000
,
1000
0000
1000
0000
0001
0000
0001
1000
,
0010
0000
0001
0010
0100
0000
1000
0000
,
0100
0000
1000
0000
0100
0000
0001
0010
,
0000
0010
0001
1000
0100
0000
0100
2000
,
0000
0000
3010
0000
0100
0000
0001
0010
,
0001
0000
1000
0000
0100
0000
1000
0100
,
1000
0000
1000
0000
0100
0000
0010
0100
,
0010
0000
0100
0010
0100
0000
0010
0000
,
1100
1000
1100
0000
0010
0000
0010
0000
,
1000
0001
0010
0000
0001
0000
0110
0010
,
0110
0000
0010
0000
1000
0000
1000
0100
,
0001
0100
1000
0010
1000
0000
1001
0000
,
1001
0001
1001
0000
0100
0000
0100
0000
,
0001
1000
0100
0000
1000
0000
0101
0100
,
0101
0000
0100
0000
0001
0000
0001
0100
,
1000
0100
0001
0010
0001
0000
1001
0000
,
0001
0010
0001
0010
0100
0000
0100
1000
,
0001
1000
0100
0000
1000
0000
1000
0100
,
1000
0100
0010
0000
0010
0001
1000
0000
,
0001
0010
0001
0010
0001
0000
1000
0000
,
0001
1000
0100
0000
1000
0000
1000
0100
,
1000
0100
0010
0000
0010
0000
0001
0000
,
0100
0001
2000
0000
3001
0000
1100
0000
,
0011
1001
0110
1001
,
2002
0000
0000
0000
,
3003
1100
0110
0110
,
0010
0000
1000
0000
0100
0000
1000
1000
,
0100
0010
0001
1000
0010
0000
0011
0000
,
1100
0001
0010
0000
0100
0000
1000
0010
,
0100
0001
0010
0000
1001
0000
0010
0000
,
0100
0100
0100
0000
1000
0000
0100
0000
,
0010
0010
0010
0000
0001
0000
1000
0100
,
0010
0001
0010
0100
1000
0000
0000
0002
,
0103
0200
0310
2000
3001
0020
0130
0000
,
1000
0000
0001
0000
0010
0000
0001
0001
,
0010
0100
1000
0001
0100
0000
1100
0000
,
0011
1000
0100
0000
0110
0000
0001
0100
,
0010
1000
0100
0000
1001
0000
0100
0000
,
0010
0100
0010
0000
1001
0000
0010
0000
,
0100
0010
0100
0000
1001
0000
0001
0010
,
0100
1000
0100
0010
0001
0001
1000
0000
,
0010
0100
0010
1000
0100
1000
0010
0000
,
2200
0000
0000
0000
,
0000
0000
0000
0000
,
0000
0000
0000
0000
,
0000
0000
0000
0000
,
3300
0000
0000
0000
;

//--------------- dance-double - M. Emirzian ----------------
#NOTES:
     dance-double:
     M. Emirzian:
     Easy:
     1:
     0.073288,0.164256,0.036001,0.027001,0,57,53,4,3,0,0,0.073288,0.164256,0.036001,0.027001,0,57,53,4,3,0,0:
00000000
00000000
00000000
00000000
,
00000000
00000000
00000000
00000000
,
10000000
00000000
00000000
00000000
,
00010000
00000000
00000000
00000000
,
00100000
00000000
00001000
00000000
,
00000010
00000000
00000000
00000000
,
00000001
00000000
00010000
00000000
,
10000000
00000000
00000000
00000000
,
01000000
00000000
00001000
00000000
,
00000010
00000000
00000000
00000000
,
00000100
00000000
00000100
00000000
,
00001000
00000000
00001000
00000000
,
20000000
00000000
00000000
00000000
00000000
00000000
00000000
30000000
,
01000000
00000000
00000000
00000000
,
00000000
00000000
00000000
00000000
,
00100000
00000000
00000000
00000000
,
00000000
00000000
00000000
00000000
,
00000100
00000000
00000000
00000000
,
00001000
00000000
00000000
00000000
,
00000110
00000000
00000000
00000000
,
00000000
00000000
00000000
00000000
,
00010000
00000000
00000000
00000000
,
00000000
00000000
00000000
00000000
,
01000000
00000000
00000000
00000000
,
00000000
00000000
00000000
00000000
,
00001000
00000000
00000000
00000000
,
00000001
00000000
00000000
00000000
,
00001001
00000000
00000000
00000000
,
00010000
00000000
00000000
00000000
,
00100000
00000000
00000000
00000000
,
00000000
00000000
00000000
00000000
,
00001000
00000000
00000000
00000000
,
00000000
00000000
00000000
00000000
,
00000010
00000000
00000000
00000000
,
00000000
00000000
00000000
00000000
,
00010000
00000000
00000000
00000000
,
00000000
00000000
00000000
00000000
,
10000000
00000000
00000000
00000000
,
00000000
00000000
00000000
00000000
,
00001000
00000000
00000000
00000000
,
00000000
00000000
00000000
00000000
,
00000010
00000000
00000000
00000000
,
00000000
00000000
00000000
00000000
,
00010000
00000000
00000000
00000000
,
00000000
00000000
00000000
00000000
,
10000000
00000000
00000000
00000000
,
00000000
00000000
00000000
00000000
,
00000100
00000000
00000000
00000000
,
00000000
00000000
00000000
00000000
,
01000000
00000000
00000000
00000000
,
00010000
00000000
00000000
00000000
,
00000000
00000000
00000000
00000000
,
00001000
00000000
00000000
00000000
,
00000002
00000000
00000000
00000000
,
00000000
00000000
00000000
00000003
,
00000100
00000000
00000000
00000000
,
00000000
00000000
00000000
00000000
,
00000010
00000000
00000000
00000000
,
00000000
00000000
00000000
00000000
,
00010000
00000000
00000000
00000000
,
00100000
00000000
00000000
00000000
,
10010000
00000000
00000000
00000000
,
00000000
00000000
00000000
00000000
,
10000000
00000000
00000000
00000000
,
00000000
00000000
00000000
00000000
,
01000000
00000000
00000000
00000000
,
00000000
00000000
00000000
00000000
,
00000100
00000000
00000000
00000000
,
00000001
00000000
00000000
00000000
,
00001001
00000000
00000000
00000000
,
00000100
00000000
00000000
00000000
,
00020000
00000000
00000000
00000000
,
00000000
00000000
00000000
00000000
,
00030000
00000000
00000000
00000000
;

//--------------- dance-double - M. Emirzian ----------------
#NOTES:
     dance-double:
     M. Emirzian:
     Medium:
     2:
     0.11829,0.255609,0.045002,0.027001,0,92,87,5,3,0,0,0.11829,0.255609,0.045002,0.027001,0,92,87,5,3,0,0:
00000000
00000000
00000000
00000000
,
00000000
00000000
00000000
00000000
,
00010000
00001000
00000100
00001000
,
00010000
01000000
00100000
00000000
,
00100000
00000000
00001000
00000000
,
00010000
00000000
00000100
00001000
,
00000010
00000000
00000100
00000000
,
00000001
00001000
00000000
00000000
,
00000100
00000000
00010000
00000000
,
00001000
01000000
00010000
00000000
,
00100000
00000000
01000000
00000000
,
10000000
00010000
10000000
00000000
,
20020000
00000000
00000000
30030000
,
00100000
00000000
00000000
00000000
,
10000000
00000000
00000000
00000000
,
00010000
00000000
00000000
00000000
,
00100000
00000000
00000000
00000000
,
00001000
00000000
00000000
00000000
,
00010000
00000000
00000100
00000000
,
00001001
00000000
00000000
00000000
,
00000000
00000000
00000000
00000000
,
00000100
00000000
00000000
00000000
,
00000010
00000000
00000000
00000000
,
00010000
00000000
00000000
00000000
,
00001000
00000000
00000000
00000000
,
01000000
00000000
00000000
00000000
,
00100000
00000000
10000000
00000000
,
10010000
00000000
00000000
00000000
,
00000000
00000000
00000000
00000000
,
00001000
00000000
00000000
00000000
,
00010000
00000000
00000000
00000000
,
00100000
00000000
00000000
00000000
,
00010000
00000000
00000000
00000000
,
10000000
00000000
00000000
00000000
,
00010000
00000000
00000000
00000000
,
00001000
00000000
00000000
00000000
,
00000001
00000000
00000000
00000000
,
00001000
00000000
00000000
00000000
,
00010000
00000000
00000000
00000000
,
00000100
00000000
00000000
00000000
,
00001000
00000000
00000000
00000000
,
00100000
00000000
00000000
00000000
,
00010000
00000000
00000000
00000000
,
10000000
00000000
00000000
00000000
,
00010000
00000000
00000000
00000000
,
00001000
00000000
00000000
00000000
,
00000001
00000000
00000000
00000000
,
00010000
00000000
00000000
00000000
,
00001000
00000000
00000000
00000000
,
00000001
00000000
00000000
00000000
,
00010000
00000000
00000000
00000000
,
00000100
00000000
00000000
00000000
,
00010000
00000000
00000000
00000000
,
00000020
00000000
00000000
00000000
,
00000000
00000000
00000000
00000030
,
00001000
00000000
00000000
00000000
,
00000100
00000000
00000000
00000000
,
00010000
00000000
00000000
00000000
,
00001000
00000000
00000000
00000000
,
01000000
00000000
00000000
00000000
,
00100000
00000000
00000000
00000000
,
10000000
00000000
00010000
00000000
,
10010000
00000000
00000000
00000000
,
00001000
00000000
00000000
00000000
,
00000001
00000000
00000000
00000000
,
00000100
00000000
00000000
00000000
,
00000010
00000000
00000000
00000000
,
00010000
00000000
00000000
00000000
,
00001000
00000000
00000000
00000000
,
01000000
00000000
00000000
00000000
,
00100000
00000000
10000000
00000000
,
10010000
00000000
00000000
00000000
;

//--------------- dance-double - M. Emirzian ----------------
#NOTES:
     dance-double:
     M. Emirzian:
     Hard:
     5:
     0.257152,0.394215,0.045002,0.171006,0.018001,200,195,5,19,0,0,0.257152,0.394215,0.045002,0.171006,0.018001,200,195,5,19,0,0:
00000000
00000000
00000000
00000000
,
00000000
00000000
00000000
00000000
,
10000000
00000000
00000000
00000000
00010000
00000000
00000000
01000000
00000000
00000000
00000000
00000000
00000000
00000000
00000000
00000000
,
00001000
00000000
00000000
00000000
00010000
00000000
00000000
00000010
00000000
00000000
00000000
00000000
00000000
00000000
00000000
00000000
,
00001000
00000010
00000100
00000000
00000001
00000100
00001000
00000000
,
00001000
00000100
00000001
00000000
00001000
00000000
00000100
00000000
,
00010000
00001000
01000000
00000000
00010000
01000000
10000000
00000000
,
10000000
01000000
00010000
00000000
10000000
00000000
01000000
00000000
,
00100000
00001000
00010000
00000000
00001000
00000010
00000001
00000000
,
00000001
00000010
00001000
00000000
00010000
00000000
00000100
00000000
,
00001000
00000000
00000000
00000010
00000000
00000000
00000100
00000000
00000000
00000000
00000000
00000000
00000000
00000000
00000001
00000000
,
00001000
00000000
00000000
00000100
00000000
00000000
00000010
00000000
00000000
00000000
00000000
00000000
00000000
00000000
00000000
00000000
,
00002002
00000000
00000000
00003003
,
00000100
00000000
00000010
00000000
,
00000001
00000100
00001000
00000000
,
00010000
00000000
00001000
00000000
,
00010000
01000000
10000000
00010000
,
01000000
00000000
00000000
00000000
00100000
00000000
00000000
10000000
,
00000000
00000000
00010000
00000000
01000000
00000000
00000000
01010000
,
00000000
00000000
00000000
00000000
10000000
00000000
00000000
10000000
,
01000000
00100000
00010000
00100000
,
00001000
00000000
00010000
00000000
,
00000100
00001000
00000010
00000000
,
00000100
00000000
00000001
00000000
,
00000010
00000100
00010000
00000000
,
00001000
00000000
00000000
00000000
01000000
00000000
00000000
00100000
,
00000000
00000000
10000000
00000000
01000000
00000000
00000000
11000000
,
00000000
00000000
00000000
00000000
00100000
00000000
00000000
00010000
,
10000000
00100000
01000000
00010000
,
20000000
00000000
30020000
00000000
,
02030000
00000000
03002000
00000000
,
00023000
00000000
00030200
00000000
,
00002300
00000000
00003020
00000000
,
00000230
00000000
00000302
00000000
,
00002003
00000000
00003200
00000000
,
00000320
00000000
00002030
00000000
,
00023000
00000000
00030000
00000000
,
00001000
01000000
00010000
00000000
,
10000000
01000000
00010000
00000000
,
00010000
01000000
10000000
00000000
,
00100000
00000000
01000000
00000000
,
00001000
00010000
00000010
00000000
,
00001000
00000100
00000001
00000000
,
00000001
00000100
00001000
00000000
,
00000010
00000000
00010000
00000000
,
00001000
01000000
00010000
00000000
,
10000000
00100000
00010000
00000000
,
00010000
00100000
10000000
00000000
,
01000000
00000000
00100000
00000000
,
00010000
00000000
00000000
01000000
00000000
00000000
00001000
00000000
,
00000000
00000000
00010000
00000100
,
00001000
00000000
00000000
00000010
00000000
00000000
00000100
00000000
,
00000000
00000001
00000000
00000000
,
00002000
00000000
00000000
00000000
,
00000000
00000000
00000000
00000000
,
00003100
00000000
00010000
00000000
,
00001000
00010000
01000000
00000000
,
10000000
00000000
00010000
00000000
,
01000000
00100000
10000000
00000000
,
00010000
00000000
00000000
00000000
00100000
00000000
00000000
01000000
,
00000000
00000000
10000000
00000000
00010000
00000000
00000000
10010000
,
00000000
00000000
00000000
00000000
10000000
00000000
00000000
10000000
,
01000000
00010000
01000000
10000000
,
00100000
00000000
00010000
00000000
,
00001000
00010000
00000010
00000000
,
00001000
00000000
00000100
00000000
,
00000010
00000001
00000100
00000000
,
00000010
00000000
00000000
00000000
00010000
00000000
00000000
00001000
,
00000000
00000000
01000000
00000000
00100000
00000000
00000000
01100000
,
00000000
00000000
00000000
00000000
00010000
00000000
00000000
10000000
,
01000000
00010000
00001000
00000100
,
00000002
00000000
00000000
00000000
,
00000000
00000000
00000000
00000000
,
00000003
00000000
00000000
00000000
;

//--------------- dance-double - M. Emirzian ----------------
#NOTES:
     dance-double:
     M. Emirzian:
     Challenge:
     9:
     0.567021,0.689876,0.666025,0.072003,0.040501,441,367,74,8,30,1,0.567021,0.689876,0.666025,0.072003,0.040501,441,367,74,8,30,1:
00000000
00000000
00000000
00000000
,
00000000
00000000
00000000
00000000
,
00010000
00000000
01000000
00000000
00100000
00000000
10000000
00010000
00000000
00000000
00000000
00000000
00000100
00000000
00000000
00000000
,
00000001
00000000
00000010
00000000
00000100
00000000
00001000
00000001
00000000
00000000
00000100
00000000
00000010
00000000
00001000
00000000
,
00000001
00000100
00001010
00000000
00000001
00000100
00001010
00000000
,
00000010
00010000
00100000
10000000
01000000
00100000
10010000
00000000
,
00010000
10000000
01100000
00000000
00010000
10000000
01100000
00000000
,
01000000
00100000
00001000
00000010
00000001
00000100
00001001
00000000
,
00000010
00001000
00000101
00000000
00000010
00001000
00000101
00000000
,
00000010
00010000
01000000
10000000
00100000
01000000
00010000
00100000
,
01000000
00000000
00000000
10000000
00000000
00000000
00010000
00000000
00000000
00000000
00100000
00000000
00001000
00000000
00010000
00000000
,
00001000
00000000
00000000
00000100
00000000
00000000
00000001
00000000
00000000
00000000
00000010
00000000
00000000
00000000
00000100
00000000
,
00001000
00000001
00000000
00000100
00000010
00000000
00010000
00001000
00000000
01000000
00100000
00000000
10100000
00000000
11000000
00000000
,
00110000
00000000
10010000
00000000
01000000
00100000
10000000
00000000
,
10010000
00000000
01000000
00010000
00001000
00010000
00000100
00000000
,
00001010
00000000
00000010
00000100
00000010
00000000
00001001
00000000
,
00000010
00000100
00010000
00001000
00000100
00000001
00000010
00000000
,
00001100
00000000
00010000
00001000
01000000
00000000
10010000
00000000
,
00100000
10000000
01000000
00000000
00100000
00001000
00010000
00100000
,
10000000
00000000
01000000
00100000
00001000
00000000
00011000
00000000
,
00000100
00010000
00001000
00000000
00010010
00000000
00001010
00000000
,
00000101
00000000
00001001
00000000
00000010
00000100
00001000
00000000
,
00000101
00000000
00000100
00010000
00000010
00000100
00000001
00000000
,
00000100
00000000
00000010
00010000
00001000
00000000
00110000
00000000
,
01000000
00010000
00100000
01000000
00100000
00001000
00010000
00000000
,
10100000
00000000
10000000
01000000
00100000
00000000
00101000
00000000
,
00010000
01000000
00100000
00000000
00010000
00001000
01000000
00001000
,
00010000
00000000
00001000
00000100
00000010
00000000
00000011
00000000
,
00000100
00001000
00000010
00000M0M
00000101
0000M000
00001001
00000000
,
00000110
00000000
00000100
00000000
00000001
00000000
00000100
00002000
,
000M0000
00010000
00000M00
00003100
00001000
00000000
00011000
00000000
,
00100000
00000000
01010000
00000000
10000000
00000000
00100000
02000000
,
0000M000
00001000
00M00000
03100000
10000000
00000000
11000000
00000000
,
00100000
00000000
00011000
00000000
00010000
00000000
01000000
00020000
,
0000M000
00001000
00M00000
00130000
00010000
00000000
00011000
00000000
,
00000100
00000000
00000011
00000000
00000101
00000000
00001001
00000002
,
000000M0
00000000
00000010
00000000
00000M00
00000000
00000100
00000000
000000M0
00000003
00000010
00000000
00000100
00000000
00000000
00000000
,
00001000
00000001
00001000
00000000
00000110
00000000
00000MM0
00000000
,
00000001
00001000
00000001
00000000
00000110
00000000
00000MM0
00000000
,
00010000
00001000
01000000
00000000
00010000
00100000
01000000
00000000
,
11000000
00100000
01010000
00000000
,
00100000
01000000
00100000
00000000
10010000
00000000
M00M0000
00000000
,
00100000
01000000
00100000
00000000
10010000
00000000
M00M0000
00000000
,
01000000
00001000
00010000
00000000
00000010
00001000
00000100
00000000
,
00000011
00000100
00001010
00000000
,
00000010
00001000
00000010
00000000
00000101
00000000
00000M0M
00000000
,
00000010
00001000
00000010
00000000
00000101
00000000
00000M0M
00000000
,
00000010
00000100
00001000
00000000
00000010
00010000
00001000
00000000
,
01001000
00100000
00110000
10010000
,
01000000
10000000
01000000
00000000
00100000
00000000
00110000
00000000
,
01000000
10000000
01000000
00000000
00110000
00000000
00101000
00000000
,
00100000
00001000
00010000
00000000
00000010
00001000
00000100
00000000
,
00000011
00000101
00001010
0000MMMM
,
00002002
00000000
00000000
00000000
,
00000000
00000000
00000000
00000000
00000000
00000000
00000100
00000000
00000000
00003003
00000000
0000M00M
,
00000010
00000000
00001001
00000000
00000100
00010000
00001000
00000000
,
01001000
00000000
00010000
01000000
00100000
00010000
10000000
00000000
,
01010000
00000000
01000000
00100000
01000000
00000000
10010000
00000000
,
00100000
10000000
01000000
00100000
00001000
00010000
00001000
00000000
,
01010000
00000000
01000000
00001000
00010000
00000000
00001100
00000000
,
00000100
00000001
00000010
00000000
00000100
00010000
00001000
00010000
,
00000010
00000000
00001000
00000100
00000010
00000000
00011000
00000000
,
00010000
00001000
00100000
00000000
01001000
00000000
01100000
00000000
,
10000000
00000000
01000000
00000000
00100000
00010000
01000000
00000000
,
01001000
00000000
00001000
00010000
00100000
01000000
00010000
00000000
,
10010000
00000000
00100000
00001000
00010000
00000000
00010100
00000000
,
00001000
00000010
00010000
00001000
00000100
00000001
00001000
00000000
,
00001100
00000000
00000010
00000001
00000100
00000000
00001001
00000000
,
00000010
00010000
00001000
00000000
01000000
00001000
00010000
00001000
,
00100000
00000000
00000100
00010000
00001000
00000000
00001100
00000000
,
00001000
00010000
00100000
10000000
01000000
00100000
00010000
00000000
,
02020000
00000000
00000000
00000000
,
00000000
00000000
00000000
00000000
,
03030000
00000000
00000000
00000000
;

//--------------- lights-cabinet - ----------------
#NOTES:
     lights-cabinet:
     :
     Easy:
     1:
     0.486018,0.641274,0.477018,0.288011,0,378,311,53,32,0,10,0.486018,0.641274,0.477018,0.288011,0,378,311,53,32,0,10:
000000
000000
000000
000000
,
000000
000000
000000
000000
,
100000
100000
001000
000000
020000
000000
000000
000000
,
030100
000100
001000
000000
000200
000000
000000
000000
,
100300
010000
100000
000000
000100
001000
000100
000000
,
010000
001000
100000
010000
100000
000100
001100
000000
,
000100
010000
001000
000000
010000
001000
100000
000000
,
000100
001000
000100
010000
001000
010000
001000
000000
,
100000
010000
110000
000000
001000
010000
011000
000000
,
100000
001000
010000
000100
001000
000100
010100
000000
,
000100
001000
000100
000000
100000
010000
100000
000000
,
010000
100000
001000
010000
000100
100000
100100
000000
,
200200
311300
022000
133100
,
001000
000000
100000
000000
010000
000000
100000
001000
,
010000
100000
011000
000000
,
100000
000100
001000
000000
010000
000000
100000
001000
,
010000
000100
000000
000000
100100
000000
000000
000000
,
010000
010000
001000
010000
,
010000
000000
000100
000000
001000
000000
000100
001000
,
000100
100000
011000
000000
,
020000
032000
003200
200000
,
311300
000000
000000
000000
001000
000000
000100
010000
,
001000
000000
100100
000000
,
000100
100000
010000
000000
001000
000000
000100
010000
,
001000
100000
000000
000000
100100
000000
000000
000000
,
001000
001000
100100
000000
,
100000
000000
000100
000000
100000
000000
000100
001000
,
010000
000000
010000
100100
011000
000000
000000
000000
,
002000
023000
230000
302000
,
103000
000100
100100
000100
,
100000
000100
011000
001000
,
010000
000100
100100
010000
,
100000
000100
011000
000100
,
100000
010000
100100
010000
,
000100
001000
100100
010000
,
001000
100000
000100
100000
,
001000
001000
022000
000000
,
033100
100000
200000
001000
,
010000
000100
301000
000100
,
100000
000000
001000
000000
,
010000
000000
000100
000000
001000
000100
001000
000100
,
100000
011000
000200
001000
,
010000
100000
010300
100000
,
000100
010000
001000
100000
101000
000000
100000
000000
,
011000
000000
100100
000000
010000
001000
100000
000100
,
011000
100100
010000
000100
,
001000
000100
010000
001000
,
200000
000100
300200
100000
,
010300
000000
001000
000000
010000
001000
100000
010000
,
000100
100000
100000
010000
,
100100
011000
111100
000000
,
000100
001000
000100
010000
,
001000
100000
011000
100100
,
211200
000000
000000
000000
,
300300
111111
000000
111111
,
000100
000000
100000
000000
010000
000000
100000
001000
,
010000
000100
001000
000100
,
010000
001000
100000
000000
001000
000000
010000
000100
,
001000
000100
100000
000000
100100
000000
011000
000000
,
010000
001000
100100
010000
,
000100
001000
000100
000000
010000
000000
001000
100000
,
010000
000000
001000
010000
100000
000000
100100
000000
,
000200
020300
032000
203000
,
300100
000000
010000
000000
011000
000000
000100
010000
,
001000
000000
100000
001000
100100
000000
010000
001000
,
100000
000100
010000
000000
001000
000000
100000
000100
,
001000
000100
100000
000000
100100
000000
011000
000000
,
001000
010000
100100
011000
,
100000
000100
100000
000000
001000
000000
010000
001000
,
100000
000000
000100
001000
000100
000000
100000
000000
,
011000
100100
222200
300300
,
233200
000000
000000
000000
,
000000
000000
000000
000000
,
000000
000000
000000
000000
,
000000
000000
000000
000000
,
300300
000000
000000
000000
;
