#TITLE:Touch Me;
#SUBTITLE:;
#ARTIST:E-Rotic;
#TITLETRANSLIT:;
#SUBTITLETRANSLIT:;
#ARTISTTRANSLIT:;
#GENRE:;
#CREDIT:;
#MUSIC:Touch Me.ogg;
#BANNER:Touch Me.png;
#BACKGROUND:Touch Me-bg.png;
#CDTITLE:;
#SAMPLESTART:51.031;
#SAMPLELENGTH:15.980;
#SELECTABLE:YES;
#OFFSET:0.010;
#BPMS:0.000=138.000;
#STOPS:;
#BGCHANGES:;
#FGCHANGES:;

//--------------- dance-single - M. Puls ----------------
#NOTES:
     dance-single:
     M. Puls:
     Beginner:
     1:
     0.063,0.11,0.016,0,0:
0000
0000
0000
0000
,
0000
0000
0000
0000
,
0000
0000
0000
0000
,
0000
0000
0000
0000
,
0000
0000
0000
0000
,
1000
0000
0000
0000
,
0000
0000
0000
0000
,
1000
0000
0000
0000
,
0001
0000
0000
0000
,
0001
0000
0000
0000
,
0000
0000
0000
0000
,
0001
0000
0000
0000
,
0000
0000
0000
0000
,
1000
0000
0000
0000
,
1000
0000
0000
0000
,
0001
0000
0000
0000
,
0001
0000
0000
0000
,
0010
0000
0000
0000
,
0010
0000
0000
0000
,
0100
0000
0000
0000
,
0010
0000
0000
0000
,
1000
0000
0000
0000
,
0100
0000
0000
0000
,
0010
0000
0000
0000
,
0010
0000
0000
0000
,
0001
0000
0000
0000
,
0010
0000
0000
0000
,
0100
0000
0000
0000
,
0100
0000
0000
0000
,
1000
0000
0000
0000
,
0001
0000
0000
0000
,
0000
0000
0000
0000
,
1000
0000
0000
0000
,
0000
0000
0000
0000
,
1000
1000
0000
0000
,
0000
0000
0000
0000
,
0001
0001
0000
0000
,
0000
0000
0000
0000
,
0100
0000
0000
0000
,
0100
0000
0000
0000
,
0100
0000
0000
0000
,
0100
0000
0000
0000
,
0010
0000
0000
0000
,
0010
0000
0000
0000
,
0010
0000
0000
0000
,
0010
0000
0000
0000
,
1001
0000
0000
0000
,
0000
0000
0000
0000
,
0000
0000
0000
0000
,
0000
0000
0000
0000
,
1000
0000
0000
0000
,
0000
0000
0000
0000
,
0001
0000
0000
0000
,
0000
0000
0000
0000
,
0000
0000
0000
0000
,
0001
0000
0000
0000
,
0000
0000
0000
0000
,
1000
0000
0000
0000
,
0000
0000
0000
0000
,
0001
0001
0000
0000
,
0000
0000
0000
0000
,
1000
1000
0000
0000
,
0000
0000
0000
0000
,
0001
0000
0000
0000
,
0010
0000
0000
0000
,
0100
0000
0000
0000
,
1000
0000
0000
0000
,
0100
0000
0000
0000
,
0010
0000
0000
0000
,
0001
0000
1000
0000
,
0001
0000
0000
0000
,
1001
0000
0000
0000
;

//--------------- dance-single - K. Ward ----------------
#NOTES:
     dance-single:
     K. Ward:
     Easy:
     4:
     0.223,0.303,0.155,0.023,0:
0000
0000
0000
0000
,
0000
0000
0000
0000
,
0000
0000
0000
0000
,
0000
0000
0000
0000
,
0000
0000
0000
0000
,
1000
0001
0000
0000
,
0000
0000
0000
0000
,
0100
0000
0010
0000
,
0100
0100
0100
0000
,
1000
0001
0000
0000
,
0100
0000
0010
0000
,
1000
0001
1000
0000
,
1001
0000
0000
0000
,
0010
0010
0100
0001
,
0010
0010
0100
1000
,
0002
0000
0003
0000
,
1000
0000
0001
0000
,
1000
1000
0001
0100
,
0010
0010
0100
0001
,
0010
0010
0100
0010
,
1001
0000
0000
0000
,
1000
0000
0000
1000
0000
0000
0000
0000
,
0001
0000
0000
0001
0000
0000
0000
0000
,
0100
0100
0100
0100
,
0100
0000
0000
0100
0000
0000
0000
0000
,
0010
0100
0010
0100
,
0001
1000
0001
1000
,
0100
0000
0010
0000
,
0100
0000
0000
0000
,
1001
0000
0000
0000
,
1001
1001
0000
0000
,
0001
1000
0001
0000
,
1001
1001
0000
0000
,
0100
0010
0100
0000
,
0110
0110
0000
0000
,
0001
1000
0001
0000
,
1001
1001
0000
0000
,
0200
0000
0310
0000
,
0001
1000
0010
0010
,
0100
0001
0010
0010
,
0100
1000
0001
0001
,
0100
0000
0100
0000
,
1000
0001
0100
0100
,
0010
0100
0001
0001
,
0010
0100
1000
0100
,
1001
0010
1001
0100
,
0001
0000
0000
0000
,
1000
0000
0000
0000
,
0010
0000
0000
0000
,
0100
0000
0000
0000
,
1001
1001
0000
0000
,
0000
0000
0000
0000
,
0110
0110
0000
0000
,
0100
0010
0100
0001
,
0011
0000
0000
0000
,
1000
0001
1000
0001
,
0100
0010
0100
0100
,
1000
0001
1000
0001
,
0010
0000
0000
0010
0000
0000
0000
0000
,
0100
0010
0100
0010
,
0001
1000
0001
0001
,
0100
0010
0100
0010
,
1000
0000
0000
0001
0000
0000
0000
0000
,
0100
0010
0100
0100
,
1000
0001
1000
1000
,
0100
1001
0010
0100
,
0010
0010
0020
0030
,
0001
1000
0001
0001
,
0100
0010
0100
0100
,
0001
0000
0000
0000
0000
0000
0000
1000
,
0000
0000
0000
0001
0000
0000
0000
0000
,
1001
0000
0000
0000
;

//--------------- dance-single - K. Ward ----------------
#NOTES:
     dance-single:
     K. Ward:
     Medium:
     6:
     0.278,0.34,0.14,0.07,0.023:
0000
0000
0000
0000
,
0000
0000
0000
0000
,
0000
0000
0000
0000
,
0000
0000
0000
0000
,
0000
0000
0000
0000
,
1001
1001
0000
0000
,
0100
0100
0000
0000
,
0010
0100
0010
0100
,
0002
0000
2003
0000
,
3001
0011
0000
0000
,
0100
0100
0000
0000
,
0010
0100
0001
0010
,
1001
0000
0000
0000
,
1000
0000
1000
0000
1000
0001
1000
0000
,
0100
0000
0100
0000
0010
0100
0010
0000
,
0002
0000
0003
0000
,
1000
0010
0100
0001
,
1000
0000
1000
0000
0001
1000
0001
0000
,
0010
0000
0010
0000
0100
1000
0010
0000
,
0100
0100
0001
0010
,
1001
0000
0000
0000
,
0001
0010
0001
0010
0000
0000
0000
0000
,
0100
0100
0200
0000
,
1300
0000
0000
0000
,
0010
0100
0010
0000
0100
0000
0001
0000
,
1000
0001
1000
0001
,
0100
1000
0100
1000
,
0100
0010
1000
0100
,
0010
0000
0000
0101
0000
0000
0000
0000
,
1001
0000
0000
0000
,
0100
0010
0100
0010
,
1000
1000
0001
0001
,
0010
0100
0010
0100
,
1000
0000
1000
0000
1000
0001
1000
0000
,
0010
0100
0010
0100
,
0001
0001
1000
1000
,
0100
0010
0100
0010
,
0001
0000
1000
0000
0001
1000
0001
1000
,
0001
0000
0000
0000
0001
0000
0000
0001
0000
0000
0000
0000
0000
0000
0000
0000
,
0100
0000
0000
0000
0100
0000
0000
0100
0000
0000
0000
0000
0000
0000
0000
0000
,
1000
0000
0000
0000
1000
0000
0000
1000
0000
0000
0000
0000
0000
0000
0000
0000
,
0010
0100
0010
0000
0001
1000
0001
0000
,
0010
0000
0000
0000
0100
0000
0000
0010
0000
0000
0000
0000
0000
0000
0000
0000
,
0001
0000
0000
0000
1000
0000
0000
0001
0000
0000
0000
0000
0000
0000
0000
0000
,
0100
0000
0000
0000
0010
0000
0000
0100
0000
0000
0000
0000
0000
0000
0000
0000
,
1000
0001
1000
0001
,
1001
0000
0000
0000
,
0100
0000
0000
0000
,
0001
0000
0000
0000
,
1000
0010
0100
0010
,
1001
1001
0000
0010
,
0000
0100
0000
0001
,
0000
1000
0000
0001
,
0000
0100
0000
0010
,
1001
0000
0000
0000
,
0010
0001
0010
0100
,
0010
0000
0010
0000
0100
0010
0100
0000
,
1000
1001
0001
0100
,
0010
0100
0010
0000
1000
0001
1000
0000
,
0100
0010
0100
1000
,
0010
0000
0100
0000
0010
0100
0001
0000
,
1000
0000
1001
0000
0100
0010
0100
0000
,
0020
0000
0230
0000
,
1300
0000
1001
0000
0000
0010
0100
0000
,
0001
0000
1001
0000
0000
0100
0010
0000
,
0001
0000
0011
0000
0000
0010
0100
0000
,
0001
1000
0001
1000
,
0100
0000
1001
0000
0010
0100
0001
0000
,
0010
0000
0100
0000
0010
0100
1000
0000
,
0020
0000
0000
0030
,
0100
0010
0100
0010
,
2002
0000
0000
0000
,
0000
0000
0000
0000
,
3003
0000
0000
0000
;

//--------------- dance-single - K. Ward ----------------
#NOTES:
     dance-single:
     K. Ward:
     Hard:
     11:
     0.416,0.481,0.271,0.116,0.097:
0000
0000
0000
0000
,
0000
0000
0000
0000
,
0000
0000
0000
0000
,
0000
0000
0000
0000
,
0000
0000
0000
0000
,
1001
1001
0000
0000
,
0100
0000
0000
0000
0100
0000
0000
1000
0000
0000
0000
0000
0000
0000
0000
0000
,
0010
0000
0000
0000
0100
0000
0000
0001
0000
0000
0000
0000
0000
0000
0000
0000
,
0010
0100
0010
0100
,
1001
1001
0000
0000
,
0100
0000
0000
0000
0100
0000
0000
1000
0000
0000
0000
0000
0000
0000
0000
0000
,
0100
0001
0010
0100
,
1001
0000
0000
0000
,
0001
1000
0001
0100
0001
1000
0001
0000
,
0100
0010
0100
0001
0100
0010
0100
0000
,
1000
0100
0010
0100
0001
0010
0100
0000
,
0010
0100
1000
0000
0010
0100
0001
0000
,
0010
0100
1000
0100
0010
0100
0010
0000
,
0001
0010
0100
1000
0100
0010
0100
0000
,
1000
0010
0100
1000
0100
0000
0010
0000
,
1001
0000
0000
0000
,
1000
0000
0010
0000
0100
0000
0000
0001
0010
0000
0001
0000
0010
0000
0000
0100
,
1000
0000
0010
0000
0100
0000
0000
1000
0100
0000
0010
0000
1000
0000
0000
0001
,
0010
0000
0100
0000
0010
0000
0000
0001
1000
0000
0100
0000
0010
0000
0000
0000
,
0200
0010
1000
0310
,
1000
0000
0001
0000
0010
0000
0000
0001
0010
0000
0001
0000
0100
0000
0000
1000
,
0100
0000
0010
0000
1000
0000
0000
0100
0010
0000
0100
0000
1000
0000
0000
0010
,
0100
0000
0001
0000
0010
0000
0000
0100
0010
0000
0001
0000
1000
0000
0000
0000
,
0010
0100
0010
0001
0010
0100
0010
0000
,
2002
0000
0000
3003
,
1100
0000
0011
0000
0100
0010
0100
1000
,
0000
0100
0010
0100
0000
0001
1000
0000
,
0110
0000
1001
0000
0100
0010
0100
2000
,
0000
3200
0000
0320
0000
0100
0130
0000
,
1001
0000
1001
0000
0010
0100
1000
0100
,
0000
0010
1000
0100
0000
0010
0100
0000
,
0011
0000
1100
0000
0010
0100
1000
0100
,
0010
0100
0001
0010
0100
0000
0010
0000
,
1001
0000
0000
0000
1001
0000
0000
0010
0100
0000
0010
0000
1000
0000
0000
0000
,
0100
0000
0000
0000
0010
0000
0000
0100
0010
0000
0001
0000
0010
0000
0000
0000
,
0100
0000
0000
0000
1001
0000
0000
0100
0010
0000
0100
0000
1000
0000
0000
0000
,
0100
0001
0010
0001
,
0010
0000
0000
0000
1001
0000
0000
0100
0010
0000
0100
0000
1000
0000
0000
0000
,
0100
0000
0000
0000
0001
0000
0000
0010
0100
0000
0010
0000
0001
0000
0000
0000
,
0010
0000
0101
0000
0100
1000
0100
0010
,
0100
0000
0000
0000
0001
0000
0000
0000
1000
0000
0000
0100
0010
0000
0100
0000
,
2000
0000
0000
0000
,
3002
0000
0000
0000
,
0203
0000
0000
0000
,
0310
0000
0100
0001
,
0010
1001
0000
0100
,
0000
0010
0000
1000
,
0001
1001
0000
1000
,
0000
0100
0010
0100
,
1001
0000
0000
0000
,
1001
0000
1001
0000
0100
0010
0100
1000
,
0000
0100
0001
0010
0000
0100
0010
0000
,
0101
0000
1100
0000
0010
0100
0010
0002
,
0000
0013
0100
2000
0000
0100
3100
0000
,
1001
0000
1001
0000
0100
1000
0100
0010
,
0000
1000
0100
0010
0000
0100
0010
0000
,
0101
0000
1100
0000
0010
0100
0001
2000
,
0000
3100
0100
0020
0000
0100
0130
0000
,
1001
0000
0000
0000
1001
0000
0000
0010
0100
0000
0001
0000
0010
0000
0000
0000
,
0100
0000
0000
0000
0010
0000
0000
0100
1000
0000
0010
0000
0001
0000
0000
0000
,
0010
0000
0000
0000
0100
0000
0000
0010
0001
0000
0010
0000
0100
0000
0000
0000
,
0001
1000
0001
1000
,
1001
0000
0000
0000
1010
0000
0000
0100
0010
0000
0100
0000
1000
0000
0000
0000
,
0010
0000
0000
0000
0001
0000
0000
0010
0100
0000
0001
0000
0010
0000
0000
0000
,
0002
0000
0000
0000
0000
0013
0100
1000
,
0000
0000
0100
0000
0010
0000
0001
0000
0000
0000
1000
0001
1000
0000
0000
0000
,
0200
0000
0000
0000
,
0000
0000
0000
0000
,
0300
0000
0000
0000
;

//--------------- dance-single - K. Ward ----------------
#NOTES:
     dance-single:
     K. Ward:
     Challenge:
     14:
     0.739,0.764,0.31,0.396,0.566:
0000
0000
0000
0000
,
0000
0000
0000
0000
,
0000
0000
0000
0000
,
0000
0000
0000
0000
,
0000
0000
0000
0000
,
0200
0000
0000
0000
0310
0000
0000
1000
0000
0001
1000
0000
0001
0000
0100
0000
,
0020
0000
0000
0000
1030
0000
0000
0100
0000
0010
0100
0000
0100
0000
1000
0000
,
0002
0000
0000
0000
0103
0000
0000
0010
0000
1000
0001
0000
0100
0000
0010
0000
,
0020
0000
1000
0000
1030
0000
0000
0010
0000
1000
0001
0000
0100
0000
0001
0000
,
0020
0000
0000
0000
0031
0000
0000
0100
0000
0010
1000
0000
1000
0000
0010
0000
,
0200
0000
0000
0000
0301
0000
0000
0100
0000
0010
0100
0000
0001
0000
1000
0000
,
2000
0000
0000
0000
3010
0000
0000
1000
0000
0100
1000
0000
1000
0000
0001
0000
,
0200
0000
0000
0000
0000
0000
0000
0000
0010
0000
0000
0000
0000
0000
0000
0000
0301
0000
0000
0000
0000
0000
0000
0000
1100
0000
0000
0000
0000
MM00
0000
0000
,
1000
0000
0001
0000
1000
0000
0100
1000
0000
1000
0100
0000
1000
0010
0100
0001
,
1000
0000
0100
0000
1000
0000
0010
0100
0000
0100
0010
0000
1000
0010
0100
0001
,
1000
0000
0010
0000
0100
0000
0001
1000
0000
1000
0100
0000
1000
0001
0100
0010
,
2000
0000
0010
0000
3010
0000
0100
0010
0000
0010
1000
0000
0010
0000
1000
0000
,
1100
0000
0010
0000
0110
0000
0001
1000
0000
1000
0010
0000
0100
0010
1000
0001
,
1000
0000
0010
0000
0100
0000
0010
0100
0000
0100
0010
0000
1000
0010
0100
0010
,
1000
0000
0001
0000
1000
0000
0001
0100
0000
0100
0001
0000
0100
0000
0010
0000
,
2200
0000
0000
0000
0001
3300
0000
0000
,
1000
0010
1000
0000
0001
0100
0010
0000
1000
0010
0100
0000
0001
0100
0010
0000
,
1000
0010
0100
0000
0001
0100
0010
0000
1000
0010
0100
0001
0100
0010
1000
0000
,
0010
0100
0001
0000
0100
0010
1000
0000
0010
0100
0010
0000
0100
0000
0010
0000
,
1000
0100
1000
0001
2000
0001
3001
0100
,
0001
0100
0001
0000
1000
0010
0100
0000
0001
0100
0010
0000
1000
0010
0100
0000
,
0001
0100
0010
0000
1000
0010
0100
0000
0001
0100
0010
1000
0010
0100
0001
0000
,
0100
0010
1000
0000
0010
0100
0001
0000
0100
0010
1000
0000
0001
0100
0010
0000
,
1100
0010
0110
0001
2000
0001
0001
3001
,
0200
0000
0010
0000
0001
0001
0310
0000
,
1100
0000
0000
0000
0110
0000
0000
0000
0011
0000
0000
0000
0000
00MM
0000
0000
0100
0000
0010
0000
0100
0000
0001
0000
0100
0000
0000
0000
0002
0000
0000
0000
,
0000
1003
1000
0010
0100
0001
0100
0010
,
1100
0000
0000
0000
0110
0000
0000
0000
1100
0000
0000
0000
0000
00MM
0000
0000
1000
0000
0010
0000
0100
0000
0010
0000
0100
0000
0000
0000
0002
0000
0000
0000
,
0000
1000
0010
2003
0010
0001
3010
0000
,
0101
0000
0000
0000
0110
0000
0000
0000
1010
0000
0000
0000
0000
M0M0
0000
0000
0001
0000
0010
0000
0001
0000
0010
0000
0001
0000
0000
0000
0200
0000
0000
0000
,
0000
0310
1000
1000
0010
0100
0001
1000
,
1100
0000
0000
0000
0110
0000
0000
0000
0101
0000
0000
0000
0000
0M0M
0000
0000
0010
0000
0001
0000
0010
0000
0001
0000
0010
0000
0000
0000
0002
0000
0000
0000
,
0000
0103
0200
0001
0301
1000
0010
0100
,
0001
0000
1000
0000
0001
0000
0010
0001
0000
0001
0010
0000
0001
0100
0010
1000
,
0001
0000
0010
0000
0001
0000
0100
0010
0000
0010
0100
0000
0001
0100
0010
1000
,
0001
0000
0100
0000
0010
0000
1000
0001
0000
0001
0010
0000
0001
1000
0010
0100
,
0002
0000
0100
0000
0103
0000
0010
0100
0000
0100
0001
0000
0100
0000
0010
0000
,
1100
0000
0010
0000
0110
0000
0010
1000
0000
1000
0010
0000
0100
0010
1000
0001
,
1000
0000
0010
0000
0100
0000
0010
0100
0000
0100
0010
0000
1000
0010
0100
0010
,
1000
0000
0010
0000
1100
0000
0001
0100
0000
0100
0010
0000
0100
0000
0001
0000
,
1000
0100
1000
0100
1000
0000
0010
0000
0100
0010
0100
0010
1000
0000
1000
0000
,
0020
0000
0230
0000
0302
0000
0013
0100
,
2000
0000
3200
0000
0320
0000
0031
0001
,
0020
0000
0032
0000
2003
0000
3100
0010
,
0002
0000
0000
0000
0000
0000
0000
0000
0023
0000
0000
0000
0000
0000
0000
0000
0032
0000
0000
0000
0100
0000
0000
0000
0103
0000
0000
0000
0000
0M0M
0000
0000
,
1100
0000
0000
0000
0110
0000
0000
0000
1010
0000
0000
0000
0000
M0M0
0000
0000
1000
0000
0010
0000
0100
0000
0000
0000
0002
0000
0000
0000
1000
0000
0000
0000
,
2003
0000
300M
0000
M002
0000
0000
0000
0100
0013
0200
0000
0001
0000
0301
0000
,
0002
0000
0000
0000
0000
0000
0000
0000
0103
0000
0000
0000
0000
0M0M
0000
0000
0001
0000
0100
0000
0010
0000
0000
0000
0100
0000
0000
0000
0001
0000
0000
0000
,
0002
0000
0000
0000
0103
0000
0000
0001
0100
0000
0010
0000
1000
0000
0100
0000
,
2000
0000
0000
0000
0000
0000
0000
0000
0001
0000
0000
0000
0000
0000
0000
0000
0100
0000
0000
0000
0100
0000
0000
0000
3100
0000
0000
0000
0000
MM00
0000
0000
,
1100
0000
0000
0000
0110
0000
0000
0000
0011
0000
0000
0000
0000
00MM
0000
0000
0100
0000
0010
0000
0100
0000
0010
0000
1000
0000
0000
0000
0001
0000
0000
0000
,
0100
0010
2000
0010
3010
0100
0001
1000
,
0011
0000
0000
0000
0110
0000
0000
0000
1100
0000
0000
0000
0000
MM00
0000
0000
1000
0000
0100
0000
1000
0000
0100
0000
1000
0000
0000
0000
0002
0000
0000
0000
,
1000
0000
0000
0000
1000
0000
0003
0000
1000
0000
0000
0000
0200
0000
0000
0000
0010
0000
0000
0000
0310
0000
0000
0000
0110
0000
0000
0000
1000
0MM0
0000
0000
,
1100
0000
0000
0000
0010
0000
0000
0000
0011
0000
0000
0000
0000
00MM
0000
0000
1000
0000
0100
0000
1000
0000
0100
0000
1000
0000
0000
0000
0001
0000
0000
0000
,
0100
0001
0010
0001
1000
0100
1000
0100
,
1100
0000
0110
0000
0101
0000
1000
0000
0001
0100
0001
0100
0001
0000
2000
0000
,
0010
3010
0100
0020
0100
0130
0001
0001
,
1000
0000
0110
0000
1010
0000
0010
1000
0000
1000
0010
0000
0100
0010
0100
0001
,
0100
0000
0010
0000
0010
0000
0010
0100
0000
0100
0001
0000
0001
1000
0001
1000
,
0010
0000
0100
0000
0011
0000
0100
0010
0000
0010
0100
0000
0010
0000
0100
0000
,
0010
0100
0001
1000
0010
0000
0100
0000
0001
1000
0010
0100
0001
0000
1000
0000
,
0010
0000
1100
0000
0010
0000
1000
0001
0000
0001
0100
0000
0010
0000
0010
0000
,
1000
0000
1000
0000
0010
0000
0100
0010
0000
0100
0001
0000
1000
0000
0001
0000
,
2000
0001
0001
0000
0001
3001
0001
0200
,
0010
0000
0310
0000
1000
0000
0001
0000
0100
0010
0100
0000
0001
0100
0010
0000
,
2000
0000
0000
0000
0000
0000
0000
0000
0000
0000
0000
0000
0000
0000
0000
0000
0000
0000
0000
0000
0000
0000
0000
0000
0000
0000
0000
0000
0000
0000
0000
0000
0020
0000
0000
0000
0000
0000
0000
0000
0000
0000
0000
0000
0000
0000
0000
0000
0000
0000
0000
0000
3000
0000
0000
0000
0000
0000
0000
0200
0000
0000
0000
0000
,
0000
0000
0000
0000
0000
0000
0000
0000
0000
0000
0000
0000
0000
0000
0000
0000
0030
0000
0000
0000
0000
0000
0000
0002
0000
0000
0000
0000
0000
0000
0000
0000
0000
0000
0000
0000
0000
0000
0000
0000
0000
0000
0000
0000
0000
0000
0000
0000
0000
0000
0000
0000
0000
0000
0000
0000
0000
0000
0000
0000
0000
0000
0000
0000
,
0303
0000
0000
0000
;

//--------------- dance-double - M. Emirzian ----------------
#NOTES:
     dance-double:
     M. Emirzian:
     Easy:
     3:
     0.185,0.252,0.016,0.171,0:
00000000
00000000
00000000
00000000
,
00000000
00000000
00000000
00000000
,
00000000
00000000
00000000
00000000
,
00000000
00000000
00000000
00000000
,
00000000
00000000
00000000
00000000
,
00020000
00000000
00030010
00000000
,
00000200
00000000
00000301
00000000
,
00002000
00000000
00003100
00000000
,
00020000
00000000
00031000
00000000
,
02000000
00000000
03100000
00000000
,
20000000
00000000
31000000
00000000
,
00200000
00000000
00301000
00000000
,
20020000
00000000
00000000
30030000
,
20000000
00000000
31000000
00100000
,
00001000
00000000
00020000
00000000
,
00030100
00000000
00001000
00000010
,
00000100
00000000
00000002
00000000
,
00001003
00000000
00000100
00010000
,
00001000
00000000
02000000
00000000
,
03100000
00000000
10000000
01000000
,
00200000
00000000
00000000
00000000
,
00310000
01000000
00001000
00000000
,
00010000
00000100
00001000
00000000
,
00000010
00000100
00000001
00000000
,
00000010
00000100
00001000
00000000
,
00000010
00010000
00001000
00000000
,
01000000
00100000
10000000
00000000
,
00010000
01000000
00100000
00000000
,
02000000
00000000
00000000
00000000
,
03020000
00000000
00000000
00000000
,
00130000
00000000
00001000
00000000
,
00010000
00000000
00000100
00000000
,
00000010
00000000
00000001
00000000
,
00000100
00000000
00000010
00000000
,
00010000
00000000
00001000
00000000
,
00100000
00000000
00010000
00000000
,
01000000
00000000
00100000
00000000
,
10000000
01000000
00010000
00001000
,
00000100
00000000
00000001
00000010
,
00000100
00000000
00001000
00000000
,
00000010
00000100
00000001
00000000
,
00001000
00000000
00000100
00010000
,
00001000
00000000
00100000
00000000
,
01000000
10000000
00010000
00000000
,
00100000
00000000
01000000
00000000
,
00010000
00001000
00000010
00000001
,
00002000
00000000
00000000
00000000
,
00000000
00000000
00000000
00000000
,
00000000
00000000
00000000
00000000
,
00003000
00000000
00000100
00000000
,
00010000
00000000
00000000
00000000
,
00000000
00000000
00000000
00000000
,
00001000
00000000
00000000
00000000
,
00000000
00000000
00000000
00000000
,
10000000
00000000
00000000
00000000
,
00010000
00000000
01000000
00000000
,
00100000
00000000
10000000
00000000
,
00010000
00000000
00100000
00000000
,
00001000
00000000
00010000
00000000
,
00000010
00000000
00001000
00000000
,
00000100
00000000
00000010
00000000
,
00000001
00000000
00000100
00000001
,
00000010
00001000
00010000
00100000
,
10000000
00000000
02000000
00000000
,
03100000
00001000
00010000
00000000
,
00000010
00000000
00002000
00000000
,
00003100
00000010
00000001
00000000
,
00000100
00000000
00000020
00000000
,
00010030
00001000
00100000
00000000
,
01000000
00000000
10000000
00000000
,
00010000
01000000
00100000
10000000
,
02200000
00000000
00000000
00000000
,
00000000
03300000
00000000
00000000
;

//--------------- dance-double - M. Emirzian ----------------
#NOTES:
     dance-double:
     M. Emirzian:
     Medium:
     5:
     0.274,0.336,0.078,0.031,0:
00000000
00000000
00000000
00000000
,
00000000
00000000
00000000
00000000
,
00000000
00000000
00000000
00000000
,
00000000
00000000
00000000
00000000
,
00000000
00000000
00000000
00000000
,
10000000
00000000
01000000
00000000
,
00010000
00000000
00001000
00010000
,
00000100
00000000
00000010
00000000
,
00000001
00000000
00000100
00000010
,
00001000
00000000
00000100
00000000
,
00010000
00001000
01000000
00000000
,
00100000
00000000
10000000
00010000
,
00020000
00000000
00000000
00000000
,
00130000
00001000
00010000
00000010
,
00001000
00000001
00000100
00001000
,
00010000
00100000
10000000
00010000
,
01000000
00100000
10000000
01000000
,
00010000
00001000
00000010
00000001
,
00001000
00000010
00000100
00000001
,
00000010
00001000
00010000
00100000
,
10000000
01000000
00110000
10010000
,
10000000
01000000
00010000
00001000
,
00000100
00000001
00000010
00000100
,
00001000
00000001
00000100
00001000
,
00010000
01000000
10000000
00100000
,
01000000
00010000
10000000
01000000
,
00010000
00001000
00000100
00000001
,
00001000
00000100
00000010
00000001
,
00000100
00000010
00010000
00001000
,
00200000
00000000
00000000
00000000
,
01300000
11000000
00010000
10000000
,
01000000
00000000
00010000
00000000
00001000
00000000
00000010
00000001
,
00000010
00001001
00000010
00000100
,
00000001
00000000
00000010
00000000
00001000
00000000
00010000
00001000
,
00010000
00101000
00010000
01000000
,
00100000
00000000
10000000
00000000
01000000
00000000
00100000
00001000
,
00100000
00110000
01000000
00010000
,
00001000
00000000
00000010
00000000
00000001
00001000
00000100
00000010
,
00000001
00000100
00000010
00001000
,
00000100
00000010
00000001
00000010
,
00001000
00010000
00100000
10000000
,
00010000
01000000
00100000
10000000
,
00010000
10000000
01000000
00010000
,
00001000
00000100
00000001
00000010
,
00000100
00001000
00000001
00000100
,
00000010
00000100
00000001
00001000
,
00000200
00000000
00000000
00000000
,
00000000
00000000
00000000
00000000
,
00000000
00000000
00000000
00000000
,
00010300
00000000
00001000
00000000
,
00100000
00000000
00000000
00000000
,
01000000
00000000
00000000
00000000
,
10000000
00000000
00000000
00000000
,
00000010
00000000
00000000
00000000
,
01000000
00000000
00000000
00000000
,
00100000
10010000
01000000
00100000
,
00001000
00000000
00010000
00000000
00000100
00000000
00001000
00000001
,
00001000
00000110
00000001
00000010
,
00001000
00000000
00010000
00000000
00100000
00000000
10000000
00100000
,
10000000
10010000
01000000
00100000
,
00010000
00000000
01000000
00000000
00001000
00000000
00010000
00000010
,
00010000
00001010
00000100
00000010
,
00000001
00000100
00001000
00010000
,
01000000
10000000
00010000
01000000
,
00100000
10000000
01000000
00010000
,
00001000
00000100
00000001
00001000
,
00000100
00000010
00000001
00000100
,
00000010
00010000
00001000
01000000
,
00100000
10000000
01000000
00010000
,
00001000
00000010
00000001
00001000
,
00000010
00000100
00000001
00001000
00000100
00000010
00000100
00010000
,
00002000
00000000
00000000
00000000
,
00000000
00003000
00000000
00000000
;

//--------------- dance-double - M. Emirzian ----------------
#NOTES:
     dance-double:
     M. Emirzian:
     Hard:
     8:
     0.473,0.476,0.132,0.07,0.054:
00000000
00000000
00000000
00000000
,
00000000
00000000
00000000
00000000
,
00000000
00000000
00000000
00000000
,
00000000
00000000
00000000
00000000
,
00000000
00000000
00000000
00000000
,
10000000
00000000
00010000
00000000
01000000
00100000
10000000
00000000
,
01000000
00000000
10000000
01000000
00010000
00001000
00000010
00000000
,
00000001
00000000
00001000
00000000
00000010
00000100
00000001
00000000
,
00000010
00000000
00000001
00000010
00001000
00010000
01000000
00000000
,
10000000
00000000
00010000
00000000
00100000
01000000
10000000
00000000
,
01000000
00000000
10000000
01000000
00010000
00001000
00000100
00000000
,
00000001
00000000
00001000
00000000
00000010
00000100
00000001
00000010
,
00000200
00000000
00000000
00000000
,
00001300
00000100
00000001
00000100
00001000
00000010
00000100
00000001
,
00000010
00000100
00000010
00000001
00001000
00000010
00000100
00000001
,
00000100
00000010
00010000
00001000
00100000
01000000
00100000
00001000
,
00010000
00100000
10000000
00010000
00100000
01000000
10000000
00100000
,
01000000
00100000
00010000
00001000
00000010
00000100
00000010
00000001
,
00000010
00000100
00001000
00000001
00000100
00001000
00000100
00000001
,
00001000
00000100
00010000
00001000
00100000
01000000
00100000
00010000
,
10000000
01000000
00100000
01000000
10000000
00010000
01000000
00100000
,
10000000
00000000
00000000
10000000
01000000
00000000
00000000
01000000
00010000
00000000
00000000
00010000
00001000
00000000
00000000
00001000
,
00000100
00000000
00000000
00000100
00000001
00000000
00000000
00000001
00000010
00000000
00000000
00000010
00000100
00000000
00001000
00000000
,
00000001
00000000
00000100
00000000
00000010
00001000
00000100
00000000
,
00000001
00000100
00001000
00000000
00000010
00001000
00000100
00000010
,
00000001
00000000
00000000
00000001
00000010
00000000
00000000
00000010
00001000
00000000
00000000
00001000
00010000
00000000
00000000
00010000
,
00100000
00000000
00000000
00100000
10000000
00000000
00000000
10000000
01000000
00000000
00000000
01000000
00100000
00000000
00010000
00000000
,
10000000
00000000
00010000
00000000
01000000
00100000
10000000
00000000
,
01000000
00100000
00010000
00000000
01000000
00001000
00010000
00000100
,
00000020
00000000
00000000
00000000
00000000
00000100
00000030
00000000
,
00000011
00000000
00001100
00000000
00000010
00000100
00000001
00000000
,
00001000
00000010
00000100
00000000
00000010
00001000
00000100
00000000
,
00011000
00000000
00101000
00000000
00010000
01000000
00100000
00000000
,
10000000
00010000
01000000
00000000
00100000
10000000
01000000
00000000
,
00110000
00000000
11000000
00000000
10000000
00100000
01000000
00000000
,
00001000
00010000
00000010
00000000
00001000
00000100
00000010
00000000
,
00001100
00000000
00000011
00000000
00000001
00000100
00000010
00001000
,
00000001
00000100
00001000
00000100
00000001
00000010
00001000
00010000
,
00100000
10000000
01000000
10000000
00010000
01000000
00100000
01000000
,
00010000
10000000
00100000
00010000
00100000
10000000
01000000
00100000
,
01000000
10000000
01000000
00010000
00001000
00010000
00000100
00000010
,
00000100
00001000
00000010
00000100
00000010
00000001
00000010
00001000
,
00000100
00010000
00001000
00000100
00000001
00000010
00000100
00010000
,
00001000
01000000
00100000
01000000
00010000
10000000
01000000
00100000
,
00001000
00010000
00100000
10000000
01000000
10000000
00100000
01000000
,
00010000
00100000
00001000
00010000
00001000
00000100
00000001
00000010
,
00000002
00000000
00000000
00000000
,
00001003
00000000
00000100
00000000
,
00010000
00000000
00001000
00000000
,
01000000
00000000
00010000
00000000
,
00200000
00300000
02000000
03000000
,
20000000
30000000
00020000
00030000
,
00100000
00000000
00001000
00000000
,
00000100
00000000
00001000
00000000
,
00010000
00000000
00000000
00000000
,
10100000
00000000
01010000
00000000
00100000
01000000
10000000
00000000
,
00100000
01000000
00010000
00000000
00100000
00010000
01000000
00000000
,
00011000
00000000
00010100
00000000
00001000
00000010
00000100
00000000
,
00000001
00000010
00000100
00000000
00000010
00000001
00000100
00000000
,
00001010
00000000
00000101
00000000
00001000
00000100
00010000
00000000
,
00001000
01000000
00010000
00000000
01000000
00100000
10000000
00000000
,
01010000
00000000
10100000
00000000
10000000
01000000
00010000
01000000
,
10000000
00010000
01000000
00100000
00010000
00001000
00000010
00000001
,
00000010
00000100
00001000
00000010
00000100
00000001
00001000
00000100
,
00000010
00000100
00010000
00000010
00000100
00000001
00001000
00000001
,
00000100
00001000
00010000
00001000
01000000
00100000
00010000
00100000
,
10000000
01000000
00010000
01000000
10000000
01000000
00100000
00001000
,
00010000
01000000
10000000
00100000
00010000
00001000
00000010
00000001
,
00000010
00000100
00000010
00000001
00000100
00001000
00010000
00000010
,
00010000
00001000
00010000
01000000
10000000
00100000
10000000
01000000
,
00010000
00001000
00000100
00000001
00000010
00000001
00000100
00000010
,
00002002
00000000
00000000
00000000
,
00000000
00003003
00000000
00000000
;

//--------------- dance-double - M. Emirzian ----------------
#NOTES:
     dance-double:
     M. Emirzian:
     Challenge:
     9:
     0.565,0.588,0.202,0.101,0.31:
00000000
00000000
00000000
00000000
,
00000000
00000000
00000000
00000000
,
00000000
00000000
00000000
00000000
,
00000000
00000000
00000000
00000000
,
00000000
00000000
00000000
00000000
,
10000000
00000000
01000000
00000000
00100000
00000000
00000000
01000000
00000000
00000000
10000000
00000000
01000000
00000000
00010000
00000000
,
01000000
00000000
00100000
00000000
00001000
00000000
00000000
00010000
00000000
00000000
00000010
00000000
00001000
00000000
00000100
00000000
,
00010000
00000000
00001000
00000000
00000100
00000000
00000000
00000001
00000000
00000000
00000010
00000000
00000100
00000000
00001000
00000000
,
00000100
00000000
00000010
00000000
00000100
00000000
00000000
00010000
00000000
00000000
00001000
00000000
00000100
00000000
00001000
00000000
,
00010000
00000000
01000000
00000000
10000000
00000000
00000000
00100000
00000000
00000000
01000000
00000000
00010000
00000000
00100000
00000000
,
01000000
00000000
00100000
00000000
00001000
00000000
00000000
00010000
00000000
00000000
00100000
00000000
10000000
00000000
00100000
00000000
,
01000000
00000000
00010000
00000000
00100000
00000000
00000000
01000000
00000000
00000000
10000000
00000000
00100000
00000000
01000000
00000000
,
00020000
00000000
00000000
00000000
,
01030000
00000000
00100000
00000000
10000000
00000000
01000000
00010000
00000000
01000000
10000000
00000000
00010000
00000000
01000000
00000000
,
00100000
00000000
00010000
00000000
00001000
00000000
01000000
00001000
00000000
00010000
00000010
00000000
00010000
00000000
00001000
00000000
,
00100000
00000000
01000000
00000000
00010000
00000000
00001000
00010000
00000000
00000010
00001000
00000000
00000001
00000000
00001000
00000000
,
00000100
00000000
00000001
00000000
00000100
00000000
00001000
00000010
00000000
00000100
00000001
00000000
00000100
00000000
00000010
00000000
,
00001000
00000000
00000100
00000000
00000010
00000000
00001000
00010000
00000000
00000100
00010000
00000000
00100000
00000000
10000000
00000000
,
01000000
00000000
00100000
00000000
00010000
00000000
01000000
00100000
00000000
00010000
00001000
00000000
01000000
00000000
00100000
00000000
,
10000000
00000000
01000000
00000000
00010000
00000000
01000000
10000000
00000000
00100000
01000000
00000000
00001000
00000000
00010000
00000000
,
00000010
00000000
00001000
00000000
00000100
00000000
00000010
00000001
00000000
00000100
00000010
00000100
00000010
00000000
00001000
00000000
,
00000001
00000000
00000000
00000001
00000010
00000000
00000000
00000010
00001000
00000000
00000000
00001000
00100000
00000000
00000000
00100000
,
01000000
00000000
00000000
01000000
10000000
00000000
00000000
10000000
00100000
00000000
00000000
00100000
01000000
00000000
10010000
00000000
,
00110000
00100000
01000000
00010000
00001000
00000010
00001000
00010000
,
00000100
00001000
00000010
00001000
00000001
00000100
00001000
00010000
,
00100000
00000000
00000000
00100000
10000000
00000000
00000000
10000000
01000000
00000000
00000000
01000000
00010000
00000000
00000000
00010000
,
00000100
00000000
00000000
00000100
00000010
00000000
00000000
00000010
00000001
00000000
00000000
00000001
00000100
00000000
00001001
00000000
,
00001100
00000010
00000100
00001000
00010000
01000000
00010000
00001000
,
00100000
01000000
10000000
01000000
00100000
00010000
01000000
01001000
,
00022000
00000000
00000000
00033000
,
00001100
00000000
00000000
0000MM00
00110000
00000000
00000000
00000000
01000000
00000000
10000000
00000000
00010000
00000000
10000000
00000000
,
01000000
00100000
01000000
00010000
00001000
01000000
00100000
10000000
,
01010000
00000000
00000000
0M0M0000
00001010
00000000
00000000
00000000
00000100
00000000
00000010
00000000
00000001
00000000
00000100
00000000
,
00000010
00000100
00000001
00000100
00001000
00010000
00000010
00001000
,
00001100
00000000
00000000
0000MM00
00110000
00000000
00000000
00000000
10000000
00000000
01000000
00000000
00010000
00000000
01000000
00000000
,
10000000
00100000
01000000
00100000
00010000
00001000
00100000
01000000
,
00110000
00000000
00000000
00MM0000
00001100
00000000
00000000
00000000
00000010
00000000
00000001
00000000
00001000
00000000
00000010
00000000
,
00000100
00000010
00001000
00000100
00000010
00000001
00000100
00001000
,
00010000
00000000
00001000
00000000
01000000
00000000
00010000
00100000
00000000
01000000
10000000
00000000
01000000
00000000
00010000
00000000
,
01000000
00000000
00100000
00000000
00001000
00000000
00010000
00000010
00000000
00010000
00001000
00000000
01000000
00000000
00010000
00000000
,
00100000
00000000
01000000
00000000
00010000
00000000
00001000
00010000
00000000
00000100
00001000
00000000
00000010
00000000
00000001
00000000
,
00000010
00000000
00001000
00000000
00000100
00000000
00000010
00000100
00000000
00001000
00000100
00000000
00000010
00000000
00000001
00000000
,
00000100
00000000
00000010
00000000
00010000
00000000
00001000
01000000
00000000
00010000
00100000
00000000
01000000
00000000
10000000
00000000
,
00100000
00000000
01000000
00000000
00100000
00000000
10000000
01000000
00000000
00100000
00001000
00000000
00010000
00000000
01000000
00000000
,
00010000
00000000
00001000
00000000
00000010
00000000
00000001
00000100
00000000
00000010
00000100
00000000
00000001
00000000
00001000
00000000
,
00000100
00000000
00000010
00000000
00000100
00000000
00010000
00001000
00000000
00000100
00000010
00000100
00000010
00000000
00001000
00000000
,
00001001
00000000
00000100
0000MM00
,
00100000
00MM0000
00000100
0000MM00
,
00100000
00MM0000
00000100
0000MM00
,
00100000
00010000
00001000
00010000
,
20020000
30030000
02000000
00020000
,
00001000
03030000
00000000
00000000
00000000
00000000
00000010
00000000
00000000
00000001
00000000
00000000
,
00002002
00003003
00000020
00002000
,
00010000
00003030
00000000
00000000
00000000
00000000
00100000
00000000
00000000
00000000
00000000
00000000
,
10000000
00000000
00000000
00000000
00000000
00000000
01000000
00100000
,
01100000
00000000
00000000
0MM00000
00001100
00000000
00000000
00000000
00000010
00000000
00001000
00000000
00000100
00000000
00000010
00000000
,
00000100
00001000
00000001
00000100
00001000
00010000
00000010
00000100
,
00000110
00000000
00000000
00000MM0
00110000
00000000
00000000
00000000
01000000
00000000
10000000
00000000
00010000
00000000
10000000
00000000
,
00100000
01000000
00100000
10000000
01000000
00010000
01000000
00100000
,
01100000
00000000
00000000
0MM00000
00001100
00000000
00000000
00000000
00000010
00000000
00001000
00000000
00000100
00000000
00000001
00000000
,
00000100
00001000
00000010
00010000
00001000
00000100
00000010
00001000
,
00001100
00000000
00000000
0000MM00
01100000
00000000
00000000
00000000
01000000
00000000
10000000
00000000
00100000
00000000
01000000
00000000
,
00100000
00010000
10000000
01000000
00010000
00100000
01000000
00100000
,
00001000
00000000
00010000
00000000
00000100
00000000
00000010
00000001
00000000
00000100
00000010
00000000
00001000
00000000
00000100
00000000
,
00000010
00000000
00001000
00000000
00010000
00000000
00000100
00001000
00000000
00000010
00000100
00000000
00000001
00000000
00000100
00000000
,
00001000
00000000
00010000
00000000
01000000
00000000
10000000
00010000
00000000
01000000
00100000
00000000
10000000
00000000
01000000
00000000
,
00100000
00000000
00001000
00000000
00010000
00000000
00100000
10000000
00000000
01000000
00100000
00000000
00001000
00000000
01000000
00000000
,
00100000
00000000
00010000
00000000
00001000
00000000
00010000
00000100
00000000
00001000
00000010
00000000
00000100
00000000
00000010
00000000
,
00001000
00000000
00000100
00000000
00000010
00000000
00000001
00000100
00000000
00000010
00000100
00000000
00000001
00000000
00000010
00000000
,
00000100
00000000
00001000
00000000
00000001
00000000
00000100
00001000
00000000
00010000
00100000
00000000
10000000
00000000
01000000
00000000
,
00100000
00000000
00001000
00000000
00000010
00000000
00000001
00000100
00000000
00001000
00010000
00001000
00010000
00000000
00000010
00000000
,
00022000
00000000
00000000
00000000
,
00000000
00033000
00000000
00000000
;

//--------------- lights-cabinet - ----------------
#NOTES:
     lights-cabinet:
     :
     Easy:
     1:
     0.533,0.527,0.504,0.132,0.097:
000000
000000
000000
000000
,
000000
000000
000000
000000
,
000000
000000
000000
000000
,
000000
000000
000000
000000
,
000000
000000
000000
000000
,
100100
000000
000000
000000
011000
000000
000000
100000
000000
000000
001000
000000
010000
000000
000100
000000
,
001000
000000
000000
000000
000100
000000
000000
010000
000000
000000
001000
000000
100000
000000
010000
000000
,
100000
000000
000000
000000
001000
000000
000000
010000
000000
000000
001000
000000
010000
000000
000100
000000
,
001000
000100
100000
000000
000100
001000
000100
000000
,
001100
000000
000000
000000
011000
000000
000000
100000
000000
000000
001000
000000
100000
000000
000100
000000
,
010000
000000
000000
000000
001000
000000
000000
010000
000000
000000
000100
000000
001000
000000
000100
000000
,
010000
000000
000000
000000
001000
000000
000000
100000
000000
000000
001000
000000
010000
000000
000100
000000
,
100100
000000
000000
000000
,
100000
001000
100000
010000
100000
001000
100000
000100
,
010000
001000
100000
000100
010000
000100
001000
000100
,
010000
000100
100000
001000
100000
010000
001000
010000
,
100000
010000
001100
000000
100100
000000
011000
000000
,
010000
001000
100000
010000
100000
000100
010000
000100
,
001000
000100
010000
001000
100000
010000
100000
001000
,
010000
000100
001000
000100
010000
001000
100000
010000
,
100000
010000
100100
000000
011000
000000
111100
000000
,
100000
000000
001000
000000
010000
000000
000000
000100
001000
000000
000100
000000
010000
000000
000000
000100
,
010000
000000
001000
000000
010000
000000
000000
001000
100000
000000
001000
000000
100000
000000
000100
000000
,
100000
000000
001000
000000
010000
000000
000000
001000
100000
000000
001000
000000
010000
000000
000000
000100
,
001000
000100
010000
000100
002000
000000
003100
000000
,
100000
000000
000100
000000
001000
000000
000000
000100
001000
000000
000100
000000
010000
000000
001000
000000
,
100000
000000
001000
000000
100000
000000
000000
010000
100000
000000
001000
000000
010000
000000
000100
000000
,
001000
000000
000100
000000
001000
000000
000000
000100
010000
000000
001000
000000
100000
000000
001000
000000
,
100000
010000
001000
000100
010000
001000
100000
000100
,
200200
000000
000000
300300
000000
000000
111100
000000
,
110000
000000
001100
000000
010000
000100
001000
000100
,
000000
000100
010000
001000
000000
001000
100000
000000
,
100100
000000
011000
000000
100000
001000
010000
000200
,
000000
001300
000100
020000
000000
031000
010000
000000
,
011000
000000
100100
000000
000100
010000
001000
100000
,
000000
100000
010000
001000
000000
001000
000100
000000
,
001100
000000
011000
000000
001000
010000
100000
002000
,
000000
013000
000100
002000
000000
003100
010000
001000
,
011000
000000
000000
000000
110000
000000
000000
001000
010000
000000
001000
000000
100000
000000
001000
000000
,
010000
000000
000000
000000
000100
000000
000000
001000
000100
000000
010000
000000
001000
000000
100000
000000
,
110000
000000
000000
000000
011000
000000
000000
001000
010000
000000
001000
000000
010000
000000
000100
000000
,
001000
000100
010000
000000
001000
100000
010000
000000
,
110000
000000
000000
000000
011000
000000
000000
010000
001000
000000
010000
000000
000100
000000
001000
000000
,
000100
000000
000000
000000
010000
000000
000000
001000
010000
000000
001000
000000
100000
000000
000100
000000
,
110000
000000
000000
000000
011000
000000
000000
001000
100000
000000
001000
000000
100000
000000
010000
000000
,
100100
011000
100100
011000
,
000100
000100
000100
000100
,
100000
100000
100000
100000
,
001000
001000
001000
001000
,
010000
010000
010000
010000
,
100100
011000
000000
011000
,
100100
011000
000000
010000
,
001100
110000
000000
011000
,
100100
011000
011000
100100
,
111100
000000
000000
000000
,
110000
000000
001100
000000
010000
000100
010000
001000
,
000000
001000
010000
000100
000000
000100
001000
000000
,
001100
000000
011000
000000
100000
001000
010000
000200
,
000000
010300
001000
200000
000000
310000
100000
000000
,
110000
000000
100100
000000
100000
010000
100000
001000
,
000000
001000
010000
000100
000000
000100
001000
000000
,
100100
000000
011000
000000
001000
010000
001000
200000
,
000000
300100
010000
000200
000000
001300
000100
001000
,
001100
000000
000000
000000
011000
000000
000000
001000
010000
000000
001000
000000
100000
000000
010000
000000
,
100000
000000
000000
000000
100000
000000
000000
001000
100000
000000
001000
000000
010000
000000
000100
000000
,
001100
000000
000000
000000
110000
000000
000000
010000
001000
000000
010000
000000
100000
000000
000100
000000
,
001000
000100
100000
000000
100000
001000
100000
000100
,
100100
000000
000000
000000
011000
000000
000000
010000
000100
000000
010000
000000
001000
000000
010000
000000
,
000100
000000
000000
000000
000100
000000
000000
010000
001000
000000
100000
000000
000100
000000
100000
000000
,
011000
000000
011000
000000
011000
000100
010000
000200
,
000000
010300
001000
200000
000000
300100
101000
000000
,
222200
000000
333300
000000
;
