#TITLE:Torn;
#SUBTITLE:;
#ARTIST:Natalie Browne;
#TITLETRANSLIT:;
#SUBTITLETRANSLIT:;
#ARTISTTRANSLIT:;
#GENRE:;
#CREDIT:;
#MUSIC:Torn.ogg;
#BANNER:torn-bn.png;
#BACKGROUND:Torn-bg.png;
#CDTITLE:;
#SAMPLESTART:51.395;
#SAMPLELENGTH:13.040;
#SELECTABLE:YES;
#OFFSET:0.000;
#BPMS:0.000=128.019;
#STOPS:;
#BGCHANGES:;
#FGCHANGES:;

//--------------- dance-single - M. Puls ----------------
#NOTES:
     dance-single:
     M. Puls:
     Beginner:
     1:
     0.063626,0.104704,0.015627,0,0,57,55,2,0,0,0,0.063626,0.104704,0.015627,0,0,57,55,2,0,0,0:
0000
0000
0000
0000
,
0000
0000
0000
0000
,
0000
0000
0000
0000
,
0000
0000
0000
0000
,
0100
0000
0000
0000
,
0000
0000
0000
0000
,
0010
0000
0000
0000
,
0000
0000
0000
0000
,
0100
0000
0000
0000
,
0010
0000
0000
0000
,
0100
0000
0000
0000
,
0001
0000
0000
0000
,
1000
0000
0000
0000
,
1000
0000
0000
0000
,
1000
0000
0000
0000
,
0001
0000
0000
0000
,
0001
0000
0000
0000
,
0001
0000
0000
0000
,
1000
0000
0000
0000
,
0000
0000
0000
0000
,
0001
0000
0000
0000
,
0000
0000
0000
0000
,
1000
0000
0000
0000
,
0001
0000
0000
0000
,
1000
0000
0000
0000
,
0100
0000
0000
0000
,
0010
0000
0000
0000
,
0001
0000
0000
0000
,
1000
0000
0000
0000
,
0010
0000
0000
0000
,
0100
0000
0000
0000
,
0001
0000
0000
0000
,
0001
0000
0000
0000
,
0010
0000
0000
0000
,
0100
0000
0000
0000
,
1000
0000
0000
0000
,
0001
0000
0000
0000
,
0100
0000
0000
0000
,
0010
0000
0000
0000
,
1000
0000
0000
0000
,
0001
0000
0000
0000
,
0000
0000
0000
0000
,
1000
0000
0000
0000
,
0001
0000
0000
0000
,
1000
0000
0000
0000
,
0010
0000
0000
0000
,
0100
0000
0000
0000
,
0010
0000
0000
0000
,
1000
0000
0000
0000
,
0000
0000
0000
0000
,
0001
0000
0000
0000
,
1000
0000
0000
0000
,
0001
0000
0000
0000
,
0100
0000
0000
0000
,
0100
0000
0000
0000
,
1001
0000
0000
0000
,
0000
0000
0000
0000
,
0001
0000
0000
0000
,
0000
0000
0000
0000
,
1000
0000
0000
0000
,
0001
0000
0000
0000
,
0010
0000
0000
0000
,
0001
0000
0000
0000
,
1000
0000
0000
0000
,
0100
0000
0000
0000
,
1000
0000
0000
0000
,
0000
0000
0000
0000
,
1001
0000
0000
0000
;

//--------------- dance-single - R. McKanna ----------------
#NOTES:
     dance-single:
     R. McKanna:
     Easy:
     4:
     0.209854,0.235584,0.148461,0.039069,0,188,169,19,5,0,0,0.209854,0.235584,0.148461,0.039069,0,188,169,19,5,0,0:
0000
0000
0000
0000
,
0000
0000
0000
0000
,
0000
0000
0000
0000
,
0000
0000
0000
0000
,
0000
0100
0000
0010
,
0000
0100
0000
0010
,
0000
1000
0000
0001
,
1000
0100
0010
0001
,
1001
0000
0100
1000
,
0010
0000
0100
0001
,
0010
0000
1000
0001
,
1000
0000
0100
0000
,
1001
0000
0001
0000
,
0010
0000
0010
0000
,
1001
0000
0001
0000
,
0100
0000
0100
0000
,
0010
0100
0010
0100
,
0001
0000
0001
0000
,
1001
0000
1000
0000
,
0100
0000
0100
0000
,
1001
0000
1000
0000
,
0010
0000
0010
0000
,
0100
0010
0100
0010
,
1000
0000
1000
0000
,
0101
0010
0000
0000
,
1010
0100
0000
0000
,
1001
0110
0000
0000
,
0110
1001
0000
0000
,
0001
0000
0001
0010
,
0100
0000
0100
1000
,
0010
0000
0010
0100
,
0001
0010
0001
0100
,
0010
1000
0000
1000
,
0100
0010
0000
0010
,
0001
0100
0000
0100
,
0010
1000
0100
1000
,
0010
0000
0001
0010
,
0001
0000
1000
0100
,
1000
0000
1000
0100
,
1000
0000
0001
0010
,
0002
0000
0000
0000
,
0003
0000
0000
0100
,
0200
0000
0000
0300
,
0020
0000
0000
0030
,
1001
0000
0010
0000
,
1010
0000
0100
0010
,
0101
0000
0100
0000
,
1001
0000
0010
0100
,
0001
0001
0001
0001
,
0010
0010
0010
0010
,
0100
0100
0100
0100
,
1000
1000
1000
1000
,
0002
0000
0103
0010
,
2000
0000
3100
0010
,
0001
0000
0100
0000
,
1001
1000
0000
0001
,
0000
1000
0000
0001
,
0010
0001
0100
0010
,
0000
0010
0000
1000
,
1001
0001
0000
1000
,
0000
0001
0000
1000
,
0100
1000
0010
0100
,
0000
0100
0000
0001
,
1001
0100
0000
0100
,
0001
0100
0000
0100
,
1000
0100
0000
0100
,
0001
0010
0100
1000
,
1001
0000
0000
0000
;

//--------------- dance-single - R. McKanna ----------------
#NOTES:
     dance-single:
     R. McKanna:
     Medium:
     7:
     0.320363,0.392639,0.179716,0.12502,0,287,264,23,16,0,0,0.320363,0.392639,0.179716,0.12502,0,287,264,23,16,0,0:
0000
0000
0000
0000
,
0000
0000
0000
0000
,
0000
0000
0000
0000
,
0000
0000
0000
0000
,
0010
1000
0100
1000
,
0010
0100
0001
0010
,
0001
0100
0010
1000
,
1100
0100
0110
0010
,
0011
0000
0000
0000
0001
0010
0001
0100
,
0001
0000
1000
0000
0100
1000
0010
1000
,
0100
0010
0001
0100
,
1010
0100
0101
0100
,
0010
1000
0000
1000
,
0001
0010
0001
0000
1000
0100
1000
0000
,
0100
0010
0000
0010
,
0001
0010
0100
0000
1000
0100
0010
0000
,
0001
0100
0000
0100
,
0010
1000
0010
0000
1000
0010
1000
0000
,
1001
0001
0000
0001
,
1000
0100
1000
0000
0001
0010
0001
0000
,
0010
0100
0000
0100
,
1000
0100
0010
0000
0001
0010
0100
0000
,
1000
0010
0000
0010
,
0100
0001
0100
0000
0001
0100
0001
0000
,
1000
1100
0001
0101
,
1000
0010
1000
0100
0010
0001
0100
0000
,
1000
1100
0001
0101
,
0001
0010
0001
0100
0001
0010
0100
0000
,
2000
0000
0000
0000
0001
0001
3001
0000
,
0002
0000
0000
0000
0100
0100
0103
0000
,
0200
0000
0010
0301
,
0002
0010
0010
0013
,
0020
0000
0000
0000
0001
0001
0031
0000
,
0002
0000
0000
0000
0010
0010
0013
0000
,
0020
0000
0100
0130
,
1100
1100
0110
1100
,
0002
0000
0000
0000
0100
0003
0100
0000
,
0020
0000
1030
1000
,
0200
0000
1300
0010
,
2000
0000
3010
0010
,
2000
0001
0000
0001
,
0000
3001
0000
0001
,
0020
0100
0000
0130
,
2000
0001
0000
3001
,
1001
0000
0010
0100
,
1010
0000
0000
0110
,
0101
0000
0001
0010
,
1010
0000
0000
0100
,
0001
0001
0010
0010
,
0100
0100
1000
1000
,
0001
0100
0001
0000
1000
0010
1000
0000
,
0001
0100
0001
0000
1000
0010
1000
0000
,
0002
0010
0100
0013
,
1000
0010
0100
0000
0001
0000
0001
0000
,
2000
0010
0100
3010
,
0001
0010
0100
0010
,
1010
0010
0100
0010
,
0100
0010
0100
0001
0010
0000
0100
0000
,
0010
0000
1000
0000
0010
0000
0100
0001
,
0010
0100
0010
0100
,
0101
0000
0100
0000
0010
0000
0100
0010
,
1000
0010
0100
0010
,
0100
0001
0100
0010
,
1001
0100
0001
0100
,
1000
0000
0100
0000
0001
0010
0001
0010
,
0001
0000
0100
0000
1000
0100
1000
0100
,
1000
0100
0010
0100
,
1001
0000
0000
0000
;

//--------------- dance-single - R. McKanna ----------------
#NOTES:
     dance-single:
     R. McKanna:
     Hard:
     9:
     0.405197,0.444991,0.12502,0.109392,0.167995,363,347,16,14,10,0,0.405197,0.444991,0.12502,0.109392,0.167995,363,347,16,14,10,0:
0000
0000
0000
0000
,
0000
0000
0000
0000
,
0000
0000
0000
0000
,
0000
0000
0000
0000
,
0001
0100
0001
0100
,
1000
0100
1000
0100
,
0010
0100
1000
0100
,
0001
0100
0010
1000
0100
0010
0001
1000
,
0100
0000
1001
0000
0010
0100
1000
0000
,
0100
0000
0010
0000
1000
0010
0100
0001
,
1000
0000
1001
0000
1000
0100
0010
0001
,
1000
0001
0100
0010
,
1001
0100
0000
0100
,
0001
0010
0100
0000
0001
0010
0100
0000
,
0101
0010
0000
0010
,
1000
0100
0010
0000
1000
0100
0010
0100
,
1000
0001
0000
0001
,
1000
0001
0100
0001
1000
0010
1000
0000
,
1001
0010
0000
0010
,
1000
0010
0100
0000
1000
0010
0100
0000
,
1010
0100
0000
0100
,
0001
0100
0010
0000
0001
0100
0010
0100
,
0001
0010
0100
0000
0000
0000
1000
0000
,
0001
1000
0010
1000
0001
0100
0001
0000
,
2000
3100
0002
0103
,
1000
0010
1000
0000
0001
0010
0001
0000
,
1000
0010
0100
0001
,
1001
0100
0010
0001
,
1000
0000
0100
1000
0000
0000
0000
0000
0010
0000
1000
0000
0100
0000
0000
0000
,
0010
0000
0001
0010
0000
0000
0000
0000
0100
0000
1000
0000
0010
0000
0000
0000
,
0100
0000
0001
0100
0000
0000
0000
0000
0010
0000
1000
0000
0100
0000
0000
0000
,
0010
0000
0001
0010
0000
0000
0000
0000
0100
0000
1000
0000
0010
0000
0100
0000
,
0001
0000
0010
0001
0000
0000
0000
0000
0100
0000
0001
0000
0010
0000
0000
0000
,
0100
0000
1000
0100
0000
0000
0000
0000
0010
0000
0001
0000
0100
0000
0000
0000
,
0010
0000
1000
0010
0000
0000
0000
0000
0100
0000
0001
0000
0010
0000
0000
0000
,
0100
0000
1000
0100
0000
0000
0000
0000
0001
0000
0100
0000
0010
0000
1000
0000
,
0001
0000
0010
0100
0000
0000
1000
0000
0010
0000
1000
0000
0001
0000
1000
0000
,
0100
0000
0010
0001
0000
0000
0100
0000
0010
0000
0100
0000
0001
0000
1000
0000
,
0010
0000
0100
0001
0000
0000
0010
0000
0100
0000
1000
0000
0010
0000
0100
0000
,
0001
0000
1000
0100
0000
0000
0010
0000
0001
0000
0100
0000
0010
0000
1000
0000
,
0002
0100
1000
0100
,
1003
0100
0001
0010
,
2000
0100
0001
0100
,
3020
0100
1000
0130
,
MM11
0001
0010
0100
,
11MM
0010
0100
1MM1
,
M11M
0000
0000
0000
0000
0000
0001
0000
1000
0000
0010
0100
0010
0000
0000
0000
,
1MM1
0010
0100
0010
,
0100
0101
0100
0110
,
0100
1100
0100
0110
,
0001
0010
0100
0010
0001
0010
0100
0000
,
1000
0100
0100
0000
0001
0010
0010
0000
,
0002
0000
0013
0200
0000
0320
0000
0030
,
0001
1000
1000
0020
0000
0230
0000
0300
,
0001
0000
1000
0000
0000
0100
0000
0000
0010
0000
0000
0001
0000
0000
0100
0000
,
0001
0000
0000
0001
1000
0000
0000
1000
0100
0000
0000
0100
0010
0000
0000
0010
,
0001
0000
0000
0001
1000
0000
0000
1000
0010
0000
0000
0010
0200
0000
0000
0000
,
0302
1000
0100
0100
,
1000
0100
1000
1003
,
1000
0000
0000
1000
0001
0000
0000
0001
0010
0000
0000
0010
0100
0000
0000
0100
,
1000
0000
0000
1000
0001
0000
0000
0001
0100
0000
0000
0100
0020
0000
0000
0000
,
2030
0001
0010
0010
,
0001
0010
0001
3001
,
0001
0000
0000
0001
1000
0000
0000
1000
0100
0000
0000
0100
1000
0000
0000
1000
,
0001
0000
0000
0001
0010
0000
0000
0010
0001
0000
0000
0001
1000
0000
0000
1000
,
0010
0000
0000
0010
1000
0000
0000
1000
0001
0000
0000
0001
0100
0000
0000
0100
,
0001
0000
0010
0000
0000
0100
0000
0000
1000
0000
0000
0010
0000
0000
0100
0000
,
0001
0000
0000
0000
;

//--------------- dance-double - M. Emirzian ----------------
#NOTES:
     dance-double:
     M. Emirzian:
     Easy:
     3:
     0.171902,0.209408,0.007814,0.054696,0,154,153,1,7,0,0,0.171902,0.209408,0.007814,0.054696,0,154,153,1,7,0,0:
00000000
00000000
00000000
00000000
,
00000000
00000000
00000000
00000000
,
00000000
00000000
00000000
00000000
,
00000000
00000000
00000000
00000000
,
00020000
00030000
00020000
00030000
,
20000000
30000000
20000000
30000000
,
00100000
00000000
01000000
00000000
,
00001000
00000000
00010000
00000000
,
00001000
00000010
00000001
00000000
,
00000001
00000100
00000010
00000000
,
00010000
00001000
01000000
00000000
,
00100000
10000000
01000000
00000000
,
01000000
00000000
01000000
00000000
,
00100000
00000000
00100000
00000000
,
00001000
00000000
00001000
00000000
,
00010000
00000000
00010000
00000000
,
00000100
00000000
00000100
00000000
,
00000010
00000000
00000001
00000000
,
00001001
00000000
00000100
00000000
,
00000100
00000000
00000010
00000000
,
00000010
00000000
00010000
00000000
,
00010000
00000000
00001000
00000000
,
00001000
00000000
01000000
00000000
,
01000000
00000000
00100000
00000000
,
00100000
00000000
00100000
00000000
,
00100000
00100000
00100000
00100000
,
10000000
00000000
10000000
10000000
,
10000000
00000000
10000000
10000000
,
01000000
00000000
00010000
00001000
,
01000000
00000000
00001000
00010000
,
00000010
00000000
00001000
00000100
,
00000010
00000000
00000001
00000100
,
00000010
00000000
00010000
00001000
,
01000000
00000000
00010000
00100000
,
01000000
00000000
10000000
00010000
,
01000000
00000000
00100000
10000000
,
01000000
00000000
00100000
00001000
,
00010000
00000000
00000100
00000010
,
00000001
00000000
00000100
00000010
,
00010000
00000000
00000000
00000000
,
00002000
00000000
00000000
00000000
,
00003000
00000000
00000000
00000000
,
00200000
00000000
00000000
00000000
,
20300000
00000000
00000000
00000000
,
31000000
00010000
00001000
00010000
,
00000100
00000000
00010000
00001000
,
01000000
00000000
00100000
10000000
,
01000000
00000000
00010000
00001000
,
00000100
00000000
00000000
00000000
,
00000000
00000000
00000000
00000000
,
00000001
00000000
00000000
00000000
,
00000000
00000000
00000000
00000000
,
01000000
00000000
01000000
00000000
,
01000000
00000000
00010000
00001000
,
00000010
00000001
00000000
00000001
,
00000000
00000100
00000001
00000100
,
00000000
00001000
00010000
00001000
,
00000000
01000000
00010000
01000000
,
00000000
00100000
10000000
00100000
,
00000000
01000000
00001000
01000000
,
00000000
00010000
00001000
00010000
,
00000000
00000010
00001000
00000010
,
00000000
00000100
00000001
00000100
,
00000000
00000010
00010000
00000010
,
00000000
00010000
00001000
00010000
,
00000000
00100000
10000000
00100000
,
00000000
01000000
01000000
01000000
,
00010000
00000000
00000000
00000000
;

//--------------- dance-double - M. Emirzian ----------------
#NOTES:
     dance-double:
     M. Emirzian:
     Medium:
     6:
     0.320363,0.392639,0.101578,0.101578,0,287,274,13,13,0,0,0.320363,0.392639,0.101578,0.101578,0,287,274,13,13,0,0:
00000000
00000000
00000000
00000000
,
00000000
00000000
00000000
00000000
,
00000000
00000000
00000000
00000000
,
00000000
00000000
00000000
00000000
,
00000010
00000010
00001001
00000100
,
00000010
00000010
00001000
00000110
,
00010000
00001000
00001000
00011000
,
01000000
00010000
00010000
10010000
,
10000000
00000000
01000000
00100000
00001000
00010000
00001000
00000000
,
00010000
00000000
00000010
00001000
00000100
00000000
00000010
00000000
,
00000001
00000001
00000001
00000001
,
00001000
00001000
00001000
00001000
,
00000110
00000100
00000100
00000100
,
00001000
00010000
01000000
00000000
10000000
00000000
10000000
00000000
,
10010000
00100000
00100000
00100000
,
00010000
00001000
00000100
00000000
00000001
00000000
00000001
00000000
,
00001001
00000010
00000010
00000010
,
00001000
00010000
01000000
00000000
10000000
00010000
01000000
00000000
,
00100000
10000000
01000000
00100000
,
00010000
00100000
01000000
10000000
,
00100000
00010000
00001000
00000010
,
00000001
00000100
00000010
00001000
,
00000100
00000010
00000001
00000100
,
00000010
00000000
00001000
00000100
00000010
00000000
00000100
00001000
,
00000001
00000100
00001001
00000100
,
00001010
00010000
00011000
01001000
,
20020000
00000000
00000000
00000000
,
30030000
00000000
00000000
00000000
,
00010000
00000000
00100000
01000000
00100000
00001000
00010000
00000000
,
00001000
00000000
00010000
00000100
00001000
00000000
00000010
00000000
,
00000100
00000000
00000001
00000010
00000100
00001000
00000010
00000000
,
00000100
00000000
00001000
00010000
00001000
00000000
00010000
00000000
,
00100000
00000000
10000000
00010000
01000000
00100000
10000000
00000000
,
01000000
00000000
00100000
01000000
00010000
00000000
00001000
00000000
,
00010000
00000000
00000010
00000000
00001000
00000100
00000010
00000000
,
00000001
00001000
00000100
00000000
00000010
00000001
00000100
00000000
,
00001000
00000000
00010000
00000000
00001000
00010000
01000000
00100000
,
01000000
00000000
10000000
00000000
00010000
01000000
00100000
00000000
,
10000000
10000000
10000000
10000000
,
00010000
00010000
00010000
00010000
,
20000000
30000000
00200000
00300000
,
00020000
00030000
00002000
00003000
,
00000020
00000030
00000002
00000003
,
00000200
00002300
00023000
02030000
,
13000000
00000000
00100000
00000000
,
01000000
00010000
10000000
00000000
01000000
00000000
00000000
00000000
,
00010000
00001000
00000100
00000001
,
00000010
00000100
00001000
00000001
,
00002000
00000000
00000000
00000000
,
00000000
00000000
00000000
00000000
,
00003000
00000100
00000000
00000000
,
00000000
00010000
00000000
00000000
,
00001000
01000000
00010000
00000000
10000000
00000000
00010000
00000000
,
00100000
01000000
10000000
00010000
00000000
01000000
00100000
00000000
,
10000000
01000000
00010000
00000000
00001000
00000010
00000001
00000000
,
00000100
00000100
00000100
00001001
,
00001000
00000100
00000010
00000000
00000001
00000100
00001000
00000000
,
00010000
01000000
10000000
00000000
10000000
00000000
00010000
01000000
,
00100000
00000000
10000000
01000000
00100000
00000000
01000000
00100000
,
00001000
00000000
00010000
00000100
00001000
00000000
00000010
00000100
,
00000001
00000000
00000010
00000100
00001000
00000000
00000001
00000000
,
00000100
00001000
00010000
00000000
00001000
00010000
01000000
00000000
,
10000000
00100000
01000000
00010000
10000000
00100000
00010000
00001000
,
00000100
00000001
00000010
00000100
,
00001000
00000000
00000001
00001000
00000001
00000000
00000100
00000000
,
00001000
00010000
00100000
10000000
,
01000000
00100000
00010000
00100000
01000000
00010000
00001000
00000010
,
00000001
00000000
00000000
00000000
;

//--------------- dance-double - M. Emirzian ----------------
#NOTES:
     dance-double:
     M. Emirzian:
     Hard:
     7:
     0.424173,0.497343,0.187529,0.187529,0.230505,380,356,24,24,2,0,0.424173,0.497343,0.187529,0.187529,0.230505,380,356,24,24,2,0:
00000000
00000000
00000000
00000000
,
00000000
00000000
00000000
00000000
,
00000000
00000000
00000000
00000000
,
00000000
00000000
00000000
00000000
,
00100000
00000000
00000000
10000000
01000000
00000000
00000000
00010000
01000000
00000000
00000000
00010000
00001000
00000000
00000000
00000000
,
00011000
00000000
00000000
00000100
00001000
00000000
00000000
00000100
00000001
00000000
00000000
00000100
00001000
00000000
00000000
00000000
,
00011000
00000000
00000000
01000000
00010000
00000000
00000000
01000000
10000000
00000000
00000000
01000000
00010000
00000000
00001000
00000000
,
00011000
00001100
00000101
00001001
,
00000110
00000000
00000100
00000000
00001000
00010000
01000000
00000000
,
00010000
00000000
00001000
00010000
00100000
10000000
01000000
00100000
,
00010000
00000000
00010000
00000000
00010000
00000000
00010000
10000000
,
10000000
10000000
10000000
10000000
,
00200000
00000000
00310000
00000000
00001000
00000010
00000001
00001000
,
00000100
00000000
00000010
00000001
00000100
00000010
00000100
00000000
,
00000002
00000000
00000103
00001000
00010000
01000000
10000000
00010000
,
00100000
00000000
01000000
00000000
10000000
00100000
01000000
00100000
,
10000000
01000000
00100000
00001000
00010000
00000000
00001000
00000000
,
00010000
00000010
00001000
00000000
00000001
00000010
00000100
00000000
,
00002000
00000000
00003001
00000100
00001000
00000000
00010000
00000000
,
00001000
00010000
00100000
10000000
01000000
00100000
00010000
00000000
,
02000000
03200000
00320000
00032000
,
00023000
00000000
00030200
00000000
00000320
00000000
00000031
00000100
,
00000010
00000100
00000001
00000000
00001000
00000000
00000200
00000000
,
00000320
00000000
00000000
00000000
00002030
00000000
00000000
00000000
00023000
00000000
00000000
00000000
00230000
00000000
01000000
00300000
,
00010000
00000000
10000000
00000000
01000000
00010000
00001000
00000000
,
00010000
00000010
00001000
00000001
00000101
00001001
00001100
00000000
,
00002000
00003200
00000320
00002030
,
00023000
00000000
00100000
00030000
00000000
10000000
00000000
00000000
01000000
00000000
00000000
00010000
00000000
00000000
01000000
00000000
,
10000000
00000000
00000000
00100000
00000000
00000000
01000000
00000000
00000000
00001000
00000000
00000000
00010000
00000000
00000010
00000000
,
00000100
00000000
00000000
00000001
00000000
00000000
00000010
00000000
00000000
00001000
00000000
00000000
00000010
00000000
00000001
00000000
,
00000100
00000000
00000000
00000010
00000000
00000000
00010000
00000000
00000000
00001000
00000000
00000000
01000000
00000000
00100000
00000000
,
10000000
00000000
00000000
00010000
00000000
00000000
00100000
00000000
00000000
01000000
00000000
00000000
10000000
00000000
00100000
00000000
,
00010000
00000000
00000000
00001000
00000000
00000000
00000010
00000000
00000000
00001000
00000000
00000000
00010000
00000000
00001000
00000000
,
00000010
00000000
00000000
00000001
00000000
00000000
00001000
00000000
00000000
00000100
00000000
00000000
00000010
00000000
00000001
00000000
,
00000100
00000000
00000000
00001000
00000000
00000000
00100000
00000000
00000000
01000000
00000000
00000000
10000000
00000000
00100000
00000000
,
00010000
00000000
00000000
00100000
00000000
00000000
10000000
00000000
00000000
01000000
00000000
00000000
00010000
00000000
00001000
00000000
,
00000100
00000000
00000000
00001000
00000000
00000000
00010000
00000000
00000000
00001000
00000000
00000000
00000100
00000000
00000001
00000000
,
00000010
00000000
00000000
00000100
00000000
00000000
00001000
00000000
00000000
00000010
00000000
00000000
00000100
00000000
00000001
00000000
,
00001000
00000000
00001000
00000000
00001000
00000000
00001000
00000001
,
00000001
00000001
00000001
00000001
,
00011000
00000000
00010000
01000000
10000000
00100000
01000000
00000000
,
00011000
00000000
00001000
00000100
00000001
00000010
00000100
00001000
,
00000100
00000000
00000010
00000001
00000100
00001000
00010000
00000000
,
00001000
00010000
00100000
01000000
00010000
00100000
01000000
10000000
,
02200000
00000000
00000000
00000000
03300000
00000000
00000000
000MM000
,
00022000
00000000
00033000
00000110
,
00001001
00000010
00000001
00000100
,
00000010
00000000
00010000
00000000
00000000
00001000
00000000
00000000
01000000
00000000
00000000
00100000
00000000
00000000
10000000
00000000
,
10010000
00100000
00000000
00100000
,
00000000
00100000
00000000
00100000
,
00000000
00100000
00000000
00100000
,
00000000
00100000
00000000
00100000
,
00011000
00000000
00001000
00000100
00000001
00000010
00000100
00000000
,
00011000
00000000
00001000
00000010
00000001
00000100
00000010
00000000
,
00010000
00001000
00100000
01000000
10000000
00100000
01000000
00010000
,
10000000
00000000
00000000
01000000
00100000
00000000
00000000
01000000
10000000
00000000
00000000
01000000
00010000
00000000
00000000
00000000
,
00011000
00000000
00000000
00000100
00000010
00000000
00000000
00000100
00001000
00000000
00000000
00000001
00000100
00000000
00000000
00000000
,
00001001
00000000
00000000
00000100
00000010
00000000
00000000
00000100
00001000
00000000
00000000
00000001
00000100
00000000
00001000
00000000
,
00010000
00000000
00001000
01000000
00100000
01000000
00010000
00000000
,
00100000
00000000
00000000
01000000
10000000
00000000
00000000
00100000
01000000
00000000
00000000
00100000
00010000
00000000
00000000
00000000
,
00011000
00000000
00000000
01000000
10000000
00000000
00000000
01000000
00010000
00000000
00000000
00001000
00010000
00000000
00000000
00000000
,
00010010
00000000
00000000
00000100
00001000
00000000
00000000
00000010
00000100
00000000
00000000
00000001
00000010
00000000
00000100
00000000
,
00001000
00000001
00000100
00000000
00000010
00001000
00000001
00000000
,
00000010
00000000
00000000
00000100
00001000
00000000
00000000
00000010
00010000
00000000
00000000
00001000
00010000
00000000
00000000
00000000
,
01001000
00000000
00000000
00010000
01000000
00000000
00000000
10000000
01000000
00000000
00000000
00010000
01000000
00000000
00000000
00000000
,
00100000
10000000
01000000
00100000
,
00010000
00000000
01000000
00000000
00000000
00100000
00000000
00000000
00010000
00000000
00000000
00001000
00000000
00000000
00000010
00000000
,
00000001
00000000
00000000
00000000
;

//--------------- dance-double - M. Emirzian ----------------
#NOTES:
     dance-double:
     M. Emirzian:
     Challenge:
     9:
     0.554774,0.628223,0.234412,0.046882,0.339897,497,467,30,6,24,0,0.554774,0.628223,0.234412,0.046882,0.339897,497,467,30,6,24,0:
00000000
00000000
00000000
00000000
,
00000000
00000000
00000000
00000000
,
00000000
00000000
00000000
00000000
,
00000000
00000000
00000000
00000000
00000000
00000000
00000000
00000MM0
,
00000110
00000000
00000000
00000001
00001000
00000000
00000000
00001000
00010000
00000000
00000000
00010000
10000000
00000000
0MM00000
00000000
,
01100000
00000000
00000000
10000000
00010000
00000000
00000000
00010000
00001000
00000000
00000000
00001000
00000001
00000000
00000MM0
00000000
,
00000110
00000000
00000000
00000001
00001000
00000000
00000000
00001000
00010000
00000000
00000000
00010000
10000000
00000000
00100000
00000000
,
01010000
00101000
00001001
00000110
,
00000001
00000000
00000000
00000100
00000010
00000000
00001000
00000000
00000001
00000000
00000010
00000000
00001000
00000000
00010000
00000000
,
00001000
00000000
00000000
00000100
00001000
00000000
00010000
00000000
01000000
00000000
10000000
00000000
00100000
00000000
10000000
00000000
,
01000000
00000000
00000000
00100000
00010000
00000000
01000000
00000000
00001000
00000000
00010000
00000000
00000010
00000000
00001000
00000000
,
00000100
00000000
00000000
00000010
00000001
00000000
00000100
00000000
00001000
00000000
00000100
00000000
00000010
00000000
00000100
00000000
,
00000001
00000000
00000000
00000100
00000010
00000000
00010000
00000000
00001000
00000000
00000000
01000000
00100000
00000000
10000000
00000000
,
01000000
00010000
00001000
00010000
01000000
10000000
00100000
00010000
,
00001000
00000000
00000000
00010000
00000100
00000000
00001000
00000000
00000010
00000000
00000000
00000100
00000001
00000000
00000010
00000000
,
00000100
00010000
00001000
00100000
00010000
10000000
01000000
10000000
,
00010000
00000000
00000000
10000000
01000000
00000000
00100000
00000000
00010000
00000000
00000000
01000000
00001000
00000000
00010000
00000000
,
01000000
00010000
00001000
00010000
00000100
00001000
00000001
00001000
,
00000010
00000000
00000000
00010000
00001000
00000000
01000000
00000000
00100000
00000000
00000000
10000000
00010000
00000000
00100000
00000000
,
01000000
10000000
00100000
00010000
00001000
00010000
00100000
10000000
,
01000000
00000000
00000000
00100000
00010000
00000000
01000000
00000000
00001000
00000000
00000000
00010000
00001000
00000000
00000010
00000000
,
00000001
00000100
00001000
00010000
00000100
00000010
00000001
00000010
,
00000100
00000000
00000000
00010000
00001000
00000000
01000000
00000000
00100000
00000000
00000000
10000000
00010000
00000000
10000000
00000000
,
01000000
10000000
00100000
01000000
00001000
00010000
00011000
00000000
,
00000100
00000010
00000001
00000010
00000100
00001000
00000010
00000100
,
00000001
00001000
00000010
00010000
00011000
00101000
00110000
00000000
,
00010000
01000000
00100000
10000000
00010000
00100000
00001000
00000000
,
00010000
00001000
00000100
00000001
00000010
00000100
00001000
00000010
,
00000100
00000000
00000001
00000010
00000000
00000000
00000100
00000000
00000000
00010000
00000000
00000000
00000100
00000000
00000010
00000000
,
00000001
00000000
00000100
00000010
00000000
00000000
00001000
00000000
00000000
00000100
00000000
00000000
00010000
00000000
00000100
00000000
,
01000000
00000000
00001000
00010000
00000000
00000000
00000010
00000000
00000000
00010000
00000000
00000000
00001000
00000000
01000000
00000000
,
00010000
00000000
00100000
00010000
00000000
00000000
01000000
00000000
00000000
00100000
00000000
00000000
10000000
00000000
01000000
00000000
,
00100000
00000000
00001000
00010000
00000000
00000000
00001000
00000000
00000000
00000100
00000000
00000000
00000001
00000000
00000010
00000000
,
00000100
00000000
00000010
00000001
00000000
00000000
00001000
00000000
00000000
00000010
00000000
00000000
00010000
00000000
00001000
00000000
,
00010000
00000000
00000010
00010000
00000000
00000000
00001000
00000000
00000000
01000000
00000000
00000000
00001000
00000000
00010000
00000000
,
00001000
00000000
01000000
00010000
00000000
00000000
01000000
00000000
00000000
00100000
00000000
00000000
10000000
00000000
01000000
00000000
,
00100000
00000000
00010000
00100000
00000000
00000000
00001000
00000000
00000000
00010000
00000000
00000000
00100000
00000000
00010000
00000000
,
00001000
00000000
00000010
00000100
00000000
00000000
00000010
00000000
00000000
00000001
00000000
00000000
00000100
00000000
00000010
00000000
,
00000100
00000001
00000010
00000100
00000010
00000001
00000010
00000100
,
00001000
00000010
00010000
00100000
00010000
00100000
10000000
01000000
,
00010000
00000000
01000000
10000000
00010000
00100000
00001000
00000000
,
00011000
00000000
00010000
00001000
01000000
00001000
00010000
00000010
,
00001000
00000000
00000100
00000010
00000001
00000100
00000010
00001000
,
00000010
00000000
00001000
00000100
00001000
00000000
00000001
00000100
00000001
00000000
00000100
00000010
00001000
00000000
00000100
00000000
,
00022000
00000000
00000000
00000000
00033000
00000000
00000000
0000M00M
,
00002002
00000000
00000000
00000000
00003003
000MM000
00011000
M00M0000
,
20020000
00000000
00000000
00000000
30030000
00000000
00100000
M00M0000
,
10010000
00000000
01100000
00000000
00000000
00011000
00000000
00000000
00010010
00000000
00000000
00001100
00000000
00000000
00000101
00000000
,
00000110
00000001
00000M00
00000100
,
00000M00
00000100
00000M00
00000100
,
00000000
10000000
M0000000
10000000
,
M0000000
00000000
10000000
00000000
000M0000
00000000
00010000
0MM00000
,
01100000
00000000
00000000
10000000
00010000
00000000
00000000
00010000
00001000
00000000
00000000
00001000
00000001
00000000
00000MM0
00000000
,
00000110
00000000
00000000
00000001
00001000
00000000
00000000
00001000
00010000
00000000
00100000
00000000
10000000
00000000
01000000
00000000
,
00100000
00010000
01000000
00100000
10000000
00001000
01000000
00100000
,
10000000
00000000
01000000
00100000
00010000
00000000
10000000
00100000
01000000
00000000
00010000
01000000
00100000
00000000
10000000
00000000
,
01000000
00000000
00100000
00001000
00010000
00000000
00000010
00010000
00001000
00000000
00000100
00000010
00001000
00000000
00000100
00000000
,
00000010
00000000
00000001
00000010
00000100
00000000
00000001
00000100
00000010
00000000
00000100
00001000
00000001
00000000
00000100
00000000
,
00000010
00000000
00010000
00001000
01000000
00000000
00100000
01000000
00010000
00000000
10000000
01000000
00100000
00000000
10000000
00000000
,
00100000
00000000
00010000
10000000
00100000
00000000
01000000
00010000
10000000
00000000
01000000
00100000
00001000
00000000
00010000
00000000
,
00000010
00000000
00010000
00001000
01000000
00000000
00001000
00010000
00000100
00000000
00000010
00000100
00001000
00000000
00000001
00000000
,
00000100
00000000
00001000
00000100
00000010
00000000
00000100
00000001
00000010
00000000
00000100
00001000
00000100
00000000
00001000
00000000
,
00000001
00000100
00001000
00010000
01000000
10000000
00010000
00000000
,
01000000
00000000
00100000
10000000
01000000
00000000
00100000
01000000
10000000
00000000
00010000
01000000
00100000
00000000
00010000
00000000
,
00100000
00000000
10000000
00010000
01000000
00000000
00001000
00010000
00000010
00000000
00010000
00000100
00001000
00000000
00000010
00000000
,
00000100
00000000
00000001
00000010
00000100
00000000
00010000
00000100
00001000
00000000
00000010
00000100
00000001
00000000
00000010
00000000
,
00000100
00000000
00001100
00000000
00000000
00001001
00000000
00000000
00011000
00000000
00000000
01001000
00000000
00000000
00110000
00000000
,
10000000
00000000
00000000
00000000
;

//--------------- lights-cabinet - ----------------
#NOTES:
     lights-cabinet:
     :
     Easy:
     1:
     0.467707,0.602047,0.484451,0.148461,0.06251,419,343,62,19,0,9,0.467707,0.602047,0.484451,0.148461,0.06251,419,343,62,19,0,9:
000000
000000
000000
000000
,
000000
000000
000000
000000
,
000000
000000
000000
000000
,
200000
000000
320000
000000
,
030100
010000
000100
010000
,
100000
010000
100000
010000
,
001000
010000
100000
010000
,
000100
010000
001000
100000
010000
001000
000100
000000
,
111100
000000
100100
000000
001000
010000
100000
000000
,
010000
000000
001000
000000
100000
001000
010000
000100
,
100000
000000
100100
000000
100000
010000
001000
000100
,
100000
000000
000100
000000
010000
000000
001000
100100
,
011000
100100
000000
010000
,
000100
001000
010000
000000
000100
001000
010000
000000
,
010100
100100
000000
001000
,
100000
010000
001000
000000
100000
010000
001000
010000
,
100000
000100
000000
000100
,
100000
000100
010000
000100
100000
001000
100000
000000
,
100100
001000
000000
001000
,
100000
001000
010000
000000
100000
001000
010000
000000
,
101000
010000
000000
010000
,
000100
010000
001000
000000
000100
010000
001000
010000
,
000100
001000
010000
000000
000000
000000
100000
000000
,
000100
100000
001000
100000
000100
010000
000100
000000
,
200000
310000
000200
010300
,
100000
001000
100000
000000
000100
001000
000100
000000
,
100000
001000
010000
000100
,
100100
010000
001000
000100
,
100000
000000
010000
100000
000000
000000
000000
000000
001000
000000
100000
000000
010000
000000
000000
000000
,
001000
000000
000100
001000
000000
000000
000000
000000
010000
000000
100000
000000
001000
000000
000000
000000
,
010000
000000
000100
010000
000000
000000
000000
000000
001000
000000
100000
000000
010000
000000
000000
000000
,
001000
000000
000100
001000
000000
000000
000000
000000
010000
000000
100000
000000
001000
000000
010000
000000
,
000100
000000
001000
000100
000000
000000
000000
000000
010000
000000
000100
000000
001000
000000
000000
000000
,
010000
000000
100000
010000
000000
000000
000000
000000
001000
000000
000100
000000
010000
000000
000000
000000
,
001000
000000
100000
001000
000000
000000
000000
000000
010000
000000
000100
000000
001000
000000
000000
000000
,
010000
000000
100000
010000
000000
000000
000000
000000
000100
000000
010000
000000
001000
000000
100000
000000
,
000100
000000
001000
010000
000000
000000
100000
000000
001000
000000
100000
000000
000100
000000
100000
000000
,
010000
000000
001000
000100
000000
000000
010000
000000
001000
000000
010000
000000
000100
000000
100000
000000
,
001000
000000
010000
000100
000000
000000
001000
000000
010000
000000
100000
000000
001000
000000
010000
000000
,
000100
000000
100000
010000
000000
000000
001000
000000
000100
000000
010000
000000
001000
000000
100000
000000
,
000100
011000
100100
011000
,
100100
011000
100100
011000
,
100100
011000
100100
011000
,
100100
000000
011000
000000
110000
000100
011000
100100
,
222200
000000
333300
000000
,
222200
000000
333300
111100
,
222200
000000
333300
000000
,
122100
000000
133100
000000
,
111100
010100
010000
011000
,
010000
110000
010000
011000
,
000100
001000
010000
001000
000100
001000
010000
000000
,
100000
010000
100000
000000
000100
001000
000100
000000
,
100100
000000
001000
010000
000000
001000
000000
000000
,
000100
100000
010000
001000
000000
100000
000000
000000
,
000100
000000
100000
000000
000000
010000
000000
000000
001000
000000
000000
000100
000000
000000
010000
000000
,
000100
010000
100000
001000
010000
100000
001000
010000
,
000100
010000
001000
100000
000100
100000
002000
000000
,
103100
010000
101000
000000
011000
100100
011000
000000
,
100100
000000
011000
000000
100100
011000
100100
000000
,
100100
001000
010000
000100
010000
001000
010000
100000
,
001000
010000
000100
010000
001000
100000
011000
000000
,
100000
010100
011000
100100
,
000100
010000
001000
100000
000000
001000
010000
000000
,
000100
001000
100000
010000
100000
000100
010000
100000
,
001000
010000
001000
100000
010100
001000
000100
010000
,
001000
010000
000100
010000
001000
100000
001000
000000
,
100100
000000
011000
000000
000000
100100
000000
000000
011000
000000
000000
100100
000000
000000
011000
000000
,
100100
000000
000000
000000
;
