#TITLE:The Roof (Morales Funky Club Instrumental);
#SUBTITLE:;
#ARTIST:Mariah Carey;
#TITLETRANSLIT:;
#SUBTITLETRANSLIT:;
#ARTISTTRANSLIT:;
#GENRE:;
#CREDIT:;
#MUSIC:theroof.ogg;
#BANNER:theroof.png;
#BACKGROUND:theroof-bg.png;
#CDTITLE:;
#SAMPLESTART:0.000;
#SAMPLELENGTH:0.000;
#SELECTABLE:YES;
#OFFSET:-4.023;
#BPMS:0.000=124.010;
#STOPS:;
#BGCHANGES:;
#FGCHANGES:;

//--------------- dance-single - ----------------
#NOTES:
     dance-single:
     :
     Easy:
     5:
     0,0,0,0,0:
1000
0000
0001
0000
,
0010
0000
0100
0000
,
2000
3010
0000
0001
,
0020
0130
0000
1000
,
2000
0100
3001
0000
,
0002
0010
0103
0000
,
1000
0000
0010
0000
,
0001
0010
0100
0000
,
1000
0100
0001
0000
,
1000
0000
0001
0000
,
1001
0010
0100
1000
,
0100
1000
0001
0010
,
0100
0010
0001
1000
,
0100
0001
0010
0001
,
0010
0010
0100
1000
,
0100
0100
0001
0010
,
1000
0100
1000
0100
,
0010
0001
0010
0001
,
1000
1000
0001
0001
,
1000
1000
0100
0010
,
0000
0100
0010
0100
,
1000
0100
0001
0010
,
0010
1000
0001
0100
,
0010
0010
2000
3002
,
2003
3002
0023
0230
,
0300
1001
0110
2000
,
3200
0320
0032
0003
,
0100
0001
0010
0000
,
1001
0100
0010
0000
,
0110
1000
0001
0000
,
1000
0100
0001
0000
,
0001
0010
1000
0000
,
2000
3010
0002
0013
,
2000
3100
0002
0103
,
0220
0000
0330
2000
,
3002
0000
0203
0000
,
0000
0000
0000
0320
,
2030
3200
0300
1001
,
1000
0001
1000
0001
,
0100
0010
0100
0010
,
1000
0010
1000
0010
,
0100
0001
0100
0001
,
1010
0000
0101
0000
,
0011
0000
1100
0000
,
1000
1000
0001
0000
,
0020
0230
0320
0230
,
0301
0001
1000
0100
,
1000
1000
0010
0001
,
1000
0100
1000
0001
,
0100
0000
0010
0000
,
1000
0010
0001
0000
,
0001
0100
1000
0000
,
1000
0110
0001
0000
,
0001
0010
0100
1000
,
0110
0000
0000
0000
;

//--------------- dance-single - ----------------
#NOTES:
     dance-single:
     :
     Medium:
     7:
     0,0,0,0,0:
0020
0000
0130
0000
0010
1000
0100
0000
,
0020
0000
0130
0000
0010
0001
0100
0000
,
1000
0010
0002
0013
,
1000
0100
0002
0013
,
1000
0010
2000
3001
,
0010
0100
0002
1003
,
1000
0000
0010
0000
1000
0010
0001
0000
,
0010
0000
1000
0000
0010
1000
0001
0000
,
1000
0000
0100
0000
0001
0010
0100
0000
,
1000
0100
0010
0000
0100
0010
0001
0000
,
1000
0010
1000
0000
0001
0100
0001
0000
,
2000
0010
0100
3010
,
0001
0010
0100
1000
,
0020
0100
1000
0130
,
1000
0001
1000
0001
2000
0000
3020
0000
,
0230
0302
0003
1001
,
1010
1001
0101
1100
,
1010
0110
0101
0110
,
1000
0101
1000
0101
,
0010
1100
0010
1100
,
2010
3001
0012
1003
,
0100
0010
0100
0000
1000
0001
1000
0000
,
0010
1000
0001
0000
0100
0001
1000
0000
,
1000
0100
0001
0000
1010
0000
0011
0000
,
0101
1100
1010
0011
,
2000
3100
0020
0031
,
1000
0110
0001
0110
,
1000
0100
0001
0010
,
0001
0100
1000
0010
,
1000
0010
1000
0000
0001
0000
0010
0000
,
1000
0001
1000
0000
0001
1000
0001
0000
,
1000
0010
1000
0000
1000
0100
1000
0000
,
1000
0100
0010
0000
0010
0001
0100
0000
,
0010
1000
0100
0000
0010
0001
1000
0000
,
2000
0010
0100
3002
,
0023
1030
0200
1000
,
0010
1000
0001
1000
,
0310
0001
1000
0001
0010
0000
1001
0000
,
0110
0010
0110
1000
,
2100
3010
0102
0013
,
1001
0010
1001
0100
,
1000
0100
0001
0010
,
1000
0011
0010
0100
,
1000
1010
0010
0100
,
1000
0001
1000
0001
,
2000
3020
0230
0302
,
0103
0001
1000
0001
,
1000
0010
1000
0000
0001
0100
0001
0000
,
1000
0010
0001
0100
,
1000
0010
0001
0000
0001
0010
1000
0000
,
1000
0101
1000
1100
,
1000
0100
0010
0000
0001
0010
0100
0000
,
0100
1010
0010
0101
,
1000
0100
0100
0000
0001
0100
0100
0000
,
1001
0000
0000
0000
;

//--------------- dance-single - ----------------
#NOTES:
     dance-single:
     :
     Hard:
     12:
     0,0,0,0,0:
0010
0000
0100
0000
1000
0000
0000
0000
0010
0100
0010
0000
1000
0000
1000
0000
,
0001
0000
0100
0000
0010
0000
0000
0000
1000
0100
1000
0000
0001
0000
0001
0000
,
0100
0000
0000
0010
0000
1000
0000
0010
0100
0000
0001
0000
0011
0000
0000
0000
,
0100
0000
0000
1000
0000
0001
0000
1000
0010
0000
0100
0000
0001
0000
0100
0000
,
0010
0000
0000
1000
0000
0100
0000
1000
0010
0000
0100
0000
0101
0000
0000
0000
,
1000
0000
0000
0001
0000
0010
0000
0001
0100
0000
0010
0000
1000
0000
0100
0000
,
1000
0000
0000
0010
0000
0010
0000
0100
0001
0000
1000
0000
1010
0000
0000
0000
,
0100
0000
0000
0001
0000
0001
0000
0010
0100
0000
1000
0000
0010
0000
0100
0000
,
0001
0000
0000
1000
0000
1000
0000
0010
0100
0000
0001
0000
1001
0000
0000
0000
,
0010
0000
0000
0100
0000
0100
0000
1000
0010
0000
0100
0000
0001
0000
0000
0000
,
0100
0000
0010
1000
0010
0000
1000
0000
0001
0000
0100
0000
0100
0000
0000
0000
,
0010
0000
1000
0100
0010
0000
0100
0010
0001
0000
0100
0010
0000
1000
0000
1000
,
0000
0000
0001
0000
0100
0000
0010
0000
0001
0000
0010
0100
0010
0000
1000
0100
,
0000
0100
0000
0000
0010
0000
0001
0100
0000
0100
0001
0000
1000
0000
0010
0000
,
0100
0000
0001
0000
1000
0000
1000
0000
0001
0010
0001
0000
1000
0010
1000
0000
,
0001
0100
0001
0000
1000
0100
1000
0000
0010
0000
0100
0000
0001
0000
0000
0000
,
1000
0000
0100
1000
0000
0100
0010
0000
0100
1000
0000
0100
0010
0000
0001
0100
,
0000
0010
0100
0000
0001
0100
0000
0010
0100
0000
1000
0000
0100
0000
0100
0000
,
0010
0000
1000
0000
0001
0100
0001
0000
1000
0000
0010
0000
0100
0001
0100
0000
,
0010
0000
0100
0000
0001
0000
1000
0000
1000
0000
0001
0000
0100
0010
0000
0000
,
1000
0000
0000
0000
0100
0000
0100
0000
0010
0000
0001
0100
0000
0010
0000
0010
,
1000
0000
0100
0000
1000
0000
0000
0000
0001
0000
0001
0000
0100
0000
0010
1000
,
0000
1000
0000
0000
0100
0000
0010
0000
0001
0000
0100
0000
0010
0000
1000
0000
,
0100
0000
0010
0000
0001
0000
0100
0000
0010
0000
1000
0100
1000
0000
0100
0010
,
0100
0000
0010
0001
0010
0000
0001
1000
0001
0000
1000
0010
1000
0000
0001
0000
,
0000
0100
0000
0000
0100
0000
0000
0010
0000
1000
0000
0000
0001
0000
0010
0000
,
0100
0010
0001
0100
0010
0100
0001
0010
,
0100
0000
0010
0000
0001
0000
0000
1000
0000
0000
0010
0000
0000
1000
0000
0001
,
0100
0000
0010
0000
1000
0000
0010
0000
0001
0000
0001
1000
0000
0100
0000
0100
,
0001
0000
1000
0000
0100
0000
1000
0010
0000
0100
0000
0100
0000
0000
0001
0000
,
1000
0000
0100
0000
1000
0010
0000
0000
0101
0000
0000
0010
0000
0000
1000
0100
,
0000
0010
0000
0000
0001
0100
0001
0100
0000
0000
0010
0000
0000
1000
0000
0001
,
0100
0010
0100
0010
1000
0100
1000
0100
,
0010
0000
0001
0000
0010
0000
0001
0000
0100
0000
0010
0000
1000
0100
1000
0100
,
2000
0000
0010
0000
3001
0100
0010
0000
,
0200
0000
1000
0000
0310
1000
0100
0000
,
0020
0000
0001
0000
0130
1000
0010
0000
,
0100
0001
0100
0010
1000
0100
1000
0010
,
0110
0000
0000
0000
0100
0000
0001
0000
0100
0000
0000
0010
0000
1000
0100
0000
,
0100
1000
0000
1000
0010
0000
0100
0000
0001
0000
0000
1000
0000
0000
0010
0000
,
0010
0001
0000
0000
0010
0000
1000
0000
0100
0000
0000
0010
0000
0000
0100
0000
,
0100
1000
0000
0000
0010
0000
0100
0000
0001
0000
0001
0100
0000
0000
0010
0000
,
1000
0000
0100
0000
0100
0000
0010
0000
0001
0000
0000
0100
0000
0000
0010
0000
,
1000
0001
1000
0000
0001
0000
0100
0000
0100
0000
0000
0010
0000
0000
1000
0000
,
0100
0010
0001
0100
0010
0001
0010
0000
,
1000
0100
1000
0010
0100
0001
0002
0000
,
1003
0000
0100
0000
0100
0000
0010
0000
0001
0100
0001
0000
1000
0000
0000
0000
,
0010
0000
0100
0000
0001
0000
0100
0000
0010
1000
0010
0000
1000
0000
0000
0000
,
0100
0000
0010
0000
0010
0000
0001
0000
0100
0010
0100
0000
0001
0000
0000
0000
,
1000
0100
1000
0000
0010
0010
0100
0001
,
1000
0000
0100
0000
0010
0000
0000
0001
0010
0000
0100
0000
1000
0000
0001
0000
,
1000
0000
0100
0000
0001
0000
0000
0100
1000
0000
0001
0000
0100
0000
0010
0000
,
1000
0000
0001
0000
0100
0000
0000
0010
0100
0000
0001
0000
0010
0000
0100
0000
,
1000
0000
1000
0010
0000
0010
0100
0000
0100
0001
0000
0001
0010
0000
0100
0000
,
1001
0000
0000
0000
;
