#TITLE:The Game;
#SUBTITLE:;
#ARTIST:Crispy;
#TITLETRANSLIT:;
#SUBTITLETRANSLIT:;
#ARTISTTRANSLIT:;
#GENRE:;
#CREDIT:;
#MUSIC:The Game.ogg;
#BANNER:The Game.png;
#BACKGROUND:The Game-bg.png;
#CDTITLE:;
#SAMPLESTART:76.520;
#SAMPLELENGTH:12.980;
#SELECTABLE:YES;
#OFFSET:0.006;
#BPMS:0.000=138.000;
#STOPS:;
#BGCHANGES:;
#FGCHANGES:;

//--------------- dance-single - M. Puls ----------------
#NOTES:
     dance-single:
     M. Puls:
     Beginner:
     1:
     0.07619,0.113333,0.033333,0,0,64,60,4,0,0,0,0.07619,0.113333,0.033333,0,0,64,60,4,0,0,0:
0000
0000
0000
0000
,
0000
0000
0000
0000
,
0000
0000
0000
0000
,
0000
0000
0000
0000
,
1000
0000
0000
0000
,
0000
0000
0000
0000
,
0001
0000
0000
0000
,
0000
0000
0000
0000
,
1000
0000
0000
0000
,
0100
0000
0000
0000
,
0010
0000
0000
0000
,
0001
0000
0000
0000
,
1000
0000
0000
0000
,
1000
0000
0000
0000
,
0010
0000
0000
0000
,
0100
0000
0000
0000
,
0001
0000
0000
0000
,
0001
0000
0000
0000
,
0100
0000
0000
0000
,
0010
0000
0000
0000
,
0000
0000
0000
0000
,
0001
0000
0000
0000
,
1000
0000
0000
0000
,
0001
0000
0000
0000
,
1000
0000
0000
0000
,
0010
0000
0000
0000
,
0100
0000
0000
0000
,
0001
0000
0000
0000
,
1000
0000
0000
0000
,
1000
0000
0000
0000
,
0001
0000
0000
0000
,
0001
0000
0000
0000
,
1001
0000
0000
0000
,
1000
0000
0000
0000
,
0001
0000
0000
0000
,
0000
0000
1001
0000
,
0000
0000
1000
0000
,
0000
0000
0001
0000
,
0000
0000
0100
0000
,
0000
0000
0010
0000
,
0000
0000
0000
0000
,
0001
0000
0000
0000
,
0100
0000
0000
0000
,
0010
0000
0000
0000
,
1000
0000
0000
0000
,
0001
0000
0000
0000
,
1000
0000
0000
0000
,
0010
0000
0000
0000
,
0100
0000
0000
0000
,
0001
0000
0000
0000
,
1000
0000
0000
0000
,
0000
0000
0000
0000
,
1001
0000
0000
0000
,
1000
0000
0000
0000
,
0001
0000
0000
0000
,
0010
0000
0000
0000
,
0010
0000
0000
0000
,
0100
0000
0000
0000
,
0100
0000
0000
0000
,
1000
0000
0000
0001
,
0000
0000
0000
0000
,
1000
0000
0000
0000
,
0010
0000
0000
0000
,
0100
0000
0000
0000
,
0001
0000
0000
0000
,
0100
0000
0000
0000
,
0010
0000
0000
0000
,
1000
0000
0000
0000
,
1001
0000
0000
0000
;

//--------------- dance-single - K. Ward ----------------
#NOTES:
     dance-single:
     K. Ward:
     Easy:
     4:
     0.186905,0.225833,0.033333,0,0,157,153,4,0,0,0,0.186905,0.225833,0.033333,0,0,157,153,4,0,0,0:
0000
0000
0000
0000
,
0000
0000
0000
0000
,
0000
0000
0000
0000
,
0000
0000
0000
0000
,
1000
0000
0000
0000
,
0001
0000
0000
0000
,
1000
0000
0000
0000
,
1001
0000
0000
0000
,
1000
1000
0000
0000
,
0001
0001
0000
0000
,
0100
0100
0000
0000
,
0001
0000
1000
0000
,
0001
0000
0001
0000
,
0100
0000
0100
0010
,
1000
0000
1000
0000
,
0001
0000
1000
0001
,
1000
0000
0010
0000
,
0010
0000
0010
0000
,
1000
0000
1000
0000
,
0001
1000
0001
1000
,
0010
0000
0000
0000
,
1000
0000
0000
0000
,
0001
0000
0100
0000
,
0001
0000
0000
0000
,
1000
0010
1000
0010
,
1000
0000
1000
0000
,
0001
0100
0001
0100
,
0001
0001
0001
0000
,
1000
0010
1000
0010
,
1000
0000
1000
0000
,
0001
0100
0001
0100
,
0001
0001
0001
0000
,
1000
0000
1000
0000
,
0010
0000
0100
0100
,
0001
0000
0001
0000
,
0001
0001
0001
0000
,
1001
0000
1001
0000
,
0100
0000
0010
0010
,
1000
0000
0001
0000
,
0100
0001
0100
0001
,
1000
0000
0010
0000
,
1000
0000
0010
0000
,
1000
0000
0100
0000
,
1000
0000
0000
0000
,
0001
0100
0001
0100
,
0001
0000
0001
0000
,
1000
0010
1000
0010
,
1000
0000
1000
0000
,
0001
0100
0001
0100
,
0001
0000
0001
0000
,
1000
0010
1000
0010
,
1000
0000
1001
0000
,
1000
1000
0010
0000
,
0100
0100
0010
0000
,
1000
1000
0010
0000
,
1000
0001
1000
0001
,
0100
0100
0010
0000
,
1000
1000
0010
0000
,
1000
0000
0001
0000
,
1000
0000
0000
0000
,
0010
0000
0010
0000
,
1000
0000
1000
0000
,
0001
0000
0001
0000
,
1000
0001
0001
1000
,
0010
0000
0000
0000
,
0010
0000
0000
0000
,
0100
0000
0000
0000
,
0001
0000
0001
0001
;

//--------------- dance-single - K. Ward ----------------
#NOTES:
     dance-single:
     K. Ward:
     Medium:
     6:
     0.327381,0.367684,0.1,0.075,0,275,263,12,9,0,0,0.327381,0.367684,0.1,0.075,0,275,263,12,9,0,0:
0000
0000
0000
0000
,
0000
0000
0000
0000
,
0000
0000
0000
0000
,
0000
0000
0000
0000
,
0001
0100
0010
1000
,
1000
0010
0100
0001
,
0001
0100
0010
1000
,
1001
0000
0000
0000
,
1000
1000
0001
0001
,
0100
0100
0010
0010
,
1000
1000
0001
0001
,
0100
0100
0002
0000
,
1003
0000
1000
0000
1000
0100
1000
0000
,
0010
0000
0010
0000
0010
0100
0010
0000
,
1000
0000
1000
0000
1000
0100
1000
0000
,
0001
0001
0002
0000
,
1003
0010
1000
0010
,
0100
0000
0001
0000
0100
0001
0100
0000
,
0001
0100
0001
1000
,
0001
0001
2000
0000
,
3001
0001
0010
0100
,
1000
1000
0100
0010
,
0001
0001
0010
0100
,
1100
0000
0011
0000
,
0001
0000
0001
0000
1000
0100
1000
0000
,
0010
0000
0010
0000
1000
0010
1000
0000
,
0001
0000
0001
0000
0010
0001
0010
0000
,
0001
0100
0110
0000
,
1000
0000
1000
0000
0001
0010
0001
0000
,
0100
0000
0100
0000
0001
0100
0001
0000
,
1000
0000
1000
0000
0100
1000
0100
0000
,
1000
0010
0100
0000
0110
0000
0000
0000
,
1000
0001
0100
0001
,
1000
0000
0001
0000
0100
0010
0100
0000
,
0001
0000
0001
0000
1000
0010
1000
0000
,
0100
1000
1000
0000
,
1000
0100
1000
0011
,
1000
0100
1000
0110
,
2000
0000
3002
0000
,
0203
0000
0001
0301
,
1000
0100
0010
0001
,
0001
0010
0100
1000
,
1000
0100
0010
0001
,
0011
0000
1100
0000
,
1000
0000
1000
0000
0001
0010
0001
0000
,
0100
0000
0100
0000
0001
0100
0001
0000
,
1000
0000
1000
0000
0100
1000
0100
0000
,
1000
0010
0110
0000
,
0001
0000
0001
0000
1000
0100
1000
0000
,
0010
0000
0010
0000
1000
0010
1000
0000
,
0001
0000
0001
0000
0010
0001
0010
0000
,
0001
0100
0010
0000
0110
0000
0000
0000
,
0100
0000
0100
0000
0010
1000
0010
0000
,
0100
0000
0001
0000
0010
0001
0010
0000
,
0001
0000
0100
0000
0010
0100
0001
0000
,
1000
0001
1001
0000
,
0010
0000
1000
0000
0010
0100
0001
0000
,
1000
0000
0010
0000
0100
0001
0100
0000
,
0010
0020
1000
1030
,
0002
1000
1003
0000
,
0001
0001
1000
1000
,
0010
0000
0010
0000
0100
0001
0100
0000
,
0001
0001
1000
1000
,
0010
0000
0010
0000
1000
0100
0100
0000
,
1000
1000
0001
0001
,
0100
0000
0100
0000
0010
0100
0010
0000
,
1000
1000
0001
0001
,
0100
0000
0000
0000
0000
0000
0000
0000
0000
0000
0000
0000
0000
0000
0000
0000
0000
0000
0000
0000
0000
0000
0000
0000
0000
0000
0000
0000
0000
0000
0000
0000
0000
0000
0000
0000
0000
0000
0000
0000
0000
0000
0000
0000
0000
0000
0000
0000
0100
0000
0000
0000
0000
0000
0000
0000
0000
0000
0000
0000
0000
0000
0000
0000
0000
0000
0000
0000
0000
0000
0000
0000
0000
0000
0000
0000
0000
0000
0000
0000
0000
0000
0000
0000
0000
0000
0000
0000
0000
0000
0000
0000
0000
0000
0000
0000
0002
0000
0000
0000
0000
0000
0000
0000
0000
0000
0000
0000
0000
0000
0000
0000
0000
0000
0000
0000
0000
0000
0000
0000
0000
0000
0000
0000
0000
0000
0000
0000
0000
0000
0000
0000
0000
0000
0000
0000
0000
0000
0000
0000
0000
0000
0000
0000
0000
0000
0000
0000
0000
0000
0000
0000
0000
0000
0000
0000
0000
0000
0000
0000
0000
0000
0000
0000
0000
0000
0000
0000
0000
0003
0000
0000
0000
0000
0000
0000
0000
0000
0000
0000
0000
0000
0000
0000
0000
0000
0000
0000
0000
0000
0000
0000
;

//--------------- dance-single - K. Ward ----------------
#NOTES:
     dance-single:
     K. Ward:
     Hard:
     12:
     0.545238,0.565625,0.016667,0.2,0.3125,458,456,2,24,0,0,0.545238,0.565625,0.016667,0.2,0.3125,458,456,2,24,0,0:
0000
0000
0000
0000
,
0000
0000
0000
0000
,
0000
0000
0000
0000
,
0000
0000
0000
0000
,
0001
0000
0000
1000
0000
0000
0100
0000
1000
0000
0000
0010
0000
0000
0100
0000
,
0001
0000
0000
0100
0000
0000
0010
0000
1000
0000
0000
0010
0000
0000
1000
0000
,
0001
0000
0000
1000
0000
0000
0100
0000
1000
0000
0000
0010
0000
0000
0100
0000
,
0001
0100
0010
1000
1000
0000
0000
0000
,
0001
0000
0001
0000
1000
0000
0010
0000
0100
0000
0000
0001
0000
0000
0100
0000
,
0001
0000
0001
0000
0100
0000
0010
0000
1000
0000
0000
0001
0000
0000
0100
0000
,
0001
0000
0001
0000
0100
0000
0010
0000
1000
0000
0000
0010
0000
0000
1000
0000
,
0001
0001
0100
0010
1000
0001
0001
0000
,
2000
0000
3100
1000
0020
0000
1030
0010
,
0200
0000
0301
1000
0001
0010
0001
0000
,
1000
1000
0010
1000
0010
0100
0001
0100
,
0010
1000
0010
0100
0002
0000
0103
0000
,
1000
0100
1000
0200
0000
0000
1300
0000
0010
0000
0100
0000
0001
0000
0010
0000
,
0001
0010
0001
0020
0000
0000
0031
0000
0100
0000
0010
0000
1000
0000
0100
0000
,
1000
0100
1000
0200
0000
0000
1300
0000
0010
0100
0010
0200
0000
0000
0301
0000
,
0000
0000
1000
0000
0010
0000
0100
0000
0010
0000
0000
1000
0000
0000
0010
0000
,
0100
0000
0010
0000
1000
0000
0100
0000
0010
0000
0000
0001
0000
0000
1000
0000
,
0000
0010
0100
0001
0100
0001
1000
0001
,
0000
0000
1000
0000
1000
0000
0010
0000
0100
0000
0000
0001
0000
0000
1000
0000
,
0000
1000
0010
0100
0010
0000
1100
0000
,
0001
0000
0000
0001
0100
0000
0000
0100
0010
0000
0000
0010
1000
0000
0000
1000
,
0001
0000
0000
0001
0100
0000
0010
0000
0200
0000
0000
0000
0301
0000
0000
0000
,
1000
0000
0000
1000
0010
0000
0000
0010
0100
0000
0000
0100
0001
0000
0000
0001
,
1000
0010
0100
0001
0200
0000
0301
0000
,
0001
0000
0000
0001
0100
0000
0000
0100
0010
0000
0000
0010
1000
0000
0000
1000
,
0001
0000
0000
0001
0100
0000
0000
0100
0010
0000
1000
0000
0020
0000
0000
0000
,
0130
0001
0100
0010
1000
0010
1000
0001
,
0100
0001
0100
0001
0002
0000
1003
0000
,
1000
0010
0100
0001
0100
0000
0100
0010
,
1000
0000
0001
0100
0001
1000
0001
0000
,
0100
0000
0100
0000
0010
0000
1000
0000
0010
0000
0000
0100
0000
0000
0001
0000
,
1000
0000
0000
0010
0000
0000
1000
0000
2000
0000
0000
0000
3010
0000
0000
0000
,
1000
0100
1000
0200
0000
0000
1300
0000
0001
0000
0010
0000
0001
0000
0100
0000
,
0010
0100
0010
0200
0000
0000
0310
0000
1000
0000
0100
0000
1000
0000
0001
0000
,
1000
0100
1000
0200
0000
0000
1300
0000
0001
0010
0001
0020
0000
0000
0031
0000
,
0000
0000
1000
0000
0001
0000
0100
0000
0001
0000
0000
1000
0000
0000
0001
0000
,
0100
0000
0100
0000
0001
0000
0100
0000
0010
0000
0000
1000
0000
0000
0100
0000
,
0000
0100
1000
0001
1000
1000
0010
0100
,
0000
0000
0100
0000
0001
0000
1000
0000
0001
0000
0000
1000
0000
0000
0010
0000
,
0000
0100
0010
1000
1000
0000
0011
0000
,
1000
0000
0000
1000
0010
0000
0000
0010
0100
0000
0000
0100
0001
0000
0000
0001
,
1000
0000
0000
1000
0010
0000
0100
0000
0020
0000
0000
0000
1030
0000
0000
0000
,
0001
0000
0000
0001
0100
0000
0000
0100
0010
0000
0000
0010
1000
0000
0000
1000
,
0001
0100
0010
1000
0020
0000
1030
0000
,
1000
0000
0000
1000
0010
0000
0000
0010
0100
0000
0000
0100
0001
0000
0000
0001
,
1000
0000
0000
1000
0010
0000
0000
0010
0100
0000
0001
0000
0200
0000
0000
0000
,
0310
0100
0001
1000
0010
1000
0001
0100
,
0001
1000
0001
1000
2000
0000
3001
0000
,
0010
0000
0100
0000
0001
0000
1000
0000
0010
0000
0100
0000
0001
0010
0001
0000
,
1000
0000
0010
0000
0100
0000
0010
0000
1000
0000
0100
0000
1000
0100
1000
0000
,
0010
0000
0100
0000
0001
0000
0010
0000
0001
0000
1000
0000
0010
0100
0010
0000
,
1000
0001
0100
0001
2000
0001
3001
0000
,
1000
0000
0100
0000
1000
0000
0010
0000
0100
0000
0001
0000
0010
0001
0010
0000
,
0001
0000
0100
0000
0010
0000
1000
0000
0010
0000
1000
0000
0010
0100
0010
0000
,
1000
0000
0100
0000
1000
0000
0010
0000
0100
0000
0001
0000
1000
0100
1000
0000
,
0010
0100
0001
0010
0002
0000
1003
0000
,
1000
0000
1000
0000
0001
0000
0100
0000
0010
0000
0000
1000
0000
0000
0010
0000
,
1000
0000
1000
0000
0010
0000
0100
0000
0001
0000
0000
1000
0000
0000
0010
0000
,
1000
0000
1000
0000
0010
0000
0100
0000
0001
0000
0000
0100
0000
0000
0001
0000
,
1000
1000
0010
0100
0001
1000
0002
0000
,
1003
0000
1000
0000
0010
0000
0100
0000
0010
0000
0000
1000
0000
0000
0010
0000
,
0000
0000
0100
0000
0100
0000
0001
0000
1000
0000
0000
1000
0000
0000
0010
0000
,
1000
0000
1000
0000
0010
0000
0100
0000
0001
0000
0000
0100
0000
0000
0001
0000
,
0000
0001
0100
0010
0100
0001
0010
0001
;

//--------------- dance-single - K. Ward ----------------
#NOTES:
     dance-single:
     K. Ward:
     Challenge:
     14:
     0.690476,0.820156,0.191667,0.183333,0.516667,580,557,23,22,14,0,0.690476,0.820156,0.191667,0.183333,0.516667,580,557,23,22,14,0:
0000
0000
0000
0000
,
0000
0000
0000
0000
,
0000
0000
0000
0000
,
0000
0000
0000
0000
,
0010
0000
0001
0010
0000
0001
0010
0000
0001
0000
0010
0000
0001
0000
0100
0000
,
0010
0000
1000
0010
0000
1000
0010
0000
1000
0000
0001
0000
0100
0000
0001
0000
,
0010
0000
0001
0010
0000
0001
0010
0000
0001
0000
0100
0000
0010
0000
1000
0000
,
0100
1000
0010
0100
1001
0000
0000
0000
,
1000
0000
1000
0000
0001
0000
1000
0000
0100
0000
1000
0100
0000
1000
0010
0000
,
0100
0000
0100
0000
0010
0000
0100
0000
0001
0000
0010
0001
0000
0010
0001
0000
,
0100
0000
0100
0000
0010
0000
1000
0000
0100
0000
1000
0100
0000
1000
0100
0000
,
1000
0001
0100
0010
0100
0001
0001
0001
,
1000
0000
0000
0100
1000
0000
0010
0000
0100
0000
0000
0001
0010
0000
0001
0000
,
0100
0000
0000
0010
0100
0000
0010
0000
1000
0000
0100
0000
1100
0000
0000
0000
,
1000
0000
0000
0001
0010
0000
0001
0000
0100
0000
0000
0010
0100
0000
0010
0000
,
1000
0000
0000
0100
0000
0000
1000
0000
0000
0010
0000
0000
0200
0000
0000
0000
0000
0000
0002
0000
0000
0000
0303
0000
,
0010
0001
0010
0001
0100
0000
0010
0000
1000
0100
1000
0100
1000
0000
0010
0000
,
0100
0010
0100
0010
0100
0000
0001
0000
0010
0000
0100
0000
1000
0000
0100
0000
,
0010
0001
0010
0001
0010
0000
0001
0000
0100
0010
0100
0010
0100
0000
0010
0000
,
1000
0100
0001
0100
1000
0100
2000
0000
,
3001
0000
1000
0000
0100
0000
1000
0000
0110
0000
0000
1100
0000
0000
1001
0000
,
0000
0100
0010
1000
0010
1000
0001
0001
,
0000
0000
1000
0000
1000
0000
0010
0000
1100
0000
0000
0011
0000
0000
1100
0000
,
0000
0001
0100
0010
0100
0001
0011
0000
,
1000
0000
0100
1000
0010
0000
0100
0010
0100
0000
0001
0100
0001
0000
1000
0001
,
1000
0010
0100
0001
0200
0001
0301
0000
,
1000
0000
0010
1000
0010
0000
0100
0010
0100
0000
0001
0100
0001
0000
1000
0001
,
1000
0000
0010
0000
1000
0001
1000
0001
2000
0000
0000
0000
3010
0000
0000
0000
,
0100
0000
0010
1000
0010
0000
0100
0010
0100
0000
0001
0100
0001
0000
0010
0001
,
1000
0010
1000
0010
0100
0001
0011
0000
,
1000
1000
0010
0100
0001
0001
0100
0010
,
1000
0100
0001
0100
2000
0000
3001
0000
,
0001
0000
0000
0010
0001
0000
0100
0000
0010
0000
0000
1000
0100
0000
1000
0000
,
0010
0000
0000
0100
0010
0000
0100
0000
0001
0000
0010
0000
0011
0000
0000
0000
,
0001
0000
0100
0000
0010
0000
0001
0000
0200
0000
0000
2300
0000
0000
3020
0000
,
0032
0000
0000
0203
0000
0000
2300
0000
3002
0000
0000
0000
1003
0000
0000
0000
,
0100
1000
0100
1000
0010
0000
0100
0000
0001
0010
0001
0010
0001
0000
0100
0000
,
0010
0100
0010
0100
0010
0000
1000
0000
0100
0010
0100
1000
0010
0100
0001
0100
,
0001
0010
0001
0010
0001
0000
1000
0000
0010
0100
0010
0100
0010
0000
0100
0000
,
0001
0010
0001
0010
0001
0100
0001
0100
0001
0010
0001
0010
0002
0000
0000
0000
,
1003
0000
0001
0000
0010
0000
0001
0000
0110
0000
0000
0011
0000
0000
1001
0000
,
0000
M00M
0000
0000
0010
0000
0000
0000
0100
0000
0000
0000
0001
0000
0000
0000
0100
0000
0000
0000
0001
0000
0000
0000
1000
0000
0000
0000
1000
0000
0000
0000
,
0000
MMMM
0000
0000
0001
0000
0000
0000
0001
0000
0000
0000
0100
0000
0000
0000
0011
0000
0000
0000
0000
0000
1100
0000
0000
0000
0000
0000
0011
0000
0000
0000
,
0000
MMMM
0000
0000
1000
0000
0000
0000
0010
0000
0000
0000
0100
0000
0000
0000
0010
0000
0000
0000
0010
0000
0000
0000
1100
0000
0000
0000
0000
MMMM
0000
0000
,
0001
0000
0010
0001
0100
0000
0010
0100
0010
0000
1000
0010
1000
0000
0001
1000
,
0001
0100
0010
1000
0020
1000
1030
0000
,
0001
0000
0100
0001
0100
0000
0010
0100
0010
0000
1000
0010
1000
0000
0001
1000
,
0001
0000
0100
0000
0001
1000
0001
1000
0002
0000
0000
0000
0103
0000
0000
0000
,
0010
0000
0100
0001
0100
0000
0010
0100
0010
0000
1000
0010
1000
0000
0100
1000
,
0001
0100
0001
0100
0010
1000
1100
0000
,
0001
0001
0100
0010
1000
1000
0010
0100
,
0001
0010
1000
0010
0002
0000
1003
0000
,
1000
0100
1000
0000
1000
0000
0000
0000
0100
0010
0100
0000
0100
0000
0000
0000
,
0100
0010
0100
0000
1000
0100
1000
0000
0010
0001
0010
0000
0002
0000
0000
0000
,
1003
0010
1000
0000
1100
0000
0000
0000
0010
0100
0010
0000
0110
0000
0000
0000
,
1000
0100
1000
0001
0100
0001
0100
0001
1000
0000
0010
0000
0200
0000
0000
0000
,
0310
1000
0010
0000
1000
0000
0000
0000
0010
0100
0010
0000
0100
0000
0000
0000
,
0001
0100
0010
0000
1000
0010
1000
0000
0100
1000
0100
0000
2000
0000
0000
0000
,
3001
0100
0001
0000
0011
0000
0000
0000
0100
0010
0100
0000
0110
0000
0000
0000
,
0001
0010
0001
0100
0010
1000
0001
1000
0010
0100
0001
1000
0002
0000
0000
0000
,
1003
0000
1000
0000
0001
0000
1000
0000
0100
0000
1000
0100
0000
1000
0010
0000
,
0100
0000
0100
0000
0010
0000
0100
0000
0001
0000
0010
0001
0000
0010
0001
0000
,
0100
0000
0100
0000
0010
0000
1000
0000
0100
0000
1000
0100
0000
1000
0100
0000
,
1000
0001
0100
0010
0100
0001
0100
0002
,
0013
0000
0010
0000
0001
0000
0100
0000
0010
0000
1000
0100
0000
1000
0010
0000
,
0100
0000
0100
0000
0010
0000
0100
0000
0001
0000
0010
0001
0000
0010
0001
0000
,
1000
0000
1000
0000
0010
0000
1000
0000
0100
0000
1000
0100
0000
1000
0100
0000
,
1000
0001
0100
0010
0100
0001
1000
0100
;

//--------------- dance-double - K. Ward ----------------
#NOTES:
     dance-double:
     K. Ward:
     Easy:
     3:
     0.220238,0.254063,0.175,0,0,185,164,21,0,0,0,0.220238,0.254063,0.175,0,0,185,164,21,0,0,0:
00000000
00000000
00000000
00000000
,
00000000
00000000
00000000
00000000
,
00000000
00000000
00000000
00000000
,
00000000
00000000
00000000
00000000
,
00000010
00000000
00010000
00000000
,
00001000
00000000
00100000
00000000
,
00010000
00000000
10000000
00000000
,
10010000
00000000
00000000
00000000
,
10000000
00100000
00100000
00000000
,
01000000
00010000
00010000
00000000
,
00100000
00001000
00001000
00000000
,
00011000
00000000
00001100
00000000
,
00001000
00000000
00000010
00000000
,
00001000
00000000
00000100
00000000
,
00010000
00000000
00001000
00000000
,
01000000
00100000
00100000
00000000
,
10000000
00000000
00010000
00000000
,
00100000
00000000
00001000
00000000
,
00010000
00000000
00000010
00000000
,
00001000
00001000
00001001
00000000
,
00000001
00000001
00000000
00000000
,
00001000
00001000
00000000
00000000
,
00000010
00000010
00000000
00000000
,
00011000
00000000
00011000
00000000
,
00100000
00000000
00010000
00000000
,
10000000
10000000
10000000
00000000
,
00100000
00000000
10000000
00000000
,
01000000
01000000
01000000
00000000
,
00100000
00000000
00001000
00000000
,
00010000
00010000
00010000
00000000
,
00000010
00000000
00001000
00000000
,
00000010
00000100
00000110
00000000
,
00001000
00000100
00010000
00000000
,
00001000
00100000
00010000
00000000
,
10000000
00000000
01100000
00000000
,
00010000
00010000
10000000
00000000
,
10010000
00000000
00110000
00000000
,
00011000
00000000
00100000
00010000
,
10000000
00000000
10010000
00000000
,
00010000
01000000
00011000
00000000
,
01000000
01000000
00000000
00000000
,
00010000
00010000
00000000
00000000
,
10000000
10000000
00000000
00010000
,
00110000
00000000
00011000
00000000
,
00100000
00010000
00010000
00000000
,
01000000
01000000
01000000
00000000
,
00100000
10000000
10000000
00000000
,
00010000
00010000
00010000
00000000
,
00100000
00001000
00010000
00000000
,
00000010
00000010
00000010
00000000
,
00001001
00000000
00000001
00000000
,
00000100
00000011
00000011
00000000
,
00001000
00000001
00000100
00000000
,
00000010
00001000
00000100
00000000
,
00010000
00000100
00010000
00010000
,
00001000
00010000
00010000
00000000
,
00000010
00000100
00000100
00000000
,
00000001
00000001
00001000
00000010
,
00001000
00000000
00011000
00000000
,
01000000
00010000
10010000
00000000
,
10000000
00100000
00100000
00000000
,
01000000
00010000
00010000
00000000
,
00100000
00001000
00001000
00000000
,
00010000
00001000
00011000
00000000
,
00100000
00000000
00001000
00000000
,
00010000
00000000
00000100
00000000
,
00001000
00000000
00000001
00000000
,
00001000
00000001
00000001
00001000
;

//--------------- dance-double - K. Ward ----------------
#NOTES:
     dance-double:
     K. Ward:
     Medium:
     5:
     0.32619,0.395208,0.191667,0.075,0,274,251,23,9,0,0,0.32619,0.395208,0.191667,0.075,0,274,251,23,9,0,0:
00000000
00000000
00000000
00000000
,
00000000
00000000
00000000
00000000
,
00000000
00000000
00000000
00000000
,
00000000
00000000
00000000
00000000
,
00000002
00000000
00000013
00000000
,
00000200
00000000
00001300
00000000
,
00020000
00000000
00130000
00000000
,
01000000
10000000
11000000
00000000
,
10000000
00010000
00100000
00100000
,
00001000
00010000
00000100
00000100
,
00001000
00000010
00001000
00001000
,
00000100
00010000
00011000
00000000
,
00000100
00001100
00010000
00011000
,
00100000
00000000
01000000
00000000
10000000
00100000
10000000
00000000
,
00010000
00110000
00001000
00011000
,
00000010
00000000
00001000
00000010
00001100
00000000
00000000
00000000
,
00000001
00001000
00000100
00011000
,
00000010
00010000
00001000
00110000
,
10000000
00010000
00100000
00001000
,
00020000
00000000
00001000
00031000
,
10000000
01000000
00100000
00001000
,
00010000
00001000
00000100
00000001
,
00000001
00000010
00000100
00010000
,
00011000
00000000
01010000
00000000
,
10000000
00010000
01000000
00001000
,
00010000
00000000
00000010
00000000
00001000
00000001
00000100
00000000
,
00000001
00001000
00000010
00010000
,
00001000
00100000
00010000
00100000
00010000
00000000
00000000
00000000
,
10000000
00010000
01000000
00001000
,
00010000
00000000
00000010
00000000
00001000
00000001
00000100
00000000
,
00000001
00001000
00000010
00010000
,
00001000
00010000
00011000
00000000
,
10000000
00100000
01000000
00010000
,
00100000
00000000
00001000
00000000
00010000
00001000
00010000
00000000
,
00000010
00001000
00000100
00010000
,
00002000
00100000
00013000
00000000
,
00000010
00001000
00000010
00000000
00001000
00000000
00000100
00000000
,
00010000
00001000
00010000
00000000
00000100
00000000
00000100
00000000
,
00010000
00001000
00001000
00000000
00100000
00010000
00010000
00000000
,
02000000
00000000
00010000
03010000
,
10000000
01000000
00100000
00001000
,
00010000
00001000
00000100
00000001
,
00000001
00000010
00000100
00010000
,
00011000
00000000
00000110
00000000
,
00000001
00001000
00000010
00010000
,
00001000
00000000
01000000
00000000
00010000
10000000
00100000
00000000
,
10000000
00010000
01000000
00001000
,
00010000
00000100
00001000
00000100
00001000
00000000
00000000
00000000
,
00000001
00001000
00000010
00010000
,
00001000
00000000
01000000
00000000
00010000
10000000
00100000
00000000
,
10000000
00010000
01000000
00001000
,
00010000
00001000
00010000
00000000
00011000
00000000
00000000
00000000
,
00001000
00100000
00010000
00000000
01000000
00100000
10000000
00000000
,
00010000
01000000
00010000
00010000
,
00100000
00001000
00010000
00000010
,
00001000
00000100
00001000
00000000
00001100
00000000
00000000
00000000
,
00000001
00000010
00000001
00000000
00001000
00000000
00000100
00000000
,
00010000
00001000
00100000
00010000
01000000
00000000
01000000
00000000
,
00010000
00100000
00001000
00110000
,
00011000
00001100
00011000
00000000
,
01000000
01000000
01000000
00010000
,
00100000
00100000
00001000
00010000
,
00000010
00001000
00001000
00000001
,
00000001
00000100
00000010
00001100
,
00000020
00000000
00001030
00000000
,
00000200
00000000
00010300
00010000
,
00002000
00000000
00103000
00000000
,
00001000
00100000
00011000
00011000
;

//--------------- dance-double - K. Ward ----------------
#NOTES:
     dance-double:
     K. Ward:
     Hard:
     8:
     0.542857,0.565625,0.208333,0.141667,0.266667,456,431,25,17,0,0,0.542857,0.565625,0.208333,0.141667,0.266667,456,431,25,17,0,0:
00000000
00000000
00000000
00000000
,
00000000
00000000
00000000
00000000
,
00000000
00000000
00000000
00000000
,
00000000
00000000
00000000
00000000
,
10000000
00000000
00000000
01000000
00000000
00000000
00100000
00000000
01000000
00000000
00000000
10000000
00000000
00000000
00010000
00000000
,
00100000
00000000
00000000
00001000
00000000
00000000
00010000
00000000
00000010
00000000
00000000
00001000
00000000
00000000
00000010
00000000
,
00001000
00000000
00000000
00000001
00000000
00000000
00000100
00000000
00000010
00000000
00000000
00010000
00000000
00000000
00001000
00000000
,
00010000
00001000
00011000
00000000
,
00000001
00000000
00000000
00000000
00001000
00000000
00000010
00000000
00010000
00000000
00000000
00001000
00000000
00000000
00010000
00000000
,
00000100
00000000
00000000
00000000
00010000
00000000
00001000
00000000
00100000
00000000
00000000
00010000
00000000
00000000
01000000
00000000
,
00010000
00000000
00000000
00000000
10000000
00000000
00100000
00000000
01000000
00000000
00000000
00010000
00000000
00000000
00100000
00000000
,
00001000
00010000
00101000
00000000
,
00100000
00010000
00110000
00000000
00001000
00010000
00011000
00000000
,
00000100
00001000
00000010
00000100
00000001
00000100
00001001
00000000
,
00000001
00001000
00001100
00000000
00010000
00001000
00011000
00000000
,
00010000
00001000
01000000
00100000
10000000
00000000
10010000
00000000
,
00100000
00010000
00100000
00010000
00100000
00000000
00000000
00000000
00001000
00000000
00000000
00000000
00011000
00000000
00000000
00000000
,
00000100
00001000
00000100
00001000
00000100
00000000
00000000
00000000
00001001
00000000
00000000
00000000
00001001
00000000
00000000
00000000
,
00000001
00000010
00000001
00000010
00000001
00000000
00000000
00000000
00010000
00000000
00000000
00000000
00011000
00000000
00000000
00000000
,
00010000
00001000
01000000
00100000
10000000
00100000
11000000
00000000
,
10000000
00100000
01000000
00010000
00200000
00001000
00301000
00000000
,
00010000
00000100
00001000
00000010
00000200
00000001
00000301
00000000
,
00000001
00000100
00000010
00001000
00000200
00010000
00010300
00000000
,
00001000
00100000
00010000
01000000
00100000
00100000
10100000
00000000
,
10000000
00000000
00000000
10000000
00010000
00000000
00000000
00010000
01000000
00000000
00000000
01000000
00001000
00000000
00000000
00001000
,
00010000
00000000
00000000
00010000
00000010
00000000
00001000
00000000
00000020
00000000
00000000
00000000
00000130
00000000
00000000
00000000
,
00000001
00000000
00000000
00000001
00001000
00000000
00000000
00001000
00000010
00000000
00000000
00000010
00010000
00000000
00000000
00010000
,
00001000
00010000
00001000
00100000
00020000
00000000
01030000
00000000
,
10000000
00000000
00000000
10000000
00010000
00000000
00000000
00010000
01000000
00000000
00000000
01000000
00001000
00000000
00000000
00001000
,
00100000
00000000
00000000
00100000
00010000
00000000
00000000
00010000
10000000
00000000
00100000
00000000
20000000
00000000
00000000
00000000
,
30100000
01000000
00010000
00100000
00001000
00010000
00000010
00001000
,
00000010
00000010
00002000
00003001
,
00001000
00000100
00000010
00000000
00000001
00000010
00000100
00000000
,
00010000
00001000
00100000
00010000
01000000
01000000
01010000
00000000
,
00010000
00000000
00001000
00000000
00000100
00000000
00000010
00000000
00000001
00000000
00000000
00001000
00000000
00000000
00000010
00000000
,
00001000
00000000
00000000
00000100
00000000
00000000
00010000
00000000
00020000
00000000
00000000
00000000
00031000
00000000
00000000
00000000
,
10000000
00100000
10000000
00100000
10000000
00000000
00000000
00000000
00010000
00000000
00000000
00000000
00100000
00000000
00000000
00000000
,
00001000
00010000
00001000
00010000
00001000
00000000
00000000
00000000
00100000
00000000
00010000
00000000
01010000
00000000
00000000
00000000
,
00010000
01000000
00010000
00100000
00001000
00010000
00000010
00001000
,
00000000
00000000
00001000
00000000
00000001
00000000
00000100
00000000
00000010
00000000
00000000
00001000
00000000
00000000
00001100
00000000
,
00000000
00000001
00000010
00000001
00002000
00000010
00003010
00000000
,
00010000
00001000
00100000
00010000
02000000
00010000
03010000
00000000
,
10000000
00100000
01000000
00010000
00200000
00001000
00301000
00000000
,
00010000
00000100
00001000
00000010
00000100
00000100
00000101
00000000
,
00000001
00000000
00000000
00000001
00001000
00000000
00000000
00001000
00000010
00000000
00000000
00000010
00010000
00000000
00000000
00010000
,
00001000
00000000
00000000
00001000
01000000
00000000
00010000
00000000
02000000
00000000
00000000
00000000
03100000
00000000
00000000
00000000
,
10000000
00000000
00000000
10000000
00010000
00000000
00000000
00010000
01000000
00000000
00000000
01000000
00001000
00000000
00000000
00001000
,
00010000
00001000
00010000
00000010
00002000
00000000
00003100
00000000
,
00010000
00000000
00000000
00010000
00001000
00000000
00000000
00001000
00100000
00000000
00000000
00100000
00010000
00000000
00000000
00010000
,
10000000
00000000
00000000
10000000
00010000
00000000
00000000
00010000
01000000
00000000
00010000
00000000
02000000
00000000
00000000
00000000
,
03010000
00100000
00001000
00010000
00000010
00000100
00000001
00000010
,
00000011
00000110
00001001
00000000
,
00001000
00000000
00000100
00000000
00010000
00000000
00001000
00000000
00100000
00000000
00010000
00000000
10000000
01000000
10000000
00000000
,
00010000
00000000
00100000
00000000
00001000
00000000
00010000
00000000
00000010
00000000
00001000
00000000
00000001
00000010
00000001
00000000
,
00000100
00000000
00000010
00000000
00001000
00000000
00000100
00000000
00010000
00000000
00001000
00000000
00100000
00010000
00100000
00000000
,
00002000
00010000
00013000
00000000
00020000
00001000
00031000
00000000
,
00001000
00000000
00010000
00000000
00000010
00000000
00001000
00000000
00000001
00000000
00001000
00000000
00000001
00000010
00000001
00000000
,
00001000
00000000
00000100
00000000
00010000
00000000
00001000
00000000
01000000
00000000
00010000
00000000
10000000
01000000
10000000
00000000
,
00100000
00000000
01000000
00000000
00010000
00000000
00100000
00000000
00001000
00000000
00010000
00000000
00000100
00001000
00000100
00000000
,
00110000
00001100
00011000
00000000
,
10000000
00000000
01000000
00000000
10000000
00000000
00100000
00000000
01000000
00000000
00000000
00010000
00000000
00000000
00100000
00000000
,
00001000
00000000
00001000
00000000
00010000
00000000
00000010
00000000
00001000
00000000
00000000
00000010
00000000
00000000
00001000
00000000
,
00000001
00000000
00000001
00000000
00001000
00000000
00000010
00000000
00001000
00000000
00000000
00000100
00000000
00000000
00010000
00000000
,
00001000
00001000
00100000
00010000
10000000
01000000
20000000
00000000
,
30010000
00000000
00010000
00000000
01000000
00000000
00010000
00000000
00100000
00000000
00000000
00001000
00000000
00000000
00010000
00000000
,
00000000
00000000
00010000
00000000
00000100
00000000
00001000
00000000
00000010
00000000
00000000
00001000
00000000
00000000
00000001
00000000
,
00000010
00000000
00000001
00000000
00000100
00000000
00000010
00000000
00001000
00000000
00000000
00000010
00000000
00000000
00001000
00000000
,
00000000
00001000
00000010
00010000
00001000
00100000
00010000
01010000
;

//--------------- dance-double - K. Ward ----------------
#NOTES:
     dance-double:
     K. Ward:
     Challenge:
     9:
     0.710714,0.707031,0.475,0.216667,0.625,597,540,57,26,31,0,0.710714,0.707031,0.475,0.216667,0.625,597,540,57,26,31,0:
00000000
00000000
00000000
00000000
,
00000000
00000000
00000000
00000000
,
00000000
00000000
00000000
00000000
,
00000000
00000000
00000000
00000000
,
00100000
00000000
00010000
00100000
00000000
00001000
00010000
00000000
00000010
00000000
00000100
00000001
00000000
00000100
00000010
00000000
,
00001000
00000000
00000100
00001000
00000000
00000010
00001000
00000000
00000110
00000000
00000000
00000000
00011000
00000000
00000000
00000000
,
00001000
00000000
00100000
00010000
00000000
01000000
00100000
00000000
10000000
00000000
00100000
10000000
00000000
00100000
01000000
00000000
,
00010000
00100000
00001000
00010000
00011000
00000000
00000000
00000000
,
10000000
00000000
00100000
00000000
01000000
00000000
00010000
00000000
00100000
00000000
00010000
00100000
00000000
00001000
00010000
00000000
,
00001000
00000000
00010000
00000000
00001000
00000000
00010000
00000000
00000100
00000000
00001000
00000100
00000000
00001000
00000100
00000000
,
00010000
00000000
00010000
00000000
00001000
00000000
00100000
00000000
00010000
00000000
00100000
00010000
00000000
01000000
00100000
00000000
,
10000000
00100000
00010000
00001000
00010000
00001000
00200000
00000000
,
00301000
00010000
00001000
00000000
00011000
00000000
00000000
00000000
00000010
00001000
00000010
00000000
00001010
00000000
00000000
00000000
,
00000001
00000010
00000001
00000000
00000010
00000100
00000010
00000000
00001000
00010000
00001000
00000000
00011000
00000000
00000000
00000000
,
00010000
01000000
00100000
00000000
01100000
00000000
00000000
00000000
00001000
00100000
00001000
00000000
00011000
00000000
00000000
00000000
,
00000100
00001000
00000100
00000000
00010000
00001000
00010000
00000000
00001000
00000000
00100000
00000000
00110000
00000000
00MM0000
00000000
,
10000000
01000000
10000000
00100000
02000000
00000000
00010000
00000000
03010000
00100000
00010000
00100000
00020000
00000000
00100000
00000000
,
00130000
00001000
00100000
00001000
00020000
00000000
00001000
00000000
00031000
00000000
00100000
00000000
00010000
00000000
00100000
00000000
,
01000000
10000000
01000000
10000000
01000000
00000000
10000000
00000000
00100000
01000000
00100000
01000000
00100000
00000000
01000000
00000000
,
00100000
00010000
00001000
00010000
00000010
00001000
00000002
00000000
,
00001003
00000000
00000100
00000000
00010000
00000000
00001000
00000000
00110000
00000000
00000000
00011000
00000000
00000000
01010000
00000000
,
00000000
01000000
00100000
00010000
00001000
00010000
00000100
00000100
,
00000000
00000000
00010000
00000000
00001000
00000000
00100000
00000000
00110000
00000000
00000000
00011000
00000000
00000000
01010000
00000000
,
00000000
00010000
10000000
00100000
01100000
00000000
00110000
00000000
,
10000000
00100000
01000000
00000000
00020000
00000000
00000000
00000000
01030000
00100000
01000000
00000000
00020000
00000000
00000000
00000000
,
00130000
00000000
00001000
00010000
00000000
00001000
00010000
00000000
00000100
00000000
00001000
00000000
00001100
00000000
00000000
00000000
,
00000001
00000100
00000010
00000000
00002000
00000000
00000000
00000000
00003010
00000100
00000010
00000000
00002000
00000000
00000000
00000000
,
00003100
00000000
00000000
00000000
00010000
00000000
00001000
00000000
00000000
00000000
00100000
00000000
00010000
00000000
00000000
00000000
01100000
00000000
00000000
00000000
00000000
00MM0000
00000000
00000000
00110000
00000000
00000000
00000000
00000000
00MM0000
00000000
00000000
,
10000000
00100000
01000000
00000000
00020000
00000000
00000000
00000000
01030000
00100000
01000000
00000000
00020000
00000000
00000000
00000000
,
00130000
00000000
00001000
00010000
00000000
00001000
00010000
00000000
00000100
00000000
00001000
00000000
00001100
00000000
00000000
00000000
,
00000001
00000100
00000010
00000000
00002000
00000000
00000000
00000000
00003010
00000100
00000010
00000000
00002000
00000000
00000000
00000000
,
00003100
00010000
00001000
00010000
00001000
00000000
00010000
00000000
00011000
00000000
00000000
00000000
00000000
00000000
00000000
00000000
,
00000001
00001000
00000010
00000000
00001100
00000000
00000000
00000000
00010000
00000100
00010000
00000000
00011000
00000000
00000000
00000000
,
00000001
00000010
00000001
00000000
00000010
00000100
00000010
00000000
00001000
00010000
00001000
00000000
00011000
00000000
00000000
00000000
,
01000000
00010000
01000000
00000000
01100000
00000000
00000000
00000000
00001000
00100000
00001000
00000000
00011000
00000000
00000000
00000000
,
00001100
00000000
00000000
00011000
00000000
00000000
00110000
00000000
10100000
00000000
00000000
00000000
00110000
00000000
00MM0000
00000000
,
00010000
01000000
00010000
01000000
00010000
00000000
00010000
00000000
10000000
00100000
10000000
00100000
10000000
00000000
10000000
00000000
,
00010000
00100000
00010000
00000000
01000000
00100000
01000000
00000000
00100000
01000000
00100000
01000000
00020000
00000000
10000000
00000000
,
10030000
00100000
10000000
00100000
10000000
00000000
00100000
00000000
01000000
00100000
01000000
00100000
01000000
00000000
00010000
00000000
,
00100000
00010000
00100000
00000000
00001000
00010000
00001000
00000000
00010000
00000100
00001000
00000100
00002000
00000000
00000000
00000000
,
00003010
00000000
00001000
00000000
00000001
00000000
00000100
00000000
00000011
00000000
00000000
00001100
00000000
00000000
00110000
00000000
,
00000000
00M00M00
00000000
00000000
00001000
00000000
00000000
00000000
00010000
00000000
00000000
00000000
00001000
00000000
00000000
00000000
00100000
00000000
00000000
00000000
00010000
00000000
00000000
00000000
02000000
00000000
00000000
00000000
00010000
00000000
00000000
00000000
,
00000000
00MMMM00
00000000
00000000
00010000
00000000
00000000
00000000
03010000
00000000
00000000
00000000
00100000
00000000
00000000
00000000
00011000
00000000
00000000
00000000
00000000
00000000
00110000
00000000
00000000
00000000
00000000
00000000
11000000
00000000
00000000
00000000
,
00000000
00MMMM00
00000000
00000000
00100000
00000000
00000000
00000000
10000000
00000000
00000000
00000000
00010000
00000000
00000000
00000000
00110000
00000000
00000000
00000000
00000000
00000000
00000000
00000000
00011000
00000000
00000000
00000000
00000000
00000000
00000000
00000000
,
00000001
00000100
00000010
00000000
00002000
00000000
00000000
00000000
00003010
00000100
00000010
00000000
00002000
00000000
00000000
00000000
,
00003100
00000000
00010000
00001000
00000000
00010000
00001000
00000000
00100000
00000000
00010000
00000000
00110000
00000000
00000000
00000000
,
10000000
00100000
01000000
00000000
00020000
00000000
00000000
00000000
01030000
00100000
01000000
00000000
00020000
00000000
00000000
00000000
,
00130000
00000000
00000000
00000000
00001000
00000000
00010000
00000000
00000000
00000000
00000100
00000000
00001000
00000000
00000000
00000000
00000110
00000000
00000000
00000000
00000000
0000MM00
00000000
00000000
00001100
00000000
00000000
00000000
00000000
0000MM00
00000000
00000000
,
00000001
00000100
00000010
00000000
00002000
00000000
00000000
00000000
00003010
00000100
00000010
00000000
00002000
00000000
00000000
00000000
,
00003100
00000000
00010000
00001000
00000000
00010000
00001000
00000000
00100000
00000000
00010000
00000000
00110000
00000000
00000000
00000000
,
10000000
00100000
01000000
00000000
00020000
00000000
00000000
00000000
01030000
00100000
01000000
00000000
00020000
00000000
00000000
00000000
,
00130000
00000000
00001000
00000000
00010000
00000000
00001000
00000000
00010000
00000000
00000000
00000000
00001000
00000000
00000000
00000000
00011000
00000000
00000000
00000000
00000000
000MM000
00000000
00000000
00110000
00000000
00000000
00000000
00000000
00MM0000
00000000
00000000
,
10000000
00100000
01000000
00010000
00100000
00000000
00000000
00000000
00010000
00100000
00001000
00010000
00001000
00000000
00000000
00000000
,
00100000
00000000
00001000
00010000
00000000
00000010
00001000
00000000
00000001
00000000
00001000
00000000
00001100
00000000
00000000
00000000
,
00000001
00000100
00000010
00001000
00000100
00000000
00000000
00000000
00000010
00001000
00000100
00010000
00001000
00000000
00000000
00000000
,
00100000
00000000
00000000
00000000
00010000
00000000
01000000
00000000
00000000
00000000
00100000
00000000
10000000
00000000
00000000
00000000
11000000
00000000
00000000
00000000
00100000
00000000
00000000
00000000
01100000
00000000
00000000
00000000
00000000
0MM00000
00000000
00000000
,
10000000
00100000
01000000
00010000
00100000
00000000
00000000
00000000
00010000
00100000
00001000
00010000
00001000
00000000
00000000
00000000
,
00010000
00000000
00000010
00001000
00000000
00000100
00010000
00000000
00011000
00000000
00011000
00000000
00011000
00000000
00000000
00000000
,
00000001
00000100
00000010
00001000
00000100
00000000
00000000
00000000
00001000
00000100
00010000
00001000
00100000
00000000
00000000
00000000
,
00011000
00000000
00000000
00000000
00010000
00000000
00001000
00000000
00000000
00000000
00100000
00000000
00010000
00000000
00000000
00000000
01100000
00000000
00000000
00000000
00000000
00000000
00000000
00000000
00110000
00000000
00000000
00000000
00000000
0MMM0000
00000000
00000000
,
10000000
00000000
00010000
00100000
00000000
00100000
00001000
00000000
00010000
00000000
00000100
00001000
00000000
00001000
00000010
00000000
,
00001000
00000000
00000100
00001000
00000000
00001000
00000010
00000000
00001000
00000000
00000010
00000000
00000100
00000000
00000001
00000000
,
00001000
00000000
00000100
00010000
00000000
00010000
00001000
00000000
01000000
00000000
00100000
10000000
00000000
10000000
00100000
00000000
,
01000000
00010000
00100000
00001000
00021000
00001000
00001000
00031000
,
00010000
00000000
00010000
00001000
00000000
00001000
00010000
00000000
00000010
00000000
00000100
00000001
00000000
00000001
00000100
00000000
,
00000010
00000000
00001000
00000010
00000000
00000010
00001000
00000000
00000010
00000000
00010000
00000000
00001000
00000000
00010000
00000000
,
00001000
00000000
00100000
00010000
00000000
00010000
01000000
00000000
00100000
00000000
10000000
00100000
00000000
00100000
01000000
00000000
,
00010000
00100000
00001000
00010000
00002000
00100000
00103000
00110000
;

//--------------- lights-cabinet - ----------------
#NOTES:
     lights-cabinet:
     :
     Easy:
     1:
     0.44881,0.650519,0.45,0.166667,0,377,285,54,20,0,27,0.44881,0.650519,0.45,0.166667,0,377,285,54,20,0,27:
000000
000000
000000
000000
,
000000
000000
000000
000000
,
200200
000000
311300
000000
,
022000
000000
133100
000000
,
000100
010000
001000
100000
,
100000
001000
010000
000100
,
000100
010000
001000
100000
,
011000
011000
111100
000000
,
100000
100000
000100
000100
,
010000
010000
001000
001000
,
100000
100000
000100
000100
,
010000
010000
000200
111300
,
100000
000000
100000
000000
100000
010000
100000
000000
,
001000
000000
001000
000000
001000
010000
001000
000000
,
100000
000000
100000
000000
100000
010000
100000
000000
,
010100
101100
022000
033000
,
100000
001000
100000
001000
,
010000
000000
000100
000000
010000
000100
010000
000000
,
000100
010000
000100
100000
,
000100
000100
200000
000000
,
300100
000100
001000
010000
,
100000
100000
010000
001000
,
000100
000100
001000
010000
,
100100
011000
111122
000033
,
000100
000000
000100
000000
100000
010000
100000
000000
,
001000
000000
001000
000000
100000
001000
100000
000000
,
000100
000000
000100
000000
001000
000100
001000
000000
,
000100
010000
011000
111111
,
100000
000000
100000
000000
000100
001000
000100
000000
,
010000
000000
010000
000000
000100
010000
000100
000000
,
100000
000000
100000
000000
010000
100000
010000
000000
,
100000
001000
010000
000000
022000
000000
133100
000000
,
100000
000100
010000
000100
,
100000
000000
000100
000000
010000
001000
010000
000000
,
000100
000000
000100
000000
100000
001000
100000
000000
,
010000
000000
100100
000000
011000
100100
111100
000000
,
100000
010000
100000
001100
,
100000
010000
100000
011000
,
211000
011000
311200
011000
,
121300
101000
101100
131100
,
100000
010000
001000
000100
,
000100
001000
010000
100000
,
100000
010000
001000
000100
,
100100
011000
111111
000000
,
100000
000000
100000
000000
000100
001000
000100
000000
,
010000
000000
010000
000000
000100
010000
000100
000000
,
100000
000000
100000
000000
010000
100000
010000
000000
,
100000
001000
011000
000011
,
000100
000000
000100
000000
100000
010000
100000
000000
,
001000
000000
001000
000000
100000
001000
100000
000000
,
000100
000000
000100
000000
001000
000100
001000
000000
,
000100
010000
001000
000000
011000
000000
100122
000000
,
011033
000000
010000
000000
001000
100000
001000
000000
,
010000
000000
000100
000000
001000
000100
001000
000000
,
000100
000000
010000
000000
001000
010000
000100
000000
,
100000
000100
111100
111111
,
001000
000000
100000
000000
001000
010000
000100
000000
,
100000
000000
001000
000000
010000
000100
010000
000000
,
001000
002000
103000
110000
,
000200
101300
111100
011011
,
000100
000100
100000
100000
,
001000
000000
001000
000000
010000
000100
010000
000000
,
000100
000100
100000
100000
,
001000
000000
001000
000000
100000
011000
011000
000000
,
100100
100100
011000
011000
,
100000
000000
000100
000000
010000
001000
010000
000000
,
100000
100000
000100
000100
,
010000
000000
000000
000000
000000
000000
000000
000000
000000
000000
000000
000000
000000
000000
000000
000000
000000
000000
000000
000000
000000
000000
000000
000000
000000
000000
000000
000000
000000
000000
000000
000000
000000
000000
000000
000000
000000
000000
000000
000000
000000
000000
000000
000000
000000
000000
000000
000000
010000
000000
000000
000000
000000
000000
000000
000000
000000
000000
000000
000000
000000
000000
000000
000000
000000
000000
000000
000000
000000
000000
000000
000000
000000
000000
000000
000000
000000
000000
000000
000000
000000
000000
000000
000000
000000
000000
000000
000000
000000
000000
000000
000000
000000
000000
000000
000000
000200
000000
000000
000000
000000
000000
000000
000000
000000
000000
000000
000000
000000
000000
000000
000000
000000
000000
000000
000000
000000
000000
000000
000000
000000
000000
000000
000000
000000
000000
000000
000000
000000
000000
000000
000000
000000
000000
000000
000000
000000
000000
000000
000000
000000
000000
000000
000000
100011
000000
000000
000000
000000
000000
000000
000000
000000
000000
000000
000000
000000
000000
000000
000000
000000
000000
000000
000000
000000
000000
000000
000000
011011
000300
000000
000000
000000
000000
000000
000000
000000
000000
000000
000000
000000
000000
000000
000000
000000
000000
000000
000000
000000
000000
000000
000000
;
