#TITLE:The Beginning;
#SUBTITLE:;
#ARTIST:DJ Doo;
#TITLETRANSLIT:;
#SUBTITLETRANSLIT:;
#ARTISTTRANSLIT:;
#GENRE:;
#CREDIT:;
#MUSIC:The Beginning.ogg;
#BANNER:The Beginning.png;
#BACKGROUND:The Beginning-bg.png;
#CDTITLE:;
#SAMPLESTART:37.320;
#SAMPLELENGTH:11.840;
#SELECTABLE:YES;
#OFFSET:0.760;
#BPMS:0.000=132.300;
#STOPS:;
#BGCHANGES:;
#FGCHANGES:;

//--------------- dance-single - M. Puls ----------------
#NOTES:
     dance-single:
     M. Puls:
     Beginner:
     1:
     0.075823,0.134764,0.016586,0,0,64,62,2,0,0,0,0.075823,0.134764,0.016586,0,0,64,62,2,0,0,0:
0000
0000
0000
0000
,
0000
0000
0000
0000
,
0000
0000
0000
0000
,
0000
0000
0000
0000
,
0000
0000
0000
0000
,
0100
0000
0000
0000
,
0000
0000
0000
0000
,
0010
0000
0000
0000
,
1000
0000
0000
0000
,
0001
0000
0000
0000
,
0010
0000
0000
0000
,
0001
0000
0000
0000
,
0001
0000
0000
0000
,
1000
0000
0000
0000
,
0100
0000
0000
0000
,
1000
0000
0000
0000
,
1000
0000
0000
0000
,
0010
0000
0000
0000
,
0100
0000
0000
0000
,
0010
0000
0000
0000
,
1000
0000
0000
0000
,
0001
0000
0000
0000
,
1000
0000
0000
0000
,
0001
0000
1000
0000
,
0001
0000
0000
0000
,
1001
0000
0000
0000
,
1000
0000
0000
0000
,
0001
0000
0000
0000
,
0001
0000
0000
0000
,
0100
0000
0000
0000
,
0001
0000
0000
0000
,
1000
0000
0000
0000
,
1000
0000
0000
0000
,
0100
0000
0000
0000
,
0001
0000
0000
0000
,
1000
0000
0000
0000
,
0001
0000
0000
0000
,
1000
0000
0000
0000
,
1000
0000
0000
0000
,
0100
0000
0000
0000
,
1000
0000
0000
0000
,
1000
0000
0000
0000
,
0001
0000
0000
0000
,
0001
0000
0000
0000
,
0010
0000
0000
0000
,
0001
0000
0000
0000
,
0001
0000
0000
0000
,
1000
0000
0000
0000
,
0001
0000
1000
0000
,
0001
0000
0000
0000
,
0100
0000
0000
0000
,
0100
0000
0000
0000
,
0100
0000
0000
0000
,
0010
0000
0000
0000
,
0010
0000
0000
0000
,
0010
0000
0000
0000
,
1000
0000
0000
0000
,
0001
0000
0000
0000
,
0100
0000
0000
0000
,
0010
0000
0000
0000
,
1000
0000
0000
0000
,
0001
0000
0000
0000
,
1000
0000
0000
0000
,
0001
0000
0000
0000
,
1000
0000
0000
0000
,
1001
0000
0000
0000
;

//--------------- dance-single - K. Ward ----------------
#NOTES:
     dance-single:
     K. Ward:
     Easy:
     5:
     0.215623,0.269528,0.140984,0,0,182,165,17,0,0,0,0.215623,0.269528,0.140984,0,0,182,165,17,0,0,0:
0000
0000
0000
0000
,
0000
0000
0000
0000
,
0000
0000
0000
0000
,
0000
0000
0000
0000
,
0000
0000
0000
1001
,
1001
0000
0000
0000
,
0000
0000
0000
0000
,
0100
0000
0010
0000
,
1001
0000
0000
0000
,
1000
0001
1000
0001
,
0100
1000
0100
1000
,
1000
0001
1000
0001
,
0010
0100
0010
0001
,
1000
0000
0001
0000
,
0100
0000
0010
0000
,
1000
0000
0001
0000
,
0100
0010
0100
0001
,
0011
0000
0000
1000
,
1100
0000
0000
0001
,
0110
0000
0000
1000
,
1001
0000
0000
0000
,
0010
0000
0100
0000
,
0010
0000
0001
0000
,
1001
0000
1001
0000
,
0100
0010
0100
0010
,
1001
0000
0000
0000
,
0100
0000
0000
0000
,
1001
0000
0000
0000
,
0010
0000
0000
0000
,
1001
0000
0001
0000
,
0100
0000
0001
0000
,
0010
0000
0001
0000
,
1000
0000
0001
0000
,
0100
0010
0100
1000
,
0100
0010
0100
0001
,
1001
0000
1001
0000
,
1000
0001
1000
0001
,
0010
0001
0100
0010
,
1000
0100
1000
0010
,
0100
0001
0010
0001
,
1000
0001
1000
1000
,
0100
0010
0100
1000
,
0010
0001
0010
0100
,
0001
0010
0100
0010
,
0100
1000
0010
0010
,
0100
0000
1000
0000
,
0010
0000
0001
0000
,
1001
0000
1001
0000
,
0001
1000
0001
1000
,
0010
0000
0010
0000
,
0010
0000
0010
0000
,
0100
0000
0100
0000
,
0010
0000
0010
0000
,
0001
0000
0001
0000
,
1000
0000
1000
0000
,
0001
0000
0001
0000
,
0100
0000
0010
0000
,
0100
0100
0100
0100
,
0100
0100
0100
0100
,
1000
0100
0010
0001
,
0010
0100
0001
0001
,
0010
0010
0010
0010
,
0100
0100
0100
0100
,
1000
0001
1000
0001
,
0010
0100
1000
0100
,
1001
0000
0000
0000
;

//--------------- dance-single - K. Ward ----------------
#NOTES:
     dance-single:
     K. Ward:
     Medium:
     7:
     0.347129,0.410512,0.149277,0.15757,0,293,275,18,19,0,0,0.347129,0.410512,0.149277,0.15757,0,293,275,18,19,0,0:
0000
0000
0000
0000
,
0000
0000
0000
0000
,
0000
0000
0000
0000
,
0000
0000
0000
0000
,
0000
0000
0000
1001
,
2000
0000
3100
0000
,
0020
0000
0130
0000
,
2000
0000
3001
0000
,
1001
0000
0000
0000
,
0001
0000
1000
0000
0010
1000
0100
0000
,
0010
0000
0100
0000
1000
0001
0010
0000
,
0001
0000
1000
0000
0010
0100
1000
0000
,
1000
0001
0100
0001
,
1000
0000
0001
0000
0100
0001
0010
0000
,
0100
0000
0010
0000
0001
1000
0001
0000
,
1001
0000
1000
0000
0100
0010
0100
0000
,
1000
0000
1000
0000
0010
0100
0001
0000
,
0011
0000
0000
0000
0001
1000
0001
0000
,
1000
0000
0000
0000
0010
0100
0001
0000
,
0010
0000
0000
0000
0100
1000
0100
0000
,
0010
0001
0010
0000
0100
1000
0100
0000
,
0001
1000
0010
0100
,
0001
1000
0010
0100
,
0011
0000
1001
0000
,
1000
0100
0010
0001
1000
0100
0010
0001
,
2000
3001
0002
1003
,
2000
3001
0001
1001
,
0200
0310
0020
0130
,
0200
0000
0310
0000
0010
0100
0001
0000
,
2000
3001
0002
1003
,
2000
3001
0002
1003
,
0010
0001
0100
1000
,
0010
0001
0100
1000
,
1000
0100
1000
0000
0001
0010
0001
0000
,
0100
0010
0100
0000
0001
0010
0001
0000
,
1000
0000
0001
0000
,
1000
0100
0010
0001
1000
0100
0010
0001
,
1000
0000
0001
0000
0100
0001
0010
0000
,
0001
0000
1000
0000
0010
0100
1000
0000
,
0100
0000
0010
0000
1000
0001
1000
0000
,
0001
1000
0001
0001
,
0010
0000
0100
0000
0010
0001
0010
0000
,
0100
0000
1000
0000
0010
0100
0001
0000
,
0001
0000
1000
0000
0100
1000
0100
0000
,
0010
0100
0010
0001
,
0001
0000
1000
0000
0010
0100
0001
0000
,
0010
0000
0100
0000
0010
0100
1000
0000
,
0110
0000
1001
0000
,
0110
0011
1100
0110
,
0001
1000
0001
0000
0100
0000
0100
0000
,
0010
0100
0010
0000
1000
0000
1000
0000
,
1000
0001
1000
0000
0100
0000
0100
0000
,
0010
0100
0010
0000
0001
0000
0001
0000
,
1000
0001
1000
0000
1000
0000
0100
0000
,
0001
0010
0100
0000
0001
0000
1000
0000
,
0100
0010
0100
0000
1000
0001
0010
0000
,
0001
0100
0010
0000
0100
1000
0100
0000
,
2000
3001
0002
1003
,
2000
3001
0002
1003
,
1000
0001
1000
0000
0100
0010
0100
0000
,
0001
1000
0001
0000
0010
0100
0010
0000
,
1100
0010
0011
1000
,
1100
0001
0011
0000
,
0001
0010
0100
1000
0001
0010
0100
1000
,
0001
0000
1000
0000
0100
0010
0100
0000
,
2002
0000
0000
0000
,
3003
0000
0000
0000
;

//--------------- dance-single - K. Ward ----------------
#NOTES:
     dance-single:
     K. Ward:
     Hard:
     12:
     0.509438,0.602085,0.174157,0.016586,0.149277,430,409,21,2,0,0,0.509438,0.602085,0.174157,0.016586,0.149277,430,409,21,2,0,0:
0000
0000
0000
0000
,
0000
0000
0000
0000
,
0000
0000
0000
0000
,
0000
0000
0000
0000
,
0000
0000
0000
0110
,
1001
0000
0000
0000
0001
0000
0000
0001
0000
0000
0000
0000
0100
0000
0000
0000
,
0010
0000
0000
0000
1000
0000
0000
1000
0000
0000
0000
0000
0100
0000
0000
0000
,
0001
0000
0000
0000
0010
0000
0000
0010
0000
0000
0000
0000
0100
0000
0000
0000
,
1001
0000
0000
0000
,
0001
1000
0001
1000
0001
0010
0001
1000
,
0010
0100
0010
0100
0010
1000
0010
0100
,
0001
0010
0001
0010
0100
1000
0100
1000
,
0010
0100
0001
0100
0010
0100
0001
0000
,
0001
0100
0001
0010
0100
0010
0001
0010
,
0100
1000
0100
0010
0100
1000
0001
1000
,
0100
0010
0100
0010
0001
0010
0001
0010
,
0100
0010
0100
1000
0001
1000
0001
0000
,
0101
0000
0000
0010
0000
0000
0100
0000
0000
0000
0010
0000
0100
0000
0000
0000
,
0001
0000
0000
1000
0000
0000
0100
0000
0000
0000
0010
0000
0100
0000
0000
0000
,
0100
0000
0000
1000
0000
0000
0010
0000
0000
0000
0001
0000
0010
0000
0000
0000
,
0100
0000
0000
0001
0000
0000
0010
0000
0000
0000
0100
0000
0010
0000
0000
0000
,
0001
1000
0001
1000
0100
0010
0100
0010
,
0100
1000
0100
1000
0100
0001
0100
0001
,
0100
0101
0010
1100
,
0110
1001
1001
0000
,
0001
1000
0000
1000
0100
0000
0000
0000
0010
0000
0001
0000
1000
0000
0000
0000
,
0010
0100
0000
0100
0001
0000
0000
0000
0010
0000
0100
0000
1000
0000
0000
0000
,
0100
0010
0000
0010
0100
0000
0000
0000
0010
0000
0001
0000
1000
0000
0000
0000
,
1000
0100
0000
0100
0010
0000
0000
0000
0100
0000
1000
0000
0001
0000
0000
0000
,
0100
0010
0000
0010
0100
0000
0000
0000
0001
0000
0100
0000
0010
0000
0000
0000
,
1000
0100
0000
0100
1000
0000
0000
0000
0100
0000
0010
0000
0001
0000
0000
0000
,
0100
0001
0000
0010
0001
0000
0000
0000
0010
0000
0100
0000
1000
0000
0000
0000
,
0100
0010
0000
0010
0001
0000
0000
0000
1000
0000
1000
0000
1000
0000
0000
0000
,
0010
0100
1000
0000
1000
0100
0001
0000
,
0010
0100
1000
0000
0010
0001
1000
0000
,
0100
0011
0100
1010
,
1001
0110
1001
0000
,
1000
0000
0100
0000
0010
0000
0100
0000
1000
0001
1000
0000
0010
0000
0100
0000
,
0001
0000
0010
0000
0001
0000
0010
0000
0100
0010
0100
0000
1000
0000
0010
0000
,
0100
0000
1000
0000
0100
0000
0001
0000
0010
0001
0010
0000
0001
0000
0010
0000
,
0100
0000
1000
0000
0100
0000
0010
0000
0100
1000
0100
0000
1000
0000
0000
0000
,
0010
0000
0100
0000
0001
0000
0010
0000
0001
0010
0001
0000
0010
0000
0100
0000
,
1000
0000
0010
0000
0100
0000
0010
0000
0100
0001
0100
0000
0010
0000
0100
0000
,
0001
0000
1000
0000
0100
0000
0010
0000
0100
1000
0100
0000
0010
0000
0001
0000
,
0100
0010
0100
0001
0010
0010
0010
0000
,
0100
0000
0000
1000
0000
0000
0010
0000
0000
0000
0100
0000
0001
0000
0000
0000
,
0010
0000
0000
0100
0000
0000
0010
0000
0000
0000
0001
0000
1000
0000
0000
0000
,
1100
0001
0011
0100
,
1010
1100
0110
0101
,
1000
0100
1000
0100
0010
0100
1000
0100
,
0010
0100
1000
0100
0010
0100
1000
0100
,
1000
0001
0100
0001
1000
0001
0100
0001
,
1000
0001
0100
0001
1000
0001
0100
0010
,
0100
0010
0001
0010
0100
0010
0001
0010
,
0100
0010
0001
0010
0100
0010
0001
0010
,
0100
0001
0010
1000
0010
0001
0010
1000
,
0010
0001
0010
1000
0010
0001
0010
1000
,
0010
0001
0100
1000
0100
0010
0001
0010
,
0100
1000
0100
0010
0001
0010
0100
0100
,
0000
0010
0100
0001
0000
0010
0100
1000
,
0000
0100
0010
0001
0000
0100
0010
1000
,
1000
0100
0010
0010
0100
1000
0001
0001
,
0100
0010
0100
0100
0010
1000
0001
0000
,
0010
0100
0010
0000
0001
1000
0001
0000
0100
0010
0100
0000
0001
1000
0001
0000
,
0100
0010
0001
0010
0100
1000
0100
0010
,
2002
0000
0000
0000
,
3003
0000
0000
0000
;

//--------------- dance-single - C. Foy ----------------
#NOTES:
     dance-single:
     C. Foy:
     Challenge:
     17:
     0.928836,0.903127,0.530764,0.597109,1.496919,784,720,64,72,51,0,0.928836,0.903127,0.530764,0.597109,1.496919,784,720,64,72,51,0:
0000
0000
0000
0000
,
0000
0000
0000
0000
,
0000
0000
0000
0000
,
0000
0000
1000
0000
0001
0000
0000
1010
0000
0000
0100
0000
1000
0001
0000
0101
,
0000
0000
0001
0000
1000
0000
0000
0110
0000
0000
0010
0000
M22M
0330
0000
0000
,
2MM2
3003
0010
0000
1000
0010
0000
0100
0000
0000
0001
0000
0010
0100
0000
1000
,
0000
0000
0100
0000
0010
0100
0000
1000
0000
0000
0001
0000
0100
0010
0000
1000
,
0000
0000
0001
0000
1000
0010
0000
0100
0000
0000
0001
0000
0010
0100
0000
0000
,
2MMM
0000
0000
0000
0000
0000
0000
0000
0M2M
0000
0000
0000
0000
0000
0000
0000
0000
0000
3030
0000
0000
0000
0000
0000
MM02
0000
0000
0000
0020
0000
0003
0000
0000
M200
0030
0000
0000
0000
200M
0300
0000
0000
00M0
0000
3000
0000
0000
0000
,
0000
1000
0100
0010
0001
0010
0100
1000
0000
0001
0010
0100
1000
0100
0010
0001
,
0000
1000
0010
0100
0001
0100
0010
0001
0000
0001
0010
0100
1000
0100
0010
1000
,
0000
1000
0100
0010
0100
0001
0100
1000
0000
0001
0010
0100
0010
1000
0010
0001
,
0000
1000
0100
0010
0001
0100
0010
1000
0000
1000
0100
1000
0010
0100
0010
1000
,
0000
0001
0010
0001
0100
0010
0100
0001
0000
0100
0001
0100
0010
1000
0010
0100
,
0000
0001
0010
0100
1000
0100
0010
0001
0000
1000
0010
0100
0001
0100
0010
1000
,
0000
1000
0100
0010
0100
0001
0100
1000
0000
1000
0100
0010
0100
0001
0100
1000
,
0000
1000
0100
0010
0001
0100
0010
1000
0000
1000
0010
0100
0001
1000
0010
0100
,
0000
1000
0100
0010
0001
0010
0100
1000
0000
0001
0010
0100
1000
0100
0010
0001
,
0000
1000
0010
0100
0001
0100
0010
1000
0000
0001
0100
0010
1000
0010
0100
0001
,
0000
1000
0010
0100
0010
1000
0100
1000
0000
0010
0100
0001
1000
0100
1000
0100
,
0000
0100
1000
0001
1000
0010
0001
0010
0000
1000
0100
1000
0010
0001
0010
0100
,
0000
0001
1000
0100
0010
0001
0100
0010
0000
1000
0100
0010
0001
0010
0100
1000
,
0000
1000
0010
0100
0001
0100
0010
1000
0000
1000
0010
0100
0001
0100
0010
0000
,
2MM2
0000
0000
3003
M22M
0000
0000
0330
,
2MM2
3003
M22M
0330
2MM2
3003
M22M
0330
,
1000
0010
1000
0001
0100
0010
1000
0001
0000
0000
2001
0000
0001
3002
0000
1003
,
0000
0000
0210
0000
0001
0302
0000
1003
0000
0000
1002
0000
0100
0203
0000
0310
,
0000
0000
1002
0000
0100
0203
0000
0310
0000
0000
2001
0000
0010
3020
0000
0130
,
0000
0000
0012
0000
1000
2003
0000
3010
0000
0000
2100
0000
0001
3002
0000
0003
,
1000
0010
1000
0100
0010
0100
1000
0001
0000
0000
2001
0000
0100
3100
0000
1001
,
0000
0000
1020
0000
0100
0130
0000
1010
0000
0000
0201
0000
0010
0310
0000
1010
,
0000
0000
0012
0000
1000
1003
0000
1100
0000
0000
0201
0000
0010
0310
0000
1010
,
0000
0000
1002
0000
0100
0103
0000
0101
0000
0000
2001
0000
0010
3010
0000
0010
,
1000
0001
0010
0001
1000
0010
0100
0001
0000
1000
0002
0000
0100
0103
0000
0101
,
0000
1000
0002
0000
0100
0103
0000
0101
0000
0001
2000
0000
0010
3010
0000
0000
,
0202
0000
0000
0303
2020
0000
0000
3030
,
0022
0000
0000
0033
0000
0000
2200
0000
0000
3300
0000
0000
2M0M
0000
0020
000M
3000
0200
M030
0002
0000
M303
0000
0000
,
0000
0001
0010
0100
1000
0100
0010
0001
0000
0001
0010
0100
1000
0100
0010
0001
,
0000
0001
0100
0010
1000
0010
0100
0001
0000
0001
0100
0010
1000
0010
0100
0001
,
0000
0001
0100
0010
0100
1000
0100
0001
0000
0001
0100
0010
0100
1000
0100
0001
,
0000
0001
0010
0100
1000
0010
0100
0001
0000
0100
0010
1000
0100
0010
0001
0100
,
0000
0001
0100
0010
1000
0100
0010
0001
0000
0100
0010
0100
0001
0010
0100
1000
,
0000
0001
0100
0010
1000
0010
0100
0001
0000
1000
0010
0100
0010
1000
0010
0100
,
0000
1000
0100
0010
0100
0001
0100
0010
0000
0001
0010
0100
0010
1000
0010
0100
,
0000
1000
0010
0100
0010
0001
0010
0100
0000
0001
0100
0010
0100
1000
0100
0010
,
0000
0001
0010
0100
0010
1000
0010
0100
0000
1000
0100
0010
0100
0001
0100
0010
,
0000
1000
0100
0001
0100
1000
0010
0001
0000
0001
0010
1000
0100
0001
0100
0000
,
2002
0000
0000
3003
2020
0000
0000
3030
,
0202
0303
0220
0330
2200
3300
0022
0033
,
1000
0001
1000
0100
0010
0001
0100
0010
0100
0001
1000
0100
1000
0010
0100
0001
,
1000
0001
0010
0100
1000
0010
1000
0010
0100
0001
1000
0100
0010
0100
1000
0001
,
1000
0100
0010
0100
0001
0100
0010
0100
1000
0100
1000
0001
0100
0010
0100
1000
,
0100
0010
0100
0001
1000
0100
1000
0001
1000
0001
0100
0010
1000
0100
0010
0001
,
1000
0100
0001
0100
0001
0100
1000
0010
0001
0010
0001
0010
1000
0100
0001
0100
,
1000
0100
0001
0100
1000
0100
1000
0010
0001
0010
1000
0010
0001
0010
0001
0010
,
1000
0100
1000
0010
1000
0010
1000
0010
0100
0001
0010
0001
0100
0001
0010
0001
,
1000
0100
0001
0100
0001
0100
1000
0010
0001
0010
0001
0010
1000
0100
0001
0100
,
1000
0010
0001
0010
1000
0100
0010
0100
1000
0010
0100
0010
1000
0001
1000
0001
,
1000
0010
1000
0100
0010
0001
0100
0010
1000
0100
0010
0001
0010
1000
0010
0001
,
1000
0100
1000
0010
0001
0010
1000
0100
0010
0001
0100
0010
1000
0010
1000
0001
,
0100
0010
1000
0001
0010
0100
0010
0100
0010
0100
1000
0001
1000
0001
1000
0000
,
1100
MM1M
0101
MM1M
1100
MMM1
0101
1MMM
,
1100
MM11
1010
1MM1
1100
M11M
0110
11MM
,
1000
0100
1000
0100
1000
0100
1000
0100
1000
0100
1000
0100
1000
0100
1000
0000
,
1100
1001
0110
0101
1001
0011
0110
1100
,
2002
0000
0000
0000
,
3003
0000
0000
0000
;

//--------------- dance-double - M. Emirzian ----------------
#NOTES:
     dance-double:
     M. Emirzian:
     Easy:
     3:
     0.240502,0.461723,0.132691,0.041466,0,203,187,16,5,0,0,0.240502,0.461723,0.132691,0.041466,0,203,187,16,5,0,0:
00000000
00000000
00000000
00000000
,
00000000
00000000
00000000
00000000
,
00000000
00000000
00000000
00000000
,
00000000
00000000
00000000
00000000
,
00000000
00000000
00000000
10010000
,
01000000
00000000
00100000
00000000
,
00001000
00000000
00010000
00000000
,
00000100
00000000
00001000
00000000
,
00000020
00000000
00000000
00000000
,
00000130
00000001
00000000
00000100
,
00000010
00000000
00000000
00010000
,
00001000
00000000
00000000
01000000
,
00010000
10000000
01000000
00000000
,
00100000
00001000
00000000
00010000
,
00000010
00000000
00000000
00001000
,
00000100
00000000
00000000
00000010
,
00000001
00000000
00000010
00000100
,
00010000
00001000
00000000
00001000
,
01000000
00000000
00000000
00100000
,
10000000
00000000
00000000
01000000
,
00100000
00001000
00010000
00000000
,
00010000
00000100
00000000
00001000
,
00000001
00000000
00000000
00000100
,
00000010
00000000
00000000
00010000
,
00001000
01000000
00010000
10000000
,
01100000
00000000
11000000
00000000
,
00110000
00000000
01001000
00000000
,
00101000
00000000
00011000
00000000
,
00010010
00000000
00010100
00000000
,
00001010
00000000
00000100
00000001
,
00000100
00000000
00000010
00010000
,
00000010
00000000
00010000
00001000
,
00010000
00000000
00001000
01000000
,
00001000
00000000
00100000
10000000
,
00100000
00000000
01000000
00001000
,
01000000
00000000
00010000
00000000
,
00001000
00010000
00011000
00010010
,
00000010
00001000
00000000
00000001
,
00001000
00000001
00000000
00000000
,
00000100
00000010
00000100
00000000
,
00000010
00010000
00000010
00000000
,
00010000
00001000
00010000
00000000
,
00001000
00100000
00001000
00000000
,
01000000
00010000
01000000
00000000
,
00200000
00000000
20300000
00000000
,
30100000
01000000
00001000
00000000
,
00001000
00010000
00001000
00000000
,
00010100
00000000
00011000
00000000
,
00010100
00010000
00000100
00000010
,
00000001
00001000
00000001
00001000
,
00000100
00010000
00001000
00010000
,
00001000
01000000
00010000
01000000
,
00100000
10000000
00100000
10000000
,
01000000
00100000
00010000
00100000
,
00001000
00010000
00001000
00010000
,
00000100
00001000
00000010
00001000
,
00000001
00000100
00000010
00001000
,
00000100
00001000
00000100
00010000
,
00001000
00010000
00001000
01000000
,
00010000
01000000
00100000
10000000
,
00010000
01000000
00010000
01000000
,
00001000
00010000
00001000
00010000
,
00000010
00001000
00000010
00001000
,
00000001
00001000
00000001
00001000
00000001
00001000
00000100
00001000
,
00000100
00001000
00000100
00010000
00001000
00010000
00001000
00000000
,
00022000
00000000
00033000
00000000
;

//--------------- dance-double - M. Emirzian ----------------
#NOTES:
     dance-double:
     M. Emirzian:
     Medium:
     6:
     0.394518,0.488883,0.099518,0.02488,0.01244,333,321,12,3,0,0,0.394518,0.488883,0.099518,0.02488,0.01244,333,321,12,3,0,0:
00000000
00000000
00000000
00000000
,
00000000
00000000
00000000
00000000
,
00000000
00000000
00000000
00000000
,
00000000
00000000
00000000
00000000
,
00000000
00000000
00000000
01100000
,
10010000
00000000
00000000
00000000
00100000
00000000
00000000
00010000
00000000
00000000
00000000
00000000
00100000
00000000
00000000
00000000
,
00001000
00000000
00000000
00000000
00010000
00000000
00000000
00000100
00000000
00000000
00000000
00000000
00000010
00000000
00000000
00000000
,
00000001
00000000
00000000
00000000
00000100
00000000
00000000
00000010
00000000
00000000
00000000
00000000
00000100
00000000
00000000
00000000
,
00000002
00000000
00000000
00000000
,
00000103
00000010
00000100
00000000
00001000
00000000
00010000
00000000
,
00001000
01000000
00001000
00000000
00010000
00000000
00100000
00000000
,
10000000
00010000
10000000
00000000
01000000
00000000
00010000
00000000
,
00001000
00100000
00001000
00000000
00010000
00000100
00001000
00000001
,
00000100
00000010
00000100
00001000
,
00010000
00000100
00010000
00000000
00001000
00100000
00001000
00000000
,
00010000
01000000
10000000
00100000
,
01000000
00010000
01000000
00100000
10000000
01000000
00010000
00001000
,
00000100
00000000
00000001
00001000
00000001
00000000
00000100
00000010
,
00000100
00000000
00001000
00010000
00001000
00000000
01000000
00010000
,
01000000
00000000
00001000
00100000
00001000
00000000
01000000
00000000
,
00010000
00000000
00100000
00010000
00100000
01000000
10000000
00100000
,
01000000
00000000
00001000
00000000
00010000
00000100
00010000
00000000
,
00001000
00100000
00001000
00000000
00010000
00000000
00000100
00000000
,
00000010
00000000
00000001
00001000
00000001
00000000
00000100
00000010
,
00000100
00000000
00000001
00000000
00001000
00000100
00010000
00001000
,
01000000
00010000
00100000
01000000
,
10000000
00000000
00100000
00000000
01000000
00000000
00001000
00010000
,
00000010
00001000
00000100
00000010
,
00000001
00000000
00000100
00000000
00000010
00001000
00000100
00000000
,
00000100
00000000
00000100
00000000
00000100
00010000
00001000
00000000
,
00001000
00000000
00001000
00000000
00001000
00010000
00100000
00000000
,
00100000
00000000
00100000
00000000
00100000
10000000
01000000
00000000
,
01000000
00000000
01000000
00000000
01000000
00010000
00001000
00000000
,
00011000
00010000
00000100
00000010
,
00000001
00000000
00000100
00000000
00000010
00000100
00000001
00000000
,
00001000
00000100
00010000
00001000
,
01000000
00010000
01100000
11000000
,
10000000
00000000
00100000
00000000
01000000
00001000
00010000
00000010
,
00000000
00000000
00010000
00000000
00000100
00001000
00000010
00000100
,
00000000
00000000
00000001
00000000
00000100
00000010
00010000
00001000
,
00000000
00000000
01000000
00000000
00010000
10000000
01000000
00100000
,
00000000
00000000
00010000
00000000
01000000
00001000
00010000
00000100
,
00000000
00000000
00000010
00000000
00000001
00000100
00000010
00001000
,
00000000
00000000
00000100
00000000
00010000
00001000
01000000
00100000
,
00000000
00000000
10000000
00000000
01000000
00100000
00010000
00100000
,
00001000
00000000
00010000
00001000
00010000
00000000
00000100
00001000
,
00000100
00000000
00000010
00000001
00000010
00000000
00000100
00001000
,
00000100
00000000
00010000
00001000
00010000
00000000
00010000
00001000
,
00100000
00010000
00100000
01000000
10000000
00100000
01000000
00010000
,
10000000
10000000
10010000
01100000
,
00100000
00001000
00011000
00010100
,
00001000
00000010
00000101
00000011
,
00000100
00000000
00001000
00000000
00000010
00000100
00000001
00000010
,
00000100
00000000
00001000
00000010
00000100
00000000
00001000
00010000
,
00000100
00000000
00010000
00001000
01000000
00000000
00100000
00000000
,
10000000
00010000
01000000
00000000
00100000
10000000
01000000
00000000
,
00100000
00001000
00010000
00000000
00000100
00000000
00001000
00000000
,
00000001
00000000
00000010
00000000
00000100
00001000
00000001
00000000
,
00000100
00000010
00000100
00000000
00000010
00010000
00000010
00000000
,
00001000
00000100
00001000
00000000
00000100
00010000
00000100
00000000
,
00010000
00001000
00010000
00000000
01000000
00000000
10000000
00000000
,
00100000
10000000
00010000
01000000
00100000
10000000
01000000
00100000
,
00001000
00010000
00001000
00010000
00000100
00001000
00000010
00000100
,
00000001
00000010
00000100
00001000
00000010
00000100
00000001
00000010
,
00000100
00001000
00000100
00010000
00001000
00100000
00010000
01000000
,
20020000
00000000
30030000
00000000
;

//--------------- dance-double - M. Emirzian ----------------
#NOTES:
     dance-double:
     M. Emirzian:
     Hard:
     9:
     0.633836,0.896285,0.530764,0.049759,0.244649,535,471,64,6,0,2,0.633836,0.896285,0.530764,0.049759,0.244649,535,471,64,6,0,2:
00000000
00000000
00000000
00000000
,
00000000
00000000
00000000
00000000
,
00000000
00000000
00000000
00000000
,
00000000
00000000
00000000
00000000
,
00000000
00000000
00000000
00101000
,
00010100
00000000
00000010
00000000
00001000
00000000
00000000
00000101
00000000
00000000
00000010
00000000
00001000
00000100
00000000
00000100
,
00000000
00000000
00000010
00000000
00000001
00000000
00000000
00001100
00000000
00000000
00010000
00000000
00001000
01000000
00000000
01000000
,
00000000
00000000
00010000
00000000
00100000
00000000
00000000
11000000
00000000
00000000
00100000
00000000
01000000
00010000
00000000
00010000
,
10000000
00000000
00000000
00000000
02000000
00000000
00000000
00000000
00020000
00000000
00000000
00000000
00001000
03030000
00000000
00000000
,
00010000
01000000
00100000
00001000
00010000
00000010
00001100
00000000
,
00000010
00000000
00000100
00000000
00001000
00000000
00000001
00000000
00000100
00000010
00000100
00000000
00001001
00000000
00000000
00000000
,
00000100
00000010
00000100
00010000
00001000
01000000
00110000
00000000
,
01000000
00000000
10000000
00000000
00100000
00000000
01000000
00000000
00010000
10000000
00010000
00000000
10010000
00000000
11000000
00000000
,
00100000
00010000
01000000
00001000
00010000
00000100
00001010
00000000
,
00000100
00000000
00000001
00000000
00000010
00000000
00000100
00000000
00001000
00000001
00001000
00000000
00001100
00000000
00000000
00000000
,
00000010
00010000
00001000
00000100
00000010
00010000
00001100
00000000
,
00000010
00000000
00010000
00000000
00001000
00000000
01000000
00000000
00010000
10000000
00010000
00000000
00110000
00000000
10010000
00000000
,
01000000
00100000
10000000
01000000
00100000
01000000
00010000
00001000
,
01000000
00000000
00001000
00000000
00000100
00000000
00000001
00000000
00000010
00000100
00000010
00000000
00001001
00000000
00000000
00000000
,
00000010
00001000
00000100
00001000
00000010
00010000
00000100
00001000
,
00000010
00000100
00000010
00000000
00010000
00000000
00001000
00000000
01000000
00010000
01000000
00000000
01010000
00000000
10010000
00000000
,
00100000
10000000
01000000
00100000
00010000
01000000
10100000
00000000
,
01000000
00000000
00100000
00000000
00001000
00000000
00010000
00000000
00000010
00001000
00000010
00000000
00001010
00000000
00001000
00000000
,
00001001
00000010
00001100
00010000
,
00011000
00000000
01001000
00000000
01100000
10000000
00010000
01000000
,
00100000
00000000
10000000
00000000
00010000
00000000
00000000
01010000
00000000
00000000
00100000
00000000
10000000
00000000
01000000
00000000
,
00100000
00000000
00001000
00000000
01000000
00000000
00000000
00011000
00000000
00000000
00000010
00000000
00000100
00000000
00001000
00000000
,
00000010
00000000
00000100
00000000
00000001
00000000
00000000
00001001
00000000
00000000
00000010
00000000
00010000
00000000
00001000
00000000
,
00000100
00000000
00001000
00000000
00010000
00000000
00000000
01001000
00000000
00000000
01000000
00000000
00100000
00000000
10000000
00000000
,
01000000
00000000
00100000
00000000
00001000
00000000
00000000
01010000
00000000
00000000
00100000
00000000
01000000
00000000
00010000
00000000
,
00001000
00000000
00010000
00000000
00000010
00000000
00000000
00001100
00000000
00000000
00000010
00000000
00000001
00000000
00000100
00000000
,
00000010
00000000
00010000
00000000
00000100
00000000
00000000
00011000
00000000
00000000
01000000
00000000
00100000
00000000
01000000
00000000
,
00010000
00000000
00100000
00000000
01000000
00000000
00000000
10010000
00000000
00000000
01000000
00000000
00100000
00000000
01000000
00000000
,
00001000
00000000
00010000
00000000
00000100
00000000
00000000
00010010
00000000
00000000
00001100
00000000
00001001
00000000
00000100
00000000
,
00000010
00000000
00001000
00000000
00000100
00000000
00000000
00000011
00000000
00000000
00001001
00000000
00001010
00000000
00010000
00000000
,
00001000
00000000
01000000
00000000
00010000
00000000
00000000
10100000
00000000
00000000
11000000
00000000
10010000
00000000
01000000
00000000
,
00200000
00000000
00000000
00000000
00020000
00000000
00000000
00000000
01000000
00330000
00000000
00000000
00100000
00000000
00000000
00000000
,
00011000
00000100
00001000
00000010
00000000
00000100
00000001
00001001
,
00000100
00000000
00000010
00000000
00001000
00000000
00000100
00000000
00000010
00000001
00000010
00000000
00001001
00000000
00000000
00000000
,
00000010
00001000
00000100
00010100
00000000
00010000
00001000
01001000
,
01000000
00000000
00010000
00000000
00100000
00000000
01000000
00000000
10000000
00010000
10000000
00000000
00100000
00000000
01000000
00000000
,
00001000
00010000
00100000
01000000
00001000
00010000
00000010
00010010
,
00010000
00000000
00000100
00000000
00000010
00000000
00000001
00000000
00001000
00000010
00001000
00000000
00000100
00000000
00000010
00000000
,
00000001
00000100
00000010
00010010
00000000
00010000
00001000
01001000
,
01000000
00000000
00010000
00000000
00100000
00000000
01000000
00000000
10000000
00010000
10000000
00000000
00100000
00000000
00010000
00000000
,
00001000
01000000
00010000
00101000
00000000
00010000
00001000
00010010
,
00000010
00000000
00000100
00000000
00000001
00000000
00000010
00000000
00000100
00001000
00000100
00000000
00001001
00000000
00000100
00000000
,
00000110
00000100
00010010
00001000
,
00010100
00011000
01100000
10100000
,
10000000
00100000
01000000
00100000
00010000
00001000
00100000
00001000
,
00010000
01000000
00010000
00000010
00001000
00000100
00000010
00001000
,
00010000
00100000
00010000
00000100
00001000
00000001
00000100
00000010
,
00010000
00100000
10000000
01000000
00100000
00010000
01010000
00000000
,
10000000
00000000
01000000
00000000
00100000
00000000
00010000
00000000
10000000
00100000
01000000
00000000
00010000
00000000
00100000
00000000
,
00001000
00000000
00010000
00000000
00000010
00000000
00010000
00000000
00000100
00001000
00000100
00000000
00000010
00000000
00000001
00000000
,
00001000
00000000
00000010
00000000
00010000
00000000
00001000
00000000
01000000
00010000
01000000
00000000
00100000
00000000
10000000
00000000
,
01000000
00000000
00100000
00000000
00001000
00000000
01000000
00000000
00100000
01000000
00010000
00000000
10010000
00000000
00000000
00000000
,
10000000
00000000
01000000
00000000
00100000
00000000
00001000
00000000
00010000
00000100
00001000
00000000
00000010
00000000
00000100
00000000
,
00000001
00000010
00000100
00000000
00001000
00000000
00000010
00000000
00001000
00000100
00010000
00000000
00000100
00000000
00001000
00000000
,
00000010
00000100
00000001
00000000
00000010
00000000
00000100
00000000
00010000
00001000
01000000
00000000
00100000
00000000
10000000
00000000
,
01000000
00100000
00010000
00000000
01000000
00000000
00100000
00000000
10000000
00010000
01000000
00000000
01001000
00000000
00011000
00000000
,
00001000
01000000
10000000
01000000
00100000
00010000
00000100
00001000
,
00000010
00000001
00000010
00010000
00001000
01000000
00100000
10000000
,
01000000
00100000
01000000
10000000
01000000
00100000
00010000
00100000
00010000
10000000
00100000
01000000
00100000
01000000
00010000
00000000
,
10000000
00010000
10000000
00010000
01000000
00001000
01000000
00001000
00010000
00001000
00010000
00000010
00001000
00000100
00000010
00000001
,
00002002
00000000
00003003
00000000
;

//--------------- dance-double - M. Emirzian ----------------
#NOTES:
     dance-double:
     M. Emirzian:
     Challenge:
     10:
     0.787852,0.91904,0.680041,0.016586,0.613695,665,583,82,2,2,1,0.787852,0.91904,0.680041,0.016586,0.613695,665,583,82,2,2,1:
00000000
00000000
00000000
00000000
,
00000000
00000000
00000000
00000000
,
00000000
00000000
00000000
00000000
,
00000000
00000000
00000000
00000000
,
00000000
00000000
00000000
00001010
,
01010000
00000000
00100000
00000000
00001000
00000000
00000000
00011000
00000000
00000000
00100000
00000000
00001000
00010000
00000000
00010000
,
00000100
00000000
00001000
00000000
00000010
00000000
00000000
00000101
00000000
00000000
00000010
00000000
00000100
00001000
00000000
00001000
,
00000010
00000000
00000100
00000000
00000001
00000000
00000000
00001001
00000000
00000000
00000100
00000000
00000010
00010000
00000000
00010000
,
00001000
00000000
00000000
00000000
00020000
00000000
00000000
00000000
00200000
00000000
00000000
00000000
10000000
00330000
00000000
00000000
,
10000000
01000000
00100000
00000000
10010000
00000000
11000000
00000000
00000000
00100000
00010000
00000000
01000000
00000000
00001000
00000000
,
00000000
00010000
00000100
00000000
00001100
00000000
00001001
00000000
00000000
00000010
00000001
00000000
00000100
00000000
00000010
00000000
,
00001000
00000001
00000100
00000000
00000110
00000000
00001001
00000000
00000000
00000010
00010000
00000000
00011000
00000000
00101000
00000000
,
00000000
00010000
00100000
00000000
01100000
00000000
10010000
00000000
00000000
00100000
10000000
00000000
01000000
00000000
00100000
00000000
,
00010000
10000000
01000000
00000000
00110000
00000000
00101000
00000000
00000000
00010000
00001000
00000000
00000100
00000000
00000001
00000000
,
00000000
00000010
00000100
00000000
00001001
00000000
00000110
00000000
00000000
00000010
00001000
00000000
00000100
00000000
00000010
00000000
,
00000001
00001000
00000100
00000000
00001010
00000000
00010010
00000000
00001000
00010000
00001000
00000000
01000000
00000000
00100000
00000000
,
01000000
00010000
00100000
00000000
01100000
00000000
10010000
00000000
10000000
00010000
00100000
00000000
00101000
00000000
00011000
00000000
,
00001000
00010000
00000100
00000000
00010100
00000000
00001100
00000000
00000000
00000010
00000001
00000000
00000100
00000000
00000010
00000000
,
00000000
00001000
00000100
00000000
00000011
00000000
00001001
00000000
00000000
00000100
00000010
00000000
00001000
00000000
00000100
00000000
,
00010000
00001000
00100000
00000000
01001000
00000000
01010000
00000000
00000000
00100000
10000000
00000000
01000000
00000000
00100000
00000000
,
00000000
00010000
01000000
00000000
00110000
00000000
00101000
00000000
00000000
00010000
01000000
00000000
00100000
00000000
10000000
00000000
,
01000000
10000000
00010000
00000000
00110000
00000000
00101000
00000000
00000000
00010000
00001000
00000000
00000010
00000000
00000001
00000000
,
00000000
00000100
00000010
00000000
00001001
00000000
00000110
00000000
00000000
00000010
00000001
00000000
00000100
00000000
00000010
00000000
,
00001001
00000100
00000010
00001000
00001100
00010000
00001000
01000000
,
01010000
00100000
10010000
01000000
01100000
00100000
00101000
00110000
,
01000000
10000000
00010000
00000000
00100000
00000000
00010000
01000000
00000000
01000000
00001000
00000000
00010000
00000000
00000010
00000000
,
00001000
00000001
00000100
00000000
00000010
00000000
00000100
00000001
00000000
00000001
00000010
00000000
00000100
00000000
00001100
00000000
,
00000010
00000100
00000001
00000000
00000010
00000000
00000100
00010000
00000000
00010000
00001000
00000000
01000000
00000000
01100000
00000000
,
01000000
00010000
10000000
00000000
01000000
00000000
00100000
00010000
00000000
00010000
01000000
00000000
00100000
00000000
10000000
00000000
,
01000000
00100000
00010000
00000000
01000000
00000000
00001000
00010000
00000000
00010000
00000100
00000000
00000010
00000000
00000011
00000000
,
00000100
00000010
00001000
00000000
00000100
00000000
00000010
00000001
00000000
00000001
00000100
00000000
00000010
00000000
00001000
00000000
,
00000100
00010000
00001000
00000000
00100000
00000000
01000000
10000000
00000000
10000000
00100000
00000000
01000000
00000000
00010000
00000000
,
00100000
01000000
10000000
00000000
00010000
00000000
01000000
00100000
00000000
00100000
10000000
00000000
01000000
00000000
00100000
00000000
,
00001000
00010000
00000100
00000000
00000010
00000000
00000010
00000001
00000000
00000001
00000100
00000000
00000100
00001000
00000000
00001000
,
00010000
00100000
10000000
00000000
10000000
00000000
01000000
00010000
00000000
00010000
00001000
00000000
00001000
00000100
00000000
00000100
,
00000001
00000010
00000100
00000000
00001001
00000000
00000000
00000000
00011000
00000000
01000000
00000000
00010000
00000000
00100000
00000000
,
11000000
00010000
01010000
00100000
01100000
01000000
01001000
00010000
,
01000000
00100000
10000000
00000000
00010000
00000000
00100000
00000000
01000000
00000000
10000000
00000000
00100000
00000000
01000000
00000000
,
00001000
00010000
00000100
00000000
00010000
00000000
00000010
00000000
00000100
00000000
00000001
00000000
00000010
00000000
00001001
00000000
,
00000100
00000010
00000001
00000000
00001000
00000000
00000001
00000000
00000100
00000000
00000010
00000000
00010000
00000000
00000100
00000000
,
00010000
00001000
00100000
00000000
00001000
00000000
01001000
00000000
01000000
00000000
00010000
00000000
10010000
00000000
01100000
00000000
,
10000000
00010000
01000000
00000000
00100000
00000000
01000000
00000000
00001000
00000000
00000010
00000000
00000001
00000000
00000100
00000000
,
00000010
00001000
00000100
00000000
00000010
00000000
00001001
00000000
00000100
00000000
00000010
00000000
00001000
00000000
00010010
00000000
,
00010000
00001000
00100000
00000000
00001000
00000000
01000000
00000000
00010000
00100000
01000000
00000000
10000000
00000000
01100000
00000000
,
00010000
01000000
00100000
00000000
10000000
00000000
01000000
00000000
00100000
00010000
01000000
00000000
00001000
00010000
00000010
00001000
,
00000100
00000010
00000001
00000000
00000010
00000000
00001001
00000000
00000000
00000010
00001000
00000000
00000100
00000000
00000011
00000000
,
00000100
00000010
00010000
00000000
00001000
00000000
01001000
00000000
00000000
00100000
00010000
00000000
01000000
00000000
10010000
00000000
,
01100000
01000000
10000000
00100000
10010000
10000000
01000000
00100000
,
00110000
00001000
00011000
00000010
00010010
00001000
00001010
00000100
,
00000010
00000001
00000100
00000000
00000010
00000000
00001000
00000000
00000100
00000000
00000010
00000000
00001001
00000000
00000010
00000000
,
00000100
00000001
00000010
00000000
00000100
00000000
00001000
00000000
00000010
00000000
00010000
00000000
00011000
00000000
01000000
00000000
,
10000000
00010000
01000000
00000000
00100000
00000000
10000000
00000000
01000000
00000000
00100000
00000000
00110000
00000000
01000000
00000000
,
10000000
00010000
01000000
00000000
00001000
00000000
00010000
00000000
00000010
00001000
00000100
00000000
00001001
00000000
00000110
00000000
,
00000001
00000100
00000010
00000000
00001000
00000000
00000100
00000000
00000010
00000001
00000100
00000000
00000010
00000000
00010000
00000000
,
00001000
01000000
00010000
00100000
01000000
10000000
01000000
00000000
10000000
00010000
01000000
00000000
00100000
10000000
01000000
00000000
,
00100000
00010000
01000000
00100000
10000000
01000000
00100000
00000000
00001000
00010000
00000010
00001000
00000100
00000000
00000010
00000000
,
00000001
00000100
00000010
00000000
00010000
00000100
00000010
00000000
00000001
00000100
00000010
00000000
00010000
00001000
00000010
00000000
,
00000100
00001000
00000010
00000000
00010000
00001000
00100000
00000000
01000000
10000000
00010000
00000000
01000000
00100000
10000000
00000000
,
01000000
00100000
00001000
00000000
00010000
00001000
00000010
00000000
00000100
00000010
00000001
00000000
00000100
00000010
00010000
00000000
,
00001000
00010000
00100000
00000000
01000000
00010000
10000000
00000000
01000000
00100000
00010000
00000000
01000000
00001000
00010000
00000000
,
00000010
00001000
00000100
00000000
00000010
00000001
00000100
00000000
00001000
00010000
00000100
00000000
00000010
00001000
00010000
00000000
,
01001000
00000000
00010000
00000000
01010000
00000000
00100000
00000000
10010000
00000000
01000000
00100000
00010000
01000000
00100000
10000000
,
10010000
00000000
00100000
00000000
00101000
00000000
00010000
00000000
00010100
00000000
00000010
00000100
00000001
00000010
00000100
00001000
,
00000010
00010000
00000100
00001000
00000010
00000100
00000001
00000010
00000100
00001000
00000010
00010000
00001000
01000000
00100000
10000000
,
00010000
00100000
01000000
10000000
00100000
01000000
00010000
10000000
01000000
00100000
00001000
00010000
00000100
00000010
00000001
00001000
,
00001001
00000000
00000000
0000M00M
00000000
00000000
00000000
00000000
00000000
00000000
00000000
00000000
00000000
00000000
00000000
00000000
;

//--------------- lights-cabinet - ----------------
#NOTES:
     lights-cabinet:
     :
     Easy:
     1:
     0.586446,0.977766,0.315141,0.107811,0.240502,495,451,38,13,0,5,0.586446,0.977766,0.315141,0.107811,0.240502,495,451,38,13,0,5:
000000
000000
000000
000000
,
000000
000000
000000
000000
,
000000
000000
000000
000000
,
000000
000000
000000
000000
,
000000
000000
000000
110000
,
001100
000000
000000
000000
000100
000000
000000
000100
000000
000000
000000
000000
010000
000000
000000
000000
,
001000
000000
000000
000000
100100
000000
000000
100100
000000
000000
000000
000000
011000
000000
000000
000000
,
100100
000000
000000
000000
011000
000000
000000
100100
000000
000000
000000
000000
011000
000000
000000
000000
,
200200
300300
022000
133100
,
100000
000000
000100
000000
100000
000000
001000
000000
010000
000100
001000
000000
000100
000000
010000
000000
,
001000
000000
100000
000000
010000
000000
100000
000000
001000
010000
000100
000000
001000
000000
000100
000000
,
010000
000000
001000
000000
100000
000000
010000
000000
100000
010000
000100
000000
100000
000000
010000
000000
,
000100
001000
000100
010000
001000
010000
100100
000000
,
010000
000000
001000
000000
000100
000000
010000
000000
001000
100000
010000
000000
100000
000000
001000
000000
,
010000
000000
000100
000000
001000
000000
000100
000000
010000
001000
100000
000000
001000
000000
100000
000000
,
010000
000000
100000
000000
001000
000000
010000
000000
000100
001000
100000
000000
010000
000000
001000
000000
,
100000
010000
100000
001000
010000
000100
020000
000000
,
031000
000000
000000
100000
000000
000000
001000
000000
000000
010000
001000
000000
010000
000000
000100
000000
,
001000
000000
000000
000100
000000
000000
010000
000000
000000
001000
100000
000000
010000
000000
000100
000000
,
100000
000000
000000
001000
000000
000000
010000
000000
000000
000100
001000
000000
000100
000000
010000
000000
,
001000
000000
000000
010000
000000
000000
000100
000000
000000
001000
000100
000000
010000
000000
001000
000000
,
100000
010000
100000
001000
010000
001000
010000
000100
,
001000
000100
010000
001000
100000
010000
100000
000100
,
011000
100100
011000
000100
,
100100
011000
100100
111100
,
000100
010000
000000
010000
001000
000000
000000
000000
010000
000000
001000
000000
100000
000000
000000
000000
,
001000
010000
000000
100000
000100
000000
000000
000000
001000
000000
000100
000000
010000
000000
000000
000000
,
001000
010000
000000
000100
001000
000000
000000
000000
100000
000000
010000
000000
100000
000000
000000
000000
,
010000
100000
000000
000100
100000
000000
001000
000000
010000
000000
001000
000000
000100
000000
000000
000000
,
010000
001000
100000
000000
010000
001000
010000
000000
,
100000
001000
000000
010000
000100
000000
100000
000000
001000
000000
010000
000000
001000
000000
000000
000000
,
000100
010000
000000
000100
100000
000000
000000
000000
001000
000000
010000
000000
000100
000000
000000
000000
,
010000
100000
000000
001000
010000
000000
000100
000000
100000
000000
001000
000000
010000
000100
100000
000000
,
001000
010000
100000
001000
010000
000100
001000
000100
,
010000
001000
100000
010000
100000
001000
010000
000100
,
001100
100000
110000
001000
,
100100
011000
200200
311300
,
100000
000000
010000
000000
100000
000000
001000
000000
010000
001000
100000
000000
001000
000000
010000
000000
,
000100
000000
001000
000000
000100
000000
010000
000000
001000
100000
010000
000000
100000
000000
001000
000000
,
010000
000000
000100
000000
001000
000000
000100
000000
010000
001000
100000
000000
010000
000000
100000
000000
,
001000
010000
000100
001000
000100
100000
000200
000000
,
010300
000000
001000
000000
100000
000000
001000
000000
010000
000100
001000
000000
000100
000000
010000
000000
,
001000
000000
100000
000000
010000
000000
100000
000000
001000
010000
000100
000000
001000
000000
000100
000000
,
010000
000000
001000
000000
100000
000000
010000
000000
100000
000100
010000
000000
001000
000000
010000
000000
,
000100
001000
000100
010000
001000
100000
000200
000000
,
100300
000000
000000
010000
000000
000000
001000
000000
000000
010000
000000
000000
000100
000000
000000
000000
,
001000
000000
000000
000100
000000
000000
010000
000000
000000
001000
000000
000000
100000
000000
000000
000000
,
100100
010000
011000
001000
,
100100
110000
001100
111100
,
100000
010000
100000
001000
010000
001000
010000
000100
,
001000
000100
010000
001000
100000
010000
100000
000100
,
100000
010000
100000
001000
010000
001000
010000
000100
,
001000
000000
000100
000000
010000
000000
001000
000000
100000
000000
010000
000000
100000
000000
000100
100000
,
000100
001000
000100
010000
001000
010000
001000
100000
,
010000
100000
001000
010000
000100
001000
000100
100000
,
000100
001000
000100
010000
001000
010000
001000
100000
,
010000
000000
100000
000000
001000
000000
010000
000000
000100
000000
001000
000000
000100
000000
100000
000100
,
001000
010000
100000
001000
010000
001000
010000
000100
,
001000
000100
010000
001000
100000
010000
100000
000100
,
100000
010000
100000
001000
010000
001000
010000
000100
,
001000
000100
010000
001000
010000
100100
011000
100100
,
001000
001000
010000
010000
001000
001000
100000
100000
,
000100
000100
100000
100000
001000
001000
100000
100000
,
000100
001000
010000
100000
000100
001000
010000
100000
000100
001000
010000
100000
000100
001000
010000
100000
,
000100
001000
010000
100000
000100
001000
010000
100000
000100
001000
010000
100000
011000
000000
100100
000000
,
222200
000000
333300
000000
;
