#TITLE:Tentaikansoku;
#SUBTITLE:;
#ARTIST:Nobumitsu Irio;
#TITLETRANSLIT:;
#SUBTITLETRANSLIT:;
#ARTISTTRANSLIT:;
#GENRE:;
#CREDIT:;
#MUSIC:tentaikansoku.ogg;
#BANNER:tentaikansoku.png;
#BACKGROUND:tentaikansoku-bg.png;
#CDTITLE:;
#SAMPLESTART:0.000;
#SAMPLELENGTH:0.000;
#SELECTABLE:YES;
#OFFSET:-4.920;
#BPMS:0.000=165.000;
#STOPS:;
#BGCHANGES:;
#FGCHANGES:;

//--------------- dance-single - ----------------
#NOTES:
     dance-single:
     :
     Easy:
     6:
     0,0,0,0,0:
0000
0000
0000
0000
,
1000
0000
0010
0000
,
1000
0000
0100
0000
,
1000
0000
0001
0000
,
0010
0000
0001
0000
,
1001
0000
0010
0000
,
1001
0000
0110
0000
,
1000
1000
0010
0000
,
0010
0100
0001
0000
,
1000
0001
0100
0010
,
0100
0001
0010
0000
,
0200
0000
0320
0000
,
2030
0000
3002
0000
,
0103
0000
0010
0000
,
1000
0001
1000
0000
,
0110
0000
2000
3000
,
0001
0000
0200
0300
,
1001
0100
0010
0100
,
1000
0010
0001
0000
,
1000
0100
0010
0001
,
0010
0010
0100
0000
,
2000
0000
3001
0000
,
0010
0100
0001
0100
,
0101
0000
0110
0000
,
1100
0000
1001
0000
,
0110
0000
0011
0000
,
1010
0000
0101
0000
,
1001
0000
0100
0000
,
0110
0000
1000
0000
,
1100
0000
0011
0000
,
1010
0000
0101
0000
,
1000
1000
0001
0001
,
0010
0001
0100
0000
,
0010
0010
0100
0100
,
0001
1000
0100
0000
,
2000
3100
0002
0103
,
2000
3100
0002
0103
,
0110
0000
0000
0000
,
1001
0000
0100
0100
,
0010
1000
0010
1000
,
0001
1000
0010
0000
,
0100
0010
1000
0001
,
0010
0100
0100
0000
,
1010
0000
0001
0000
,
0110
0000
1000
0000
,
2000
0000
0000
3000
0002
0000
0000
0003
,
0100
0010
0010
0000
,
2000
3002
2003
3002
,
0013
0100
1000
0000
,
0002
2003
3002
2003
,
3010
0100
0001
0000
,
0100
0200
0301
0000
,
0001
0002
0013
0000
,
1010
0000
1001
0000
,
1100
0000
0010
0100
,
1001
0100
0010
0100
,
0010
1000
0010
0000
,
1000
0001
0100
0010
,
1000
0001
0100
0000
,
1020
0000
0130
0000
,
0021
0000
0130
0000
,
1001
0010
0110
0100
,
1010
0100
0101
0000
,
1000
0000
0100
0000
0010
0000
0000
2002
,
0000
0000
0000
0000
,
3003
0000
0000
0000
;

//--------------- dance-single - ----------------
#NOTES:
     dance-single:
     :
     Medium:
     9:
     0,0,0,0,0:
0000
0000
0000
0000
,
1000
0010
1000
0000
0001
0010
0001
0000
,
1000
0100
1000
0000
0001
0100
0001
0000
,
0010
0010
0010
0000
0100
0100
0100
0000
,
0001
0001
0001
0000
1000
1000
1000
0000
,
1010
0000
0100
0010
1000
0001
1000
0100
,
0000
1001
0000
0010
0000
1001
0000
0010
,
0002
1000
0100
1003
,
0020
1000
0130
0000
,
0200
0010
0001
0310
,
0002
0010
0103
0000
,
1000
0100
0001
0000
1000
0100
0001
0000
,
0010
1000
0001
0000
0010
1000
0001
0000
,
2000
3200
0320
0032
,
0013
0100
1000
0010
0100
0000
0101
0000
,
1000
0010
2000
0000
3001
0000
0000
0000
,
0001
0100
0002
0000
1003
0000
0000
0000
,
1000
0000
0010
0000
0001
0100
0010
0000
,
1000
0100
0010
0000
1001
0000
0010
0000
,
0010
1000
0001
0100
,
0010
1000
0100
0001
,
1000
0010
0001
0000
0001
0010
1000
0000
,
1010
0011
0101
1100
,
2000
0000
3001
0000
0010
0001
0100
0000
,
0020
0000
0130
0000
0001
1000
0100
0000
,
2000
0000
3100
0000
0010
0001
0100
0000
,
0002
0000
0013
0000
0100
1000
0001
0000
,
1010
0000
0000
0100
0001
0000
0010
0000
,
1100
0000
1000
0100
0010
0000
0011
0000
,
1010
0100
0101
0001
,
0110
0100
1001
0010
,
1000
1000
0100
0000
0001
0001
0100
0000
,
1010
1001
1010
0000
,
0001
0001
0010
0000
1000
1000
0010
0000
,
0110
0101
1100
0000
,
1000
0100
0010
0100
1000
0000
0010
0100
,
0001
0100
0010
0000
0010
0000
0100
0000
,
1010
0100
0001
0110
,
0100
0000
0101
0000
0010
0000
1000
0001
,
2001
3002
0023
0230
,
2300
3020
0230
0300
,
0002
2003
3020
0230
,
0302
0023
0230
0300
,
0100
0001
0010
0100
1000
0000
0020
0000
,
1030
0000
0001
0000
0010
0000
0000
0000
0100
0000
0000
0100
0000
0000
0100
0000
,
1000
0010
1100
0010
,
1001
0010
0100
0010
,
1010
0000
0100
0000
0001
0010
0100
0000
,
1000
0100
0010
0000
0101
0000
0010
0000
,
0101
0000
0010
0000
1000
0001
0100
0000
,
0001
1000
0100
0000
0010
0000
1000
0000
,
1000
0100
1000
0100
1000
0000
0001
0010
,
0001
0010
0001
0000
0100
0000
1000
0000
,
1001
0010
0100
1000
,
0010
0000
0100
0000
1000
0010
1000
0001
,
2000
3100
0002
0013
,
2000
3010
0002
0103
,
0020
0130
2000
3001
,
1010
0110
0101
0000
,
0001
0010
0100
0010
0001
0000
2000
0000
,
3010
0000
0100
0000
0001
0000
0000
0000
1000
0000
0000
1000
0000
0000
1000
0000
,
0001
0010
0110
1000
,
0101
0010
0110
1000
,
0110
0000
0100
0000
1000
0100
0010
0002
,
0000
0000
0003
0000
;

//--------------- dance-single - ----------------
#NOTES:
     dance-single:
     :
     Hard:
     13:
     0,0,0,0,0:
0000
0000
0000
0000
0000
0000
0000
0000
0000
0000
0000
0000
0000
0000
1000
0001
,
1000
0000
0100
0010
0001
0010
0100
1000
,
0001
0100
1000
0100
0001
0010
1000
0010
,
0001
0010
0100
1000
0010
0100
0001
0010
,
0001
0100
0001
1000
0001
0100
0010
1000
,
1001
0000
1000
0100
1000
0010
0100
1010
,
0000
0100
0000
1010
0000
0100
0000
0010
,
1000
0100
1000
0010
1000
0100
1000
0010
,
0100
0001
0100
0010
0100
0001
0100
0000
,
0001
0100
0001
0010
0001
0100
0001
0010
,
0100
1000
0100
0010
0100
1000
0100
0000
,
1000
0100
0010
0000
0001
0010
0100
0000
,
0100
1000
0001
0010
0100
1000
0001
0000
,
2000
0010
0100
3001
,
1000
0000
0100
0000
0010
0000
0001
0000
0100
0000
0000
0000
1001
0000
0100
0010
,
0100
0000
0010
0100
1000
0001
0100
0010
,
1000
0001
1000
0100
0010
0000
0110
0000
,
1000
0100
0010
0001
1000
0010
0100
0001
,
0010
0100
1000
0010
0100
0000
0101
0000
,
0001
0010
0100
0000
1000
0100
0010
0000
,
0010
0100
0001
1000
0001
0010
0100
0000
,
2000
0010
0001
3100
,
1000
0100
0010
0001
0100
0010
0001
0000
,
1010
0100
0010
0000
0011
0010
0100
0000
,
1100
1000
0001
0000
0101
0010
1000
0000
,
1000
0100
1000
0001
1000
0000
0100
0010
,
0001
0010
0100
1000
0100
0010
0001
0000
,
1001
0000
0000
0010
0100
0000
1000
0010
,
0101
0000
0000
0010
1000
0000
0001
1000
,
0100
0000
0010
0100
1000
0000
0010
0100
,
0001
0000
0010
0000
0100
0000
0000
0000
0010
0000
0001
1000
0001
0000
0100
0000
,
0010
1000
0100
0010
0001
0100
0001
0010
,
0001
0010
0100
1000
0010
0000
0101
0000
,
0010
0100
1000
0001
0100
1000
0100
0001
,
1000
0010
0100
0001
0010
0000
1100
0000
,
1000
0010
0100
0001
0100
0000
0010
0100
,
0001
0010
0100
0000
1000
0100
0010
0001
,
1000
0100
0011
0000
0001
0010
1100
0000
,
1000
0000
0001
0000
0010
0000
0001
0000
0100
0000
0000
0000
1000
0001
1000
0001
,
2000
0000
3100
0010
0001
0100
0010
0000
,
2000
0000
0000
0000
3001
0000
0010
0000
0100
0000
1000
0000
0010
0000
1000
0100
,
2000
0000
3010
0100
0001
0100
0010
0000
,
2000
0000
0000
0000
3100
0000
0010
0000
0100
0000
1000
0000
0001
0000
0100
0010
,
0100
0000
0001
0000
1000
0000
0100
0000
0010
0000
0000
0000
0001
0000
0010
0100
,
0010
0000
0100
0000
1000
0000
0000
0000
1000
0000
0100
0000
0010
0000
0001
0100
,
0001
0000
0000
0000
0010
0000
0100
0010
0100
0000
0000
0000
1000
0000
0100
1000
,
0100
0000
1001
0000
1000
0010
1000
0100
,
1001
0000
0100
0010
1000
0001
0100
0010
,
1000
0000
0100
0000
0010
0000
0001
0000
0100
0000
0010
0000
1000
0000
0001
0100
,
0001
0010
0100
1000
0001
0100
0010
1000
,
0001
0000
0010
0000
0100
0000
1000
0000
0010
0000
0100
0000
0001
0000
1000
0010
,
1000
0100
0010
0100
1000
0000
0001
0100
,
1000
0000
0100
0000
0001
0000
0000
0000
1000
0000
0100
0000
0010
0000
0001
0100
,
0001
0010
0100
0000
0010
0100
1000
0000
,
0010
0000
0100
0000
0001
0000
0000
0000
0010
0000
0100
1000
0100
0000
1000
0010
,
1000
0101
0010
1010
,
1000
0000
0100
0000
0010
0000
0001
0000
0010
0000
0100
0000
1000
0000
0010
0100
,
0010
0100
0001
0000
0010
0100
1000
0000
,
1010
0000
0000
0000
1001
0000
0000
0000
1100
0000
0000
0000
1000
0000
0001
0100
,
0001
0000
0010
0000
0100
0000
1000
0000
0010
0000
0000
0000
0100
0000
0001
1000
,
0001
0000
0000
0000
0010
0000
0100
0000
1000
0000
0100
0000
0010
0000
0001
0100
,
0001
0000
0000
0000
1000
0000
0010
0100
0010
0000
0000
0000
0100
0000
0001
0010
,
0001
0000
0100
0000
0010
0000
1000
0100
,
0002
0000
0013
0000
0100
1000
0001
0200
,
0000
0000
0000
0000
,
0300
0000
0000
0000
;
