#TITLE:Tension;
#SUBTITLE:;
#ARTIST:Inspector K;
#TITLETRANSLIT:;
#SUBTITLETRANSLIT:;
#ARTISTTRANSLIT:;
#GENRE:;
#CREDIT:;
#MUSIC:Tension.ogg;
#BANNER:tension.png;
#BACKGROUND:tension-bg.png;
#CDTITLE:;
#SAMPLESTART:46.750;
#SAMPLELENGTH:15.380;
#SELECTABLE:YES;
#OFFSET:-1.591;
#BPMS:0.000=180.000
,128.000=90.000
,132.000=180.000
,260.000=90.000
,264.000=180.000
;
#STOPS:;
#BGCHANGES:;
#FGCHANGES:;

//--------------- dance-single - M. Puls ----------------
#NOTES:
     dance-single:
     M. Puls:
     Beginner:
     1:
     0.092175,0.141089,0.060221,0,0,75,68,7,0,0,0,0.092175,0.141089,0.060221,0,0,75,68,7,0,0,0:
0000
0000
0000
0000
,
0000
0000
0000
0000
,
0000
0000
0000
0000
,
0000
0000
0000
0000
,
1000
0000
0000
0000
,
0000
0000
0000
0000
,
1000
0000
0000
0000
,
0000
0000
0000
0000
,
0001
0000
0000
0000
,
1000
0000
0000
0000
,
0001
0000
0000
0000
,
1000
0000
0000
0000
,
0001
0000
0000
0000
,
1000
0000
0000
0000
,
0001
0000
0001
0000
,
0001
0000
0000
0000
,
1000
0000
0000
0000
,
0000
0000
0000
0000
,
0001
0000
0000
0000
,
0000
0000
0000
0000
,
0100
0000
0000
0000
,
0000
0000
0000
0000
,
0010
0000
0000
0000
,
0000
0000
0000
0000
,
1000
0000
0000
0000
,
1000
0000
0000
0000
,
0001
0000
0000
0000
,
0001
0000
0000
0000
,
0100
0000
0000
0000
,
0100
0000
0000
0000
,
0010
0000
0000
0000
,
0010
0000
0000
0000
,
1001
0000
0000
0000
,
1000
0000
0000
0000
,
1000
0000
0000
0000
,
0001
0000
0000
0000
,
0001
0000
0000
0000
,
0100
0000
0000
0000
,
0100
0000
0000
0000
,
0010
0000
0000
0000
,
0010
0000
0000
0000
,
0100
0000
0000
0000
,
0001
0000
0000
0000
,
1000
0000
0000
0000
,
0000
0000
0000
0000
,
0010
0000
0000
0000
,
0100
0000
0000
0000
,
0001
0000
0000
0000
,
1000
0000
0000
0000
,
1001
0000
0000
0000
,
0000
0000
0000
0000
,
1001
0000
0000
0000
,
0000
0000
0000
0000
,
1001
0000
0000
0000
,
0000
0000
0000
0000
,
1001
0000
0000
0000
,
0000
0000
0000
0000
,
0100
0000
0000
0000
,
0100
0000
0000
0000
,
0010
0000
0000
0000
,
0010
0000
0000
0000
,
1000
0000
0000
0000
,
1000
0000
0000
0000
,
0001
0000
0000
0000
,
0100
0000
0000
0000
,
1001
0000
0000
0000
,
1000
0000
0000
0000
,
1000
0000
0000
0000
,
0001
0000
0000
0000
,
0001
0000
0000
0000
,
0100
0000
0000
0000
,
0100
0000
0000
0000
,
0010
0000
0000
0000
,
0010
0000
0000
0000
,
1000
0000
0000
0000
,
0001
0000
0000
0000
,
1000
0000
0000
0000
,
0000
0000
0000
0000
,
0010
0000
0000
0000
,
0100
0000
0000
0000
,
0001
0000
0000
0000
,
1000
0000
0000
0000
,
1001
0000
0000
0000
;

//--------------- dance-single - K. Ward ----------------
#NOTES:
     dance-single:
     K. Ward:
     Easy:
     5:
     0.221219,0.352722,0.266692,0.137647,0,180,149,31,16,0,0,0.221219,0.352722,0.266692,0.137647,0,180,149,31,16,0,0:
0000
0000
0000
0000
,
0000
0000
0000
0000
,
0000
0000
0000
0000
,
0000
0000
0000
0000
,
0000
1001
0000
0000
,
0000
0000
0000
0000
,
0000
0110
0000
0000
,
0000
0000
1001
0000
,
0001
0000
0001
0000
,
0001
0000
0000
0000
,
1000
0000
1000
0000
,
1000
0000
0000
0000
,
0010
0000
0010
0000
,
0010
0000
0000
0000
,
0001
0000
1000
0000
,
1001
0000
0000
0000
,
0001
0000
1000
0000
,
0001
0000
0100
0100
,
1000
0000
0001
0000
,
1000
0000
0100
0100
,
0010
0000
0100
0000
,
0010
0000
1000
1000
,
0001
0000
1000
0000
,
0002
0000
1003
1001
,
0000
0110
0000
1001
,
0000
0110
0000
1001
,
0000
1100
0000
0011
,
0000
1010
0000
0101
,
0000
1001
0000
1010
,
0000
0110
0000
0011
,
0000
0110
0000
1001
,
0000
0110
0000
1001
,
0000
0001
0000
0001
,
1000
0000
1000
0000
,
0100
0000
0100
0000
,
0010
0000
0010
0000
,
0020
0000
0000
0030
,
0100
0000
0100
0000
,
1000
0000
1000
0000
,
0001
0000
0001
0000
,
0002
0000
0000
0003
,
0100
0010
0100
1000
,
0100
0010
0100
1000
,
0100
0010
0001
0010
,
0100
0001
0010
0100
,
0020
0000
0000
0030
,
0200
0000
0000
0300
,
2002
0000
0000
0000
,
3003
0000
0000
0000
,
1001
0000
0000
0000
,
0000
0000
0000
0000
,
0011
0000
0000
0000
,
0000
0000
0000
0000
,
1100
0000
0000
0000
,
0000
0000
1001
0000
,
1001
0000
0000
0000
,
0000
0000
0220
0000
,
0330
0001
0000
1000
,
0000
0001
0000
0001
,
0000
0100
0000
1000
,
0000
0100
0000
0100
,
0000
1000
0000
0001
,
0000
1000
0000
1000
,
0000
1001
0000
0100
,
0000
0010
0100
0001
,
0010
0100
0000
0100
,
1000
0000
1000
0000
,
0001
0000
0001
0000
,
0100
0000
0100
0000
,
0200
0000
0000
0300
,
1000
0000
0001
0000
,
1000
0000
0001
0000
,
2002
0000
0000
0000
,
3003
0000
0000
0000
,
0010
0100
0010
0001
,
0010
0100
0010
0001
,
2000
0000
3001
0000
,
0002
0000
1003
0000
,
1000
0001
0100
0001
,
0010
0001
0100
1000
,
0002
0000
1003
0000
,
2000
0000
3001
0000
,
1001
0000
0000
0000
;

//--------------- dance-single - K. Ward ----------------
#NOTES:
     dance-single:
     K. Ward:
     Medium:
     7:
     0.3306,0.423266,0.421545,0.14625,0,269,220,49,17,16,0,0.3306,0.423266,0.421545,0.14625,0,269,220,49,17,16,0:
0000
0000
0000
0000
,
0000
0000
0000
0000
,
0000
0000
0000
0000
,
0000
0000
0000
0000
,
0110
1001
0000
0000
,
0000
0000
0000
0000
,
0110
0011
0000
0000
,
0000
0000
1001
0000
,
0100
0100
0100
0100
,
0100
0000
0000
0000
,
1000
1000
1000
1000
,
1000
0000
0000
0000
,
0001
0001
0001
0001
,
0001
0000
0000
0000
,
0100
0000
0010
0000
0100
0001
0000
0011
,
0000
0000
1001
0000
,
1000
0001
1000
0001
,
0001
0000
0100
1010
,
0010
0100
0010
0100
,
0100
0000
0010
0101
,
0010
0100
0010
0100
,
0100
0000
0010
1001
,
0100
0010
0100
0100
,
0001
0000
0022
0033
,
0000
1010
00M0
0101
,
0M00
0110
00M0
1001
,
00M0
0110
00M0
1100
,
0M00
0011
0000
1001
,
0000
1010
00M0
0101
,
0M00
1100
00M0
0011
,
00M0
0110
0M00
1001
,
0M00
0011
0000
2002
,
3003
0100
0000
0010
,
0001
0001
0001
0001
,
1000
1000
1000
1000
,
0010
0010
0010
0010
,
0100
1000
0010
0001
,
0100
0100
0100
0100
,
0010
0010
0010
0010
,
1000
1000
1000
1000
,
0100
1000
0100
0010
,
0002
0000
0000
1003
0000
0000
0000
0000
,
2000
0000
0000
3001
0000
0000
0000
0000
,
0200
0000
0000
0310
0000
0000
0000
0000
,
0100
0010
0100
1000
,
2000
0000
0000
3001
0000
0000
0000
0000
,
0001
1000
0001
1000
,
0200
0000
0000
0310
0000
0000
0000
0000
,
0010
0100
0010
0100
,
1001
0000
0000
0000
,
0000
0000
0000
0000
,
0010
0000
0000
0000
,
0000
0000
0000
0000
,
1001
0000
0000
0000
,
0000
0000
0000
0000
,
1000
0000
0000
0000
,
0000
0000
1001
1001
,
0100
0010
0100
0200
,
0010
0000
0000
1300
0000
0000
1001
0000
,
0001
1000
0001
0020
,
0100
0000
0000
0031
0000
0000
1001
0000
,
1000
0010
0001
0010
,
0100
0000
0000
1001
0000
0000
0100
0000
,
1010
M0M0
0011
00MM
,
0100
0010
0100
0010
,
1001
0100
0000
0010
,
1000
1000
1000
1001
,
0001
0001
0001
1001
,
0100
0100
0100
1001
,
0010
0001
0200
0000
,
0310
0010
0010
0101
,
0010
0010
0010
1001
,
0100
0100
0100
1001
,
0010
0000
0001
0000
0100
0010
0100
0000
,
2000
0000
0000
3001
0000
0000
1001
0000
,
0002
0000
0000
1003
0000
0000
1001
0000
,
0200
0000
0000
0310
0000
0000
1001
0000
,
0010
0100
0010
0000
,
2000
0000
0000
3001
0000
0000
1001
0000
,
0010
0100
0010
0100
,
0002
0000
0000
1003
0000
0000
1001
0000
,
0100
0010
0100
0010
,
1001
0000
0000
0000
;

//--------------- dance-single - K. Ward ----------------
#NOTES:
     dance-single:
     K. Ward:
     Hard:
     14:
     0.646451,0.81126,0.266692,0.421545,0.387133,526,495,31,49,0,0,0.646451,0.81126,0.266692,0.421545,0.387133,526,495,31,49,0,0:
0000
0000
0000
0000
,
0000
0000
0000
0000
,
0000
0000
0000
0000
,
0000
0000
0000
0000
,
0001
1000
0110
0000
0000
0000
0000
0000
,
0000
0000
0000
0000
,
1000
0001
0110
0000
0000
0000
0000
0000
,
0000
0000
0110
1001
,
0001
0000
1000
0010
1000
0000
0001
0100
0001
0000
1000
0010
1000
0000
0001
0100
,
0001
0000
1000
0010
1000
0000
0001
0100
0001
0000
0000
0000
1001
0000
0000
0000
,
1000
0000
0001
0100
0001
0000
1000
0010
1000
0000
0001
0100
0001
0000
1000
0010
,
1000
0000
0001
0100
0001
0000
1000
0010
1000
0000
0000
0000
0110
0000
0000
0000
,
0001
0000
1000
0010
1000
0000
0001
0100
0001
0000
1000
0010
1000
0000
0001
0100
,
0001
0000
1000
0010
1000
0000
0001
0100
0001
0000
0000
0000
1001
0000
0000
0000
,
1000
0000
0001
0100
0001
0000
1000
0010
1000
0000
0001
0100
0001
0000
1000
0010
,
1000
0000
0110
1001
,
0001
0000
1000
0000
0000
0000
0001
0000
0100
0000
0000
0010
0000
0000
1000
0000
,
0001
0010
0000
0001
0100
0010
1000
0000
,
0100
0000
0001
0000
0000
0000
0100
0000
1000
0000
0000
0010
0000
0000
0100
0000
,
0001
0010
0000
0100
0010
0000
1001
0000
,
0001
0000
1000
0000
0000
0000
0100
0000
0010
0000
0000
0001
0000
0000
0010
0000
,
0100
1000
0000
1000
0100
0000
0110
0000
,
1000
0000
0001
0000
0000
0000
0100
0000
1000
0000
0000
0100
0000
0000
0001
0000
,
0010
0100
0000
0100
0010
0000
1001
0000
,
0020
0130
0002
0013
,
0200
1300
0100
0011
,
0100
0020
0000
0000
0001
0030
0102
0000
,
0013
0000
0102
0000
1000
0003
0001
0010
,
0100
2000
0000
0000
3100
0000
1001
0000
,
0010
0101
0010
1100
,
0010
0200
0000
0000
1000
0300
1002
0000
,
0100
0003
2010
0000
0100
0000
3010
0000
,
1001
0000
0000
0000
1000
1000
0000
0000
0000
0000
0000
0000
0001
0001
0000
0000
,
1000
0000
0000
0001
1000
0000
0002
0000
0000
0000
1003
0000
0001
0100
0001
0100
,
0001
0000
0000
0100
0010
0000
2000
0000
0000
0000
3001
0000
1000
0010
1000
0010
,
1000
0000
0000
0100
0010
0000
0002
0000
0000
0000
1003
0000
0001
0100
0001
0100
,
0001
0000
1000
0000
0100
0000
0010
0000
0001
0000
1000
0000
0001
1000
0001
0000
,
1000
0000
0000
0001
0010
0000
0200
0000
0000
0000
1300
0000
0010
1000
0010
1000
,
0010
0000
0000
0100
0001
0000
0020
0000
0000
0000
0130
0000
1000
0100
1000
0100
,
1000
0000
0000
0100
0010
0000
0002
0000
0000
0000
0000
0000
1003
0100
1000
0100
,
1000
0010
0100
0001
0010
0100
0110
0000
,
0002
0000
0000
2003
0000
0000
3200
0000
0000
0320
0000
0000
0031
0000
1000
0000
,
0020
0000
0000
0230
0000
0000
0302
0000
0000
2003
0000
0000
3100
0000
0010
0000
,
0001
0000
0000
1000
0001
0000
0020
0000
0000
0000
0000
0000
0130
1000
0100
1000
,
0100
1000
0000
0100
0010
0000
0110
0000
,
1000
0000
0000
0001
1000
0000
0002
0000
0000
0000
1003
0000
0010
0100
0010
0000
,
0100
0001
0010
0001
0100
0001
0010
0100
,
2000
0000
0000
0100
3010
0000
0002
0000
0000
0000
0003
0000
1000
0100
1000
0100
,
1000
0000
0010
0000
0100
0001
0010
0000
,
0100
0010
1001
0000
0000
0000
0000
0000
,
0000
0000
0000
0000
,
0100
0010
0011
0000
0000
0000
0000
0000
,
0000
0000
0000
0000
,
0100
0010
1100
0000
0000
0000
0000
0000
,
0000
0000
0100
0010
,
0001
1000
1001
0000
0000
0000
0000
0000
,
0000
0000
0110
1001
,
1000
0100
0010
0001
1000
0100
0010
0001
,
1000
0001
0010
0001
1000
0001
0020
0000
,
0130
1000
0001
0010
0100
1000
0001
0010
,
0100
1000
0100
0010
0100
1000
0200
0000
,
0310
0001
0100
0010
1000
0100
0010
0001
,
1000
0001
0010
0001
1000
0001
0020
0000
,
0130
0100
1000
0000
0010
0100
0001
0000
,
1000
0001
0020
0000
0031
1000
0200
0000
,
0310
0000
0000
0000
0001
0001
0000
0000
0000
0000
0000
0000
1000
1000
0000
0000
,
0001
0000
0000
1000
0001
0000
2000
0000
0000
0000
3001
0000
1000
0010
1000
0010
,
1000
0000
0000
0010
0100
0000
0002
0000
0000
0000
1003
0000
0001
0100
0001
0100
,
0001
0000
0000
0100
0010
0000
2000
0000
0000
0000
3001
0000
1000
0010
1000
0010
,
1000
0000
0001
0000
0010
0000
0100
0000
1000
0000
0001
0000
1000
0010
1000
0000
,
0001
0000
0000
0010
0100
0000
2000
0000
0000
0000
3100
0000
0010
0001
0010
0001
,
0010
0000
0000
0001
0100
0000
0002
0000
0000
0000
0013
0000
0100
0010
0100
0010
,
0100
0000
0000
0100
1000
0000
0100
0000
0000
0000
1000
0000
0010
0100
0010
0000
,
1000
0001
0100
1000
0100
0010
1001
0000
,
0002
0000
0000
2003
0000
0000
3200
0000
0000
0320
0000
0000
0031
0000
1000
0000
,
0002
0000
0000
0203
0000
0000
0320
0000
0000
2030
0000
0000
3001
0000
1000
0000
,
0001
0000
0000
1000
0001
0000
0010
0000
0000
0000
0001
0000
1000
0001
1000
0001
,
1000
0001
0000
0010
0100
0000
0110
0000
,
1000
0000
0000
0001
1000
0000
0002
0000
0000
0000
1003
0000
0001
0100
0001
0000
,
0010
0100
1000
0010
0001
0010
0100
0001
,
2000
0000
0000
0100
3010
0000
0002
0000
0000
0000
1003
0000
0010
1000
0010
0000
,
1000
0100
0001
0100
1000
0010
0100
1000
,
0100
0000
0000
0000
;

//--------------- dance-single - C. Foy ----------------
#NOTES:
     dance-single:
     C. Foy:
     Challenge:
     16:
     0.835717,0.917076,0.714046,0.447354,0.46456,680,597,83,52,0,0,0.835717,0.917076,0.714046,0.447354,0.46456,680,597,83,52,0,0:
0000
0000
0000
0000
,
0000
0000
0000
0000
,
0010
0100
0101
0001
0000
0010
0100
1000
,
0000
0000
0000
0000
0000
0000
0001
0000
1000
0100
0000
0000
0010
0000
0000
0000
,
0001
0010
0011
0001
0000
1000
0000
0010
,
0000
0000
0000
1000
0010
0100
0001
0010
,
0100
0000
1000
0000
1100
0000
1000
0000
0000
0000
0001
0010
0100
0000
1000
0000
,
0000
0000
0000
0000
0000
0000
0001
1000
0001
0000
0000
0000
1010
0000
0000
0000
,
0001
0000
0100
0010
1000
0000
0100
1000
0010
0000
0100
0001
1000
0000
0100
0010
,
0001
0000
0010
0001
1000
0000
0100
0010
0001
0000
0000
0000
0101
0000
0000
0000
,
0010
0000
1000
0100
0010
0000
0100
0010
0001
0000
0010
0001
1000
0000
0010
0100
,
0001
0000
0100
0010
1000
0000
0100
0010
0100
0000
0000
0000
1010
0000
0000
0000
,
0100
0000
0010
0100
0001
0000
0100
0010
1000
0000
0100
1000
0001
0000
1000
0010
,
0100
0000
0001
0100
0010
0000
1000
0001
0100
0000
0000
0000
0101
0000
0000
0000
,
1000
0000
0001
0100
0010
0000
1000
0001
0100
0000
0001
1000
0010
0000
1000
0001
,
0100
0000
0101
1010
,
1001
0000
1100
0000
0000
0000
0011
0000
0110
0000
0000
1100
0000
0000
1010
0000
,
0110
0101
0000
0011
0110
1100
1001
0000
,
0101
0000
1001
0000
0000
0000
0011
0000
1001
0000
0000
1010
0000
0000
0110
0000
,
0101
0110
0000
1001
1010
0000
1001
0000
,
0110
0000
1001
0000
0000
0000
0011
0000
1001
0000
0000
1010
0000
0000
0110
0000
,
0101
0110
0000
1001
1100
1010
0110
0000
,
0101
0000
1001
0000
0000
0000
0011
0000
0110
0000
0000
1100
0000
0000
1010
0000
,
0110
0101
0000
0110
1001
0000
1001
0000
,
1000
0100
1100
1000
0000
0010
1001
0100
,
0001
0000
1000
0000
1001
0000
0100
0001
0000
0000
1010
0000
0110
0000
0101
0000
,
0001
0100
0101
0001
0000
0010
1001
0100
,
1000
0000
0000
0000
0001
0000
0000
0000
0101
0000
0000
0000
0001
0000
0000
0000
0100
0000
0000
0000
0000
0000
0001
1000
0001
0000
0000
0000
1000
0000
0000
0000
,
0010
0100
1001
0100
0000
0001
0101
0001
,
0010
0100
0110
1000
0100
1100
1001
0101
,
0001
0000
0010
0000
1001
0000
0001
0000
0000
0100
0001
0000
0101
0000
0001
0000
,
0010
0000
0000
0000
0100
0000
0000
0000
1001
0000
0000
0000
0100
0000
0001
0000
0000
0000
0000
0000
0000
0000
0001
1000
0001
0000
0000
0000
1000
0000
0000
0000
,
0001
0000
0000
0000
2001
0200
3300
0000
0000
0000
0000
0000
1002
0200
0303
0000
,
0010
0000
0000
1000
0100
0000
0020
0000
0000
0000
0001
0030
1000
0010
0100
0001
,
1000
0000
0000
0010
1000
0000
0200
0000
0000
0000
0010
0300
0001
0100
0010
1000
,
0100
0000
0000
0010
0001
0000
0020
0000
0000
0000
0001
0030
0100
0010
1000
0001
,
0100
0000
0010
0000
0100
0000
1000
0000
0100
0000
0010
0000
1000
0001
0100
0000
,
0010
0000
0000
1000
0100
0000
0020
0000
0000
0000
0001
0030
1000
0010
0100
0001
,
0010
0000
0000
0001
1000
0000
0200
0000
0000
0000
1000
0300
0100
0010
0001
1000
,
0010
0000
0000
0100
0010
0000
1000
0000
0000
0000
0000
0000
0100
0010
0001
0010
,
0100
0000
1000
0000
0100
0000
0001
0000
0100
0000
1000
0000
0010
1000
0001
0000
,
2000
0000
0000
0020
3000
0000
0002
0030
0000
0020
0003
0000
1000
0030
0100
0000
,
0002
0000
0000
0200
0003
0000
2000
0300
0000
0020
3000
0000
0031
0000
0010
0000
,
0100
0000
0000
0010
1000
0000
0100
0000
0000
0000
0010
0000
0001
0010
0100
1000
,
0001
0000
0100
0000
0000
0000
0010
0000
0100
0000
0001
0000
0010
0100
0010
0000
,
0001
0000
0000
0100
0010
0000
2000
0000
0000
0000
0010
3000
0100
0001
1000
0000
,
0010
0100
0001
0010
0001
1000
0001
1000
,
0002
0000
0000
0013
0100
0000
0002
0000
0000
0000
0103
0000
0010
0001
1000
0000
,
0010
0100
0010
0100
0001
1000
0200
0300
,
0100
0000
0100
0010
0001
0000
0100
0000
0000
0000
0001
0000
0100
0000
1000
0000
,
0000
0000
1000
0100
,
0001
0000
0010
0100
1000
0000
0100
0000
0000
0000
0001
0000
0100
0000
1000
0000
,
0000
0000
0000
0000
0000
0000
0000
0000
0000
0010
0000
0000
0000
0000
0100
0000
0000
0000
0010
0000
0000
1000
0000
0000
,
0100
0010
0011
0001
0100
0010
0000
1000
,
0000
0000
0000
1000
0001
0000
0100
0000
,
0010
0000
1000
0000
1010
0000
0010
0000
0000
0000
0010
1000
0001
0000
0010
0000
,
0000
0000
0000
0000
0000
0000
0001
0100
0002
0000
1003
0000
1001
0000
0000
0000
,
1000
0100
0010
0001
1000
0100
0010
0001
,
1000
0001
1000
0001
1000
0002
2000
3003
,
1000
0100
0010
0100
1000
0010
1000
0010
,
1000
0010
0001
0010
1000
0002
0200
0303
,
0010
1000
0100
0010
1000
0010
1000
0010
,
0100
1000
0001
0100
0010
2000
0002
3003
,
1000
0001
1000
0100
0010
0100
1000
0001
,
0100
1000
0200
0000
0301
0010
2000
0000
,
3010
0000
0000
0000
2001
0200
3300
0000
0000
0000
0000
0000
1002
0200
0303
0000
,
0010
0000
0000
0100
0001
0000
0020
0000
0000
0000
0031
0000
1000
0001
0100
0010
,
1000
0000
0000
0100
0010
0000
0002
0000
0000
0000
0103
0000
0010
1000
0001
0100
,
0010
0000
0000
1000
0100
0000
0020
0000
0000
0000
0130
0000
1000
0010
0100
0001
,
0100
0000
0010
0000
1000
0000
0100
0000
0001
0000
0100
0000
1000
0001
0100
0000
,
0010
0000
0000
0100
0001
0000
0020
0000
0000
0000
0130
0000
1000
0100
0010
0001
,
1000
0000
0000
0010
1000
0000
0200
0000
0000
0000
0310
0000
0001
0100
0010
1000
,
0010
0000
0000
1000
0100
0000
0010
0000
0100
0000
1000
0000
0010
0100
0010
0000
,
0100
0000
0001
0000
0010
0000
1000
0000
0010
0000
0001
0000
1000
0010
0100
0000
,
1002
0000
0000
2003
0000
0000
3020
0000
0000
2030
0000
0000
3001
0000
1000
0000
,
0102
0000
0000
0023
0000
0000
0032
0000
0000
0203
0000
0000
0301
0000
1000
0000
,
0001
0000
0000
1000
0001
0000
0100
0000
0000
0000
0010
0000
1000
0010
0100
0001
,
0010
0000
0100
0000
0000
0000
0010
0000
0001
0000
0100
0000
0010
0100
0010
0000
,
1000
0000
0000
0010
0100
0000
0002
0000
0000
0000
0013
0000
0100
1000
0001
0000
,
1000
0010
1000
0100
0010
0001
0100
0010
,
2000
0000
0000
0010
3100
0000
0002
0000
0000
0000
1003
0000
0010
1000
0001
0000
,
2000
0000
0001
3000
0100
0000
0002
0000
0010
0003
0100
0000
1000
0000
0010
0000
,
0110
0000
0000
0000
;

//--------------- dance-double - M. Emirzian ----------------
#NOTES:
     dance-double:
     M. Emirzian:
     Easy:
     5:
     0.303562,0.352722,0.172059,0.017206,0,247,227,20,2,0,0,0.303562,0.352722,0.172059,0.017206,0,247,227,20,2,0,0:
00000000
00000000
00000000
00000000
,
00000000
00000000
00000000
00000000
,
00000000
00000000
00000000
00000000
,
00000000
00000000
00000000
00000000
,
10000000
10010000
00000000
00000000
,
00000000
00000000
00000000
00000000
,
00001000
00011000
00000000
00000000
,
00000000
00000000
00000001
00001001
,
00000100
00000000
00000010
00000000
,
00000000
00000000
00000000
00000000
,
00000010
00000000
00001000
00000000
,
00000100
00000000
00000000
00000000
,
00010000
00000000
00001000
00000000
,
00100000
00000000
00000000
00000000
,
01000000
00000000
10000000
00000000
,
00020000
00000000
00000000
00000000
,
01030000
00001000
00010000
00000000
,
00001000
00010000
00000100
00000010
,
00001001
00000110
00000000
00000000
,
00000001
00000100
00000010
00010000
,
00011000
01001000
00000000
00000000
,
00010000
01000000
00100000
10000000
,
01010000
01001000
00000000
00000000
,
00010000
00000100
00001000
00000010
,
00001100
00010100
00000000
00000000
,
00001000
00000010
00000100
00000000
,
00000001
00000100
00000010
00000000
,
00001000
00000100
00010000
00000000
,
00001000
01000000
00010000
00000000
,
10000000
01000000
00100000
00000000
,
01000000
00000000
00000000
00000000
,
00010000
00000000
00000000
00000000
,
00001000
00010000
00000000
00001000
,
00010000
00000100
00001000
00000010
,
00000100
00000001
00000100
00000010
,
00000100
00000010
00001000
00000100
,
00010000
00010000
00011000
00000000
,
00001000
01000000
00010000
01000000
,
00100000
10000000
00100000
10000000
,
01000000
00100000
00001000
00010000
,
00001000
00001000
00010100
00000000
,
00000100
00001000
00000010
00000100
,
00000001
00000010
00000001
00000010
,
00000100
00010000
00001000
01000000
,
00010000
00010000
01100000
00000000
,
00100000
10000000
01000000
00100000
,
00010000
01000000
00100000
01000000
,
00100000
01000000
00001000
00010000
,
00000100
00000100
00001010
00000000
,
00000100
00000000
00000100
00000000
,
00000100
00000000
00000000
00000000
,
00001001
00000000
00000100
00000000
,
00000100
00000000
00000000
00000000
,
00011000
00000000
00010000
00000000
,
00010000
00000000
00000000
00000000
,
01001000
00000000
01000000
00000000
,
02000000
00000000
00000000
00000000
,
03010000
01000000
00100000
10000000
,
00010000
01000000
00100000
00000000
,
10000000
01000000
00100000
00001000
,
00010000
00001000
01000000
00000000
,
00001000
00010000
00000010
00001000
,
00000100
00000010
00000001
00000000
,
00000100
00000010
00010000
00001000
,
00010000
00000100
00010000
00001000
,
00010000
00001000
00000000
00010000
,
00001000
01000000
00100000
00000000
,
10000000
10000000
10000000
00000000
,
00100000
10000000
00100000
01000000
,
00001000
00010000
00001000
00000000
,
00010000
00000010
00000100
00000001
,
00000100
00000010
00001000
00000100
,
00000010
00000001
00001000
00000100
,
00010000
00010000
00010000
00000000
,
00001000
01000000
00010000
01000000
,
00100000
10000000
00100000
01000000
,
00010000
10000000
01000000
00100000
,
00001000
00001000
00001000
00000000
,
00010000
00000100
00010000
00001000
,
00010000
00000010
00001000
00000100
,
00000010
00000001
00000100
00000010
,
00001000
00000100
00001001
00000000
,
00000110
00000000
00000000
00000000
;

//--------------- dance-double - M. Emirzian ----------------
#NOTES:
     dance-double:
     M. Emirzian:
     Medium:
     6:
     0.361325,0.49381,0.23228,0.008603,0,294,267,27,1,0,0,0.361325,0.49381,0.23228,0.008603,0,294,267,27,1,0,0:
00000000
00000000
00000000
00000000
,
00000000
00000000
00000000
00000000
,
00000000
00000000
00000000
00000000
,
00000000
00000000
00000000
00000000
,
10000000
00000000
00000000
00010000
00000000
00000000
00000000
10010000
,
00000000
00000000
00000000
00000000
,
00001000
00000000
00000000
00010000
00000000
00000000
00000000
00011000
,
00000000
00000000
00000000
00000000
,
00000001
00000000
00000110
00000000
00000000
00000000
00000000
00001001
,
00000000
00000000
00000100
00000000
,
00001000
00000000
00000000
00010000
00000000
00000000
00000000
00011000
,
00000000
00000000
00000000
00000000
,
00100000
00000000
00000000
01000000
00000000
00000000
00000000
10010000
,
00000000
00000000
00000000
00000000
,
00001000
00000000
00000000
00010000
00000000
00000000
00000000
00001000
,
00020000
00000000
00000000
00000000
,
00030100
00001000
00000010
00000100
,
00000001
00001000
00000100
00000000
,
00001000
00000100
00010000
00001000
,
00100000
00010000
10000000
00000000
,
01000000
00100000
00001000
00010000
,
00000100
00000000
00001000
00000000
00000010
00000100
00000001
00000000
,
00001100
00000010
00000001
00000100
,
00001000
00000000
00010000
00000000
00001000
01000000
00010000
00000000
,
01010000
00000000
00100000
00000000
,
10000000
01000000
01000000
00000000
,
00100000
00000000
00001000
00000000
,
00010000
00001000
00001000
00000000
,
00010000
00000000
00000100
00000000
,
00001000
00000010
00000010
00000000
,
00001001
00000000
00000010
00000000
,
00000100
00000000
00010000
00000000
,
00001000
00000000
00010000
00001000
01000000
00000000
00010000
01000000
,
00100000
00000000
00000000
10000000
00000000
00000000
01000000
00000000
,
00010000
00000000
00000000
00001000
00000000
00000000
00000100
00000000
,
00000001
00000000
00000000
00000010
00000000
00000000
00000100
00000000
,
00001000
00000000
00000000
00000010
00000000
00000000
00000100
00000000
,
00000010
00000000
00000000
00010000
00000000
00000000
00001000
00000000
,
01000000
00000000
00000000
00001000
00000000
00000000
01000000
00000000
,
00100000
00000000
00000000
10000000
00000000
00000000
01000000
00000000
,
00010000
00000000
00000000
00001000
00000000
00000000
00000010
00000000
,
00000001
00000000
00000000
00000010
00000000
00000000
00001000
00000000
,
00010000
00000000
00000000
00100000
00000000
00000000
01000000
00000000
,
00010000
00000000
00000000
10000000
00000000
00000000
01000000
00000000
,
00100000
00000000
00000000
00001000
00000000
00000000
00010000
00000000
,
00000100
00000000
00000000
00001000
00000000
00000000
00000010
00000000
,
00000100
00000000
00000000
00000001
00000000
00000000
00000100
00000000
,
00001000
00000000
00000000
00100000
00000000
00000000
01000000
00000000
,
10000000
00000000
00000000
00100000
00000000
00000000
01000000
00000000
,
10010000
00000000
00000000
10000000
00000000
01000000
00000000
10010000
,
00000000
00000000
01000000
00000000
,
00110000
00000000
00000000
00100000
00000000
00001000
00000000
00011000
,
00000000
00000000
00010000
00000000
,
00010100
00000000
00000000
00001000
00000000
00000010
00000000
00000101
,
00000000
00000000
00000010
00000000
,
00001001
00000000
00000000
00000100
00000000
00001000
00000000
00010010
,
00000000
00000000
00000000
00000000
,
00010000
00001000
00010000
00100000
,
10000000
00010000
01000000
00000000
00100000
10000000
00010000
00000000
,
01000000
00100000
10000000
01000000
,
00100000
00001000
00010000
00000000
00001000
00010000
00000010
00000000
,
00001000
00000100
00000010
00000001
,
00000100
00000010
00001000
00000000
00000100
00010000
00001000
00000000
,
00010000
00001000
01000000
00100000
,
10000000
00010000
01000000
00000000
00100000
01000000
00010000
00000000
,
10010000
00000000
10000000
00010000
01000000
00000000
00001000
00010000
,
00000100
00000000
00000000
00001000
00000000
00000010
00000100
00000000
,
00001001
00000000
00000000
00000100
00000000
00000010
00001000
00000000
,
00001100
00000000
00000000
00010000
00000000
00001000
01000000
00000000
,
00010000
01000000
00100000
10000000
01000000
00100000
00010000
00000000
,
01000000
00000000
00000000
00100000
00000000
10000000
01000000
00000000
,
00110000
00000000
00000000
01000000
00000000
00001000
00010000
00000000
,
00001100
00000000
00000000
00000010
00000000
00000100
00000001
00000000
,
00001000
00000100
00000010
00000001
00001000
00000100
00000010
00000000
,
00000100
00000000
00000000
00010000
00000000
00001000
00010000
00000000
,
00101000
00000000
00000000
00001000
00000000
01000000
00010000
00000000
,
10100000
00000000
00000000
10000000
00000000
00010000
01000000
00000000
,
00010000
01000000
00100000
10000000
01000000
00100000
00010000
00000000
,
10000000
00000000
00000000
00010000
00000000
01000000
00001000
00000000
,
00011000
00000000
00000000
00000010
00000000
00001000
00000100
00000000
,
00000011
00000000
00000000
00000100
00000000
00000010
00001000
00000000
,
00000100
00001000
00000010
00000100
00000001
00000010
00000100
00000000
,
00001001
00000000
00000000
00000000
;

//--------------- dance-double - M. Emirzian ----------------
#NOTES:
     dance-double:
     M. Emirzian:
     Hard:
     9:
     0.620642,0.740715,0.412942,0.08603,0.017206,505,457,48,10,4,0,0.620642,0.740715,0.412942,0.08603,0.017206,505,457,48,10,4,0:
00000000
00000000
00000000
00000000
,
00000000
00000000
00000000
00000000
,
00000000
00000000
00000000
00000000
,
00000000
00000000
00000000
00000000
,
00000010
00010000
00001000
00010000
00000000
00010010
00000000
00022000
,
00000000
00033000
00001000
00000000
01000000
00000000
00100000
00000000
,
01000000
00010000
00100000
01000000
00000000
11000000
00000000
20020000
,
00000000
30030000
00000000
M00M0000
10000000
00000000
01000000
00000000
,
00110000
00000000
00000000
00010100
00000000
00010000
00001000
00000020
,
00000000
00000030
00000001
00000000
00000100
00000000
00000010
00000000
,
00001010
00000000
00000000
00101000
00000000
00001000
00010000
02000000
,
00000000
03000000
10000000
00000000
00010000
00000000
01000000
00000000
,
10100000
00000000
00000000
01001000
00000000
00010000
00100000
02000000
,
00000000
03000000
00100000
00000000
00001000
00000000
00000010
00000000
,
00001100
00000000
00000000
00010010
00000000
00001000
00000100
00000010
,
00002002
00000000
00000000
00003003
,
0000M01M
00000000
00000100
00001000
00010000
00000000
00001000
01000000
,
00010000
00100000
00000000
01000000
10000000
01000000
00010000
01000000
,
00100000
00000000
00000000
00000000
00001000
00000000
00010000
00000000
00000100
00000000
00000000
00010000
00000000
00000000
00001000
00000000
,
01000000
00001000
00010000
00000000
00000100
00001000
00000010
00000100
,
00000001
00000000
00000000
00000000
00001000
00000000
00000100
00000000
00000010
00000000
00000000
00000100
00000000
00000000
00001000
00000000
,
00000010
00010000
00001000
00000000
10000000
00010000
01000000
10000000
,
01000000
00000000
00000000
00000000
00010000
00000000
01000000
00000000
00100000
00000000
00000000
01000000
00000000
00000000
00001000
00000000
,
00100000
00000000
00001000
00010000
00000100
00010000
00001000
00010000
,
00000010
00000000
00000100
00000001
00000010
00000000
00000100
00000000
,
00001100
00000000
00000010
00000001
00000100
00000010
00010000
00000000
,
00010100
00000000
00010000
00001000
01000000
00100000
00000000
10100000
,
00000000
00000000
01000000
00010000
00100000
01000000
10000000
00010000
,
00100000
00000000
00100000
00001000
00010000
00000010
00000000
00001010
,
00000000
00000000
00000001
00000100
00000010
00010000
00001000
00010000
,
00000010
00000000
00000010
00010000
00001000
00100000
00000000
11000000
,
00000000
00000000
00010000
10000000
01000000
00100000
01000000
00000000
,
20000000
30000000
01010000
00100000
11000000
00000000
01010000
00010000
,
00011000
00000000
00010000
00000100
00000000
01000000
00001000
00010000
,
00000100
00000000
00000010
00000001
00000100
00000000
00001010
00000000
,
00000100
00000000
00000001
00000100
00000000
00001000
00010000
00000100
,
00010000
00001000
00000000
01100000
00000000
11000000
00000000
10000000
,
10100000
00000000
00010000
01000000
00000000
00100000
10000000
01000000
,
00100000
00000000
00001000
00010000
00000010
00000000
00001100
00000000
,
00000100
00000000
00000010
00000001
00000000
00001000
00000010
00001000
,
00000100
00000000
00010000
00001000
00000000
00100000
00001000
00000000
,
00110000
00000000
00010000
01000000
00000000
00100000
00010000
00100000
,
10000000
00000000
01000000
00010000
00000000
00001000
00000010
00000000
,
00000001
00000000
00000100
00000010
00000000
00001000
00000100
00001000
,
00000100
00000010
00000000
00000100
00001000
00000000
00010100
00000000
,
00011000
00000000
00001000
01000000
00000000
00100000
10000000
01000000
,
10000000
00000000
00100000
01000000
00001000
00000000
01010000
00000000
,
00100000
00000000
01000000
00100000
00000000
00001000
00010000
00001000
,
00000010
00000001
00000100
00000010
00001000
00000100
00000010
00000001
,
00000100
00000000
00000100
00001000
00000000
00000100
00001000
00010000
,
01000000
00000000
10000000
00010000
,
10100000
00000000
01000000
01010000
00000000
01000000
00010000
00001000
,
00000100
00000000
00000000
00001001
00000000
00000000
00000100
00000000
,
00000101
00000000
00001000
00001010
00000000
00000010
00001000
00010000
,
00100000
00000000
10000000
01000000
,
11000000
00000000
00100000
00110000
00000000
00100000
00001000
00010000
,
00000010
00000000
00001001
00000101
,
00000010
00001000
00000100
00001000
00000001
00000100
00000010
00010000
,
00001000
00100000
00001000
00010000
00001000
01000000
00010000
00000000
,
00100000
00010000
00100000
01000000
00100000
00010000
01000000
00001000
,
00010000
00000100
00001000
00000010
00000100
00000001
00001000
00000000
,
00000010
00000100
00001000
00000100
00000010
00001000
00000100
00010000
,
00001000
00100000
01000000
10000000
00100000
10000000
01000000
00000000
,
00100000
01000000
10000000
00010000
00100000
01000000
00100000
00010000
,
00100000
00001000
00010000
00001000
00000100
00000001
00001000
00000100
,
00000110
00000010
00000101
00000000
00001010
00000100
00010010
00000100
,
00011000
00000000
00010000
00001000
00000000
01000000
00100000
10000000
,
01000000
00010000
01000000
00100000
00001000
00010000
00000100
00010000
,
00001000
00000000
00010000
00010100
00000000
00001000
00000100
00000000
,
00000010
00000100
00001000
00000001
00000100
00000010
00001000
00000100
,
00010000
00000000
00010000
00001000
00000000
01000000
00100000
01000000
,
00010000
00000000
00100000
01000000
00000000
10000000
00100000
01000000
,
00010000
00000000
00100000
00101000
00000000
00010000
00000010
00000000
,
00000100
00000010
00001000
00000010
00000100
00000001
00010000
00001000
,
00010000
00000000
00000010
00000100
00000000
00000001
00000100
00000010
,
00001000
00000000
00000100
00010000
00000000
00001000
00100000
00001000
,
00010000
00000000
00010000
00001000
00000000
00000010
00000001
00000010
,
00000100
00001000
00000010
00000100
00000010
00000100
00001000
00010000
,
00001000
00000000
00010000
00001000
01000000
00010000
00100000
00001000
,
00010000
00000100
00010000
00001000
01000000
00100000
10000000
01000000
,
00100000
00010000
00100000
00001000
00010000
00001000
01000000
00001000
,
00010000
00000000
00000010
00000000
00010000
00000000
00001000
00000000
00000010
00000000
00000001
00000000
00000100
00000010
00000100
00000000
,
00001001
00000000
00000000
00000000
;

//--------------- dance-double - M. Emirzian ----------------
#NOTES:
     dance-double:
     M. Emirzian:
     Challenge:
     10:
     0.739855,0.954526,0.438751,0.077427,0.219376,602,551,51,9,21,0,0.739855,0.954526,0.438751,0.077427,0.219376,602,551,51,9,21,0:
00000000
00000000
00000000
00000000
,
00000000
00000000
00000000
00000000
,
00000000
00000000
00000000
00000000
,
00000000
00000000
00000000
00000000
,
00002010
00000000
000000M0
00000010
00000000
00010000
00000000
00000100
,
00003000
00001000
00010000
01000000
,
00210000
00000000
0M000000
01000000
00000000
00010000
00000000
00001000
,
00300000
00000000
00010000
00000000
00001000
00000100
00000010
00000000
,
00002100
00000000
00000M00
00000100
00000000
00010000
00000000
00000010
,
00003000
00001000
00010000
00100000
,
02100000
00000000
M0000000
10000000
00000000
00010000
00000000
00001000
,
03000000
00000000
00010000
00000000
00000010
00010000
00001000
00000000
,
00002010
00000000
000000M0
00000010
00000000
00010000
00000000
00000100
,
00003000
00000000
00001000
00000000
00000100
00001000
00010000
00000000
,
00101000
00000000
00000000
01000000
00000000
00010000
00000000
00000000
,
01010000
00000000
10010000
00000000
00100000
00001000
00010000
01000000
,
00100000
00000000
00010000
01000000
10000000
01000000
00000000
00001000
,
00010000
00000000
00000100
00000000
00010000
00000000
00001000
00000000
00100000
00000000
00010000
00000000
01000000
00100000
01000000
00000000
,
00001000
00010000
00000100
00000010
00000001
00001000
00001001
00001100
,
00000000
00000011
00000000
00000100
00001000
00000100
00000010
00000000
,
00010000
00000000
00001000
00010000
00000100
00010000
00000000
00001000
,
00000100
00000000
00001000
00000000
00010000
00000000
00001000
00000000
01000000
00000000
00010000
00000000
10000000
00010000
10000000
00000000
,
00100000
10000000
00100000
01000000
00001000
00100000
00110000
10010000
,
00000000
11000000
00000000
10000000
01000000
00100000
00001000
00000000
,
00010000
00001000
00020000
01000000
0000M000
00001000
00000000
00130000
,
00000000
10100000
00000000
01000000
00100000
00001000
01000000
00001000
,
00010000
00000010
00000200
00001000
0000000M
00000001
00000000
00000310
,
00000000
00011000
00000000
00000010
00001000
00000100
00000010
00000100
,
00010000
00001000
02000000
00001000
000M0000
00010000
00000000
13000000
,
00000000
01010000
00000000
00100000
01000000
00100000
00001000
00010000
,
00001000
00010000
00000200
00000010
0000M000
00001000
00000000
00000301
,
00000000
00001100
00000000
00000010
00000100
00000000
00011000
00000000
,
01010000
00100000
10000000
00000000
01000000
00000000
00110000
00000000
00101000
00001000
00010000
00000000
00000010
00000000
00001100
00000010
,
00000001
00000100
00000010
00001000
00000000
00000100
00000010
00000100
,
00010000
00000000
00001000
00000000
00000100
00000000
00000010
00000000
00001000
00000100
00001000
00000000
00001001
00000000
00000000
00000000
,
00000010
00000100
00001000
00000100
00001000
00010000
00001000
01000000
,
00010000
01000000
00010000
00000000
00100000
00000000
01000000
00000000
10000000
00000000
00100000
00000000
01000000
00000000
00000000
00000000
,
00001000
01000000
00100000
01000000
00000000
00001000
00010000
00001000
,
00100000
00000000
00001000
00000000
00010000
00000000
00000100
00000000
00000010
00000001
00000010
00000000
00001001
00000000
00000000
00000000
,
00000010
00000100
00000001
00000010
00000100
00001000
00000010
00000100
,
00000001
00000010
00000001
00000000
00001000
00000000
00000010
00000000
00010000
00000000
00001000
00000000
00100000
00000000
00000000
00000000
,
00010000
10000000
00100000
01000000
00000000
00001000
00010000
00001000
,
01000000
00000000
00001000
00000000
00100000
00000000
01000000
00000000
10000000
00010000
10000000
00000000
01100000
00000000
00000000
00000000
,
00010000
01000000
00100000
00010000
00000010
00001000
00000100
00000010
,
00000100
00001000
00000100
00000000
00000010
00000000
00000100
00000000
00001000
00000000
00000100
00000000
00000010
00000000
00000000
00000000
,
00000001
00000100
00000010
00001000
00000000
00000010
00010000
00001000
,
01000000
00000000
00001000
00000000
00010000
00000000
00001000
00000000
01000000
00010000
01000000
00000000
01100000
00000000
00000000
00000000
,
00010000
01000000
00100000
10000000
01000000
00010000
01000000
00100000
,
00001000
00010000
00001000
00010000
00000100
00000000
00001000
00000000
00000010
00000100
00000010
00000100
00000001
00000000
00000010
00000000
,
00001001
00000000
00000000
00000100
00000000
00000010
00010000
00001000
,
01000000
00000000
00000000
0M0M0000
00001010
00000000
00101000
00000000
,
10010000
00000000
00000000
01000000
00000000
00100000
00001000
00010000
,
00000100
00000000
00000000
0000MM00
00110000
00000000
00010100
00000000
,
00001001
00000000
00000000
00000010
00000000
00000100
00001000
00010000
,
00100000
00000000
00000000
00MM0000
00001010
00000000
00101000
00000000
,
10010000
00000000
00000000
01100000
00000000
10010000
00000000
01100000
,
00000000
0MM00000
00010000
00000000
00011000
00000000
00001001
00000000
,
0000M01M
00000100
00001000
00000001
00000100
00000010
00010000
00000010
,
00000100
00000000
00000001
00000000
00000010
00000000
00000100
00000000
00000010
00000001
00000010
00000000
00001001
00000000
00000000
00000000
,
00000010
00001000
00000100
00010000
00000100
01000000
00001000
01000000
,
00010000
00000000
01000000
00000000
00100000
00000000
10000000
00000000
01000000
10000000
01000000
00000000
10010000
00000000
00000000
00000000
,
00100000
01000000
10000000
00100000
00010000
00100000
01000000
00001000
,
00010000
00000000
00000100
00000000
00010000
00000000
00001000
00000000
00010000
00001000
00010000
00000000
00010100
00000000
00000000
00000000
,
00000100
00000010
00000001
00000010
00000100
00001000
00000010
00000100
,
00000001
00001000
00000010
00000000
00010000
00001000
01000000
00000000
00001000
01000000
00010000
00000000
00100000
00000000
00010000
00000000
,
10010000
00000000
11000000
00000000
00110000
01000000
00001000
00000000
00100000
00000000
00110000
00000000
00101000
00010000
00001000
00000000
,
00010000
00000100
00001000
00000010
00000100
00000001
00000100
00000010
,
00001000
00000100
00000010
00000000
00000001
00000000
00000010
00000000
00000100
00000000
00000010
00000000
00000100
00000000
00010000
00000000
,
00001000
00010000
00001000
00000000
01000000
00000000
00100000
00000000
00010000
00000000
00100000
00000000
01000000
00000000
00010000
00000000
,
00100000
01000000
10000000
00000000
00010000
00000000
01000000
00000000
00100000
10000000
00010000
00000000
10000000
00010000
01000000
00010000
,
01000000
00100000
10000000
01000000
00100000
00001000
00010000
00000010
,
00001000
00000001
00000100
00000000
00000010
00000000
00000100
00000000
00000001
00000000
00000010
00000000
00001000
00000000
00000010
00000000
,
00000100
00001000
00000100
00000000
00000010
00000000
00000100
00000000
00010000
00001000
00010000
00000000
00001000
00000000
01000000
00000000
,
00010000
10000000
01000000
00000000
00100000
00000000
01000000
00000000
10000000
00010000
01000000
00000000
00010000
01000000
00100000
01000000
,
00100000
10000000
01000000
00010000
01000000
00100000
00001000
00010000
,
00000010
00001000
00000001
00000000
00000100
00000000
00000001
00000000
00000010
00000000
00000100
00000000
00001000
00000000
00000010
00000000
,
00001000
00000001
00000100
00000000
00000010
00000000
00001000
00000000
00000100
00000000
00000010
00000000
00000100
00000000
00010000
00000000
,
00001000
00010000
00001000
00000000
00100000
00000000
00010000
00000000
00100000
01000000
10000000
00000000
01000000
10000000
00010000
10000000
,
00010000
01000000
00100000
10000000
01000000
00100000
00010000
10000000
,
00010000
01000000
00010000
00000000
00100000
00000000
00001000
00000000
00000100
00000000
00000001
00000000
00000010
00000000
00000100
00000000
,
00001000
00000001
00000100
00000000
00000010
00000000
00000100
00000000
00000001
00001000
00000100
00000000
00000010
00000000
00000100
00000000
,
00001000
00000100
00010000
00000000
00001000
00010000
00000010
00000000
00010000
00001000
01000000
00000000
00100000
10000000
01000000
00000000
,
10010000
00000000
00000000
M00M0000
00000000
00000000
00000000
00000000
00000000
00000000
00000000
00000000
00000000
00000000
00000000
00000000
;

//--------------- lights-cabinet - ----------------
#NOTES:
     lights-cabinet:
     :
     Easy:
     1:
     0.739855,1.093437,0.628016,0,0.305405,602,501,73,0,0,16,0.739855,1.093437,0.628016,0,0.305405,602,501,73,0,0,16:
000000
000000
000000
000000
,
000000
000000
000000
000000
,
000000
000000
000000
000000
,
000000
000000
111100
111100
,
000100
100000
011000
000000
000000
000000
000000
000000
,
000000
000000
000000
000000
,
100000
000100
011000
000000
000000
000000
000000
000000
,
000000
000000
100100
011000
,
000100
100000
001000
100000
001000
010000
100100
010000
,
001000
010000
100100
010000
001000
100000
100100
000000
,
100000
000100
010000
001000
100000
001000
010000
000100
,
010000
001000
100000
001000
010000
100100
011000
000000
,
000100
100000
001000
000100
010000
100000
001000
010000
,
000100
100000
001000
010000
001000
100000
011000
000000
,
100000
000100
010000
000100
010000
001000
100100
001000
,
011000
000000
100100
100100
,
000100
000000
100000
000000
000000
000000
000100
000000
010000
000000
000000
001000
000000
000000
100000
000000
,
000100
001000
000000
000100
010000
001000
100000
000000
,
000100
000000
010000
000000
000000
000000
000100
000000
010000
000000
000000
000100
000000
000000
100000
000000
,
000100
010000
000000
000100
100000
000000
100100
000000
,
000100
000000
100000
000000
000000
000000
000100
000000
010000
000000
000000
001000
000000
000000
100000
000000
,
000100
001000
000000
000100
010000
001000
100000
000000
,
000100
000000
010000
000000
000000
000000
000100
000000
010000
000000
000000
000100
000000
000000
100000
000000
,
000100
010000
000000
000100
100000
000000
100100
000000
,
001010
010001
000110
001001
,
000110
000000
100001
000000
010010
000000
001001
000010
,
010001
001000
000010
000000
010001
000000
010110
000000
,
001001
000000
010110
000000
001001
000000
000110
100001
,
001010
100000
000001
000000
000110
000000
010001
000000
,
001010
000000
100001
000000
010010
000000
001001
000010
,
001001
010000
000010
000000
001001
000000
100110
000000
,
010001
000000
101010
000000
010001
000000
001010
000001
,
100111
000000
000000
000000
111100
111100
000000
000000
000000
000000
000000
000000
111100
111100
000000
000000
,
100000
000000
000000
000100
100000
000000
000100
000000
000000
000000
100000
000000
000100
010000
000100
010000
,
000100
000000
000000
010000
001000
000000
100000
000000
000000
000000
000100
000000
100000
001000
100000
001000
,
100000
000000
000000
001000
010000
000000
000100
000000
000000
000000
100000
000000
000100
010000
000100
010000
,
001000
000000
100000
000000
010000
000000
001000
000000
000100
000000
100000
000000
000100
100000
000100
000000
,
100000
000000
000000
000100
100000
000000
000100
000000
000000
000000
100000
000000
000100
010000
000100
010000
,
001000
000000
000000
100000
001000
000000
100000
000000
000000
000000
000100
000000
010000
000100
010000
000100
,
100000
000000
000000
001000
100000
000000
000100
000000
000000
000000
000000
000000
100000
001000
100000
001000
,
010000
000000
000100
000000
001000
000000
000100
000000
100000
000000
000100
000000
100000
001000
100000
000000
,
000100
000000
000000
100000
000000
000000
010000
000000
000000
100000
000000
000000
000100
000000
100000
000000
,
000100
000000
000000
001000
000000
000000
000100
000000
000000
001000
000000
000000
000100
000000
100000
000000
,
000100
000000
000000
100000
000100
000000
010000
000000
000000
000000
000100
000000
100000
000100
100000
000100
,
100000
000000
000100
000000
000000
000000
100000
000000
000100
000000
100000
000000
001000
010000
001000
000000
,
100000
000000
000000
000100
100000
000000
000100
000000
000000
000000
100000
000000
000100
010000
000100
000000
,
100000
001000
100000
000100
100000
001000
010000
000100
,
100000
000000
000000
001000
010000
000000
000100
000000
000000
000000
100000
000000
001000
100000
001000
000000
,
100000
001000
010000
000100
100000
000100
010000
000000
,
100100
011000
100100
000000
000000
000000
000000
000000
,
000000
000000
000000
000000
,
100100
011000
100100
000000
000000
000000
000000
000000
,
000000
000000
000000
000000
,
100100
011000
100100
000000
000000
000000
000000
000000
,
000000
000000
100100
100100
,
001000
010000
101000
000000
000000
000000
000000
000000
,
000000
000000
100100
100100
,
100000
010000
001000
000100
100000
010000
001000
000100
,
100000
000100
100000
000100
100000
000100
100000
000000
,
100000
010000
001000
000100
100000
010000
001000
000100
,
100000
000100
100000
000100
100000
000100
010000
000000
,
001000
100000
000100
100000
001000
100000
000100
100000
,
010000
001000
010000
001000
000100
100000
000100
000000
,
100000
000100
100000
010000
001000
010000
100000
000100
,
100000
010000
100000
000000
000100
010000
000100
000000
,
111100
000000
000000
000000
111100
111100
000000
000000
000000
000000
000000
000000
111100
111100
000000
000000
,
100000
000000
000000
001000
010000
000000
000100
000000
000000
000000
000100
000000
100000
001000
100000
001000
,
100000
000000
000000
001000
010000
000000
000100
000000
000000
000000
100000
000000
000100
010000
000100
010000
,
000100
000000
000000
010000
001000
000000
100000
000000
000000
000000
000100
000000
100000
001000
100000
001000
,
100000
000000
000100
000000
001000
000000
010000
000000
100000
000000
000100
000000
100000
001000
100000
000000
,
000100
000000
000000
010000
000100
000000
100000
000000
000000
000000
000100
000000
100000
001000
100000
001000
,
010000
000000
000000
000100
010000
000000
000100
000000
000000
000000
100000
000000
001000
100000
001000
100000
,
000100
000000
000000
010000
000100
000000
100000
000000
001000
000000
100000
000000
001000
010000
001000
000000
,
100000
000000
000100
000000
010000
000000
000100
000000
010000
000000
000100
000000
100000
001000
100000
000000
,
000100
000000
000000
100000
000000
000000
001000
000000
000000
100000
000000
000000
000100
000000
100000
000000
,
000100
000000
000000
010000
000000
000000
000100
000000
000000
010000
000000
000000
000100
000000
100000
000000
,
000100
000000
000000
100000
000100
000000
010000
000000
000000
000000
000100
000000
100000
000100
100000
000100
,
100000
000000
000100
000000
000000
000000
100000
000000
000100
000000
100000
000000
001000
010000
001000
000000
,
100000
000000
000000
000100
100000
000000
000100
000000
000000
000000
100000
000000
000100
010000
000100
000000
,
100000
001000
100000
000100
100000
001000
010000
000100
,
100000
000000
000000
001000
010000
000000
000100
000000
000000
000000
100000
000000
001000
100000
001000
000000
,
100000
000100
010000
000100
010000
000100
100000
000100
,
100100
000000
000000
000000
;
