#TITLE:Tell;
#SUBTITLE:;
#ARTIST:Symphonious;
#TITLETRANSLIT:;
#SUBTITLETRANSLIT:;
#ARTISTTRANSLIT:;
#GENRE:;
#CREDIT:;
#MUSIC:Tell.ogg;
#BANNER:tell-bn.png;
#BACKGROUND:Tell-bg.png;
#CDTITLE:;
#SAMPLESTART:19.140;
#SAMPLELENGTH:12.340;
#SELECTABLE:YES;
#OFFSET:-0.003;
#BPMS:0.000=163.000;
#STOPS:16.000=1.104;
#BGCHANGES:;
#FGCHANGES:;

//--------------- dance-single - M. Puls ----------------
#NOTES:
     dance-single:
     M. Puls:
     Beginner:
     1:
     0.098,0.129,0.105,0,0:
0000
0000
0000
0000
,
0000
0000
0000
0000
,
0000
0000
0000
0000
,
0000
0000
0000
0000
,
0000
0000
0000
0000
,
1000
0000
0000
0000
,
0001
0000
0000
0000
,
0100
0000
0000
0000
,
0010
0000
0000
0000
,
1000
0000
0000
0000
,
0001
0000
0000
0000
,
0010
0000
0000
0000
,
0000
1001
0000
0000
,
0000
0000
0000
0000
,
0000
1001
0000
0000
,
0000
0000
0000
0000
,
0000
1001
0000
0000
,
0000
0000
0000
0000
,
0000
1001
0000
0000
,
0000
0000
0000
0000
,
0100
0000
0000
0000
,
1000
0000
0000
0000
,
0100
0000
0000
0000
,
0010
0000
0000
0000
,
0001
0000
0000
0000
,
0010
0000
0000
0000
,
0100
0000
0000
0000
,
1000
0000
0000
0000
,
0100
0000
0000
0000
,
0010
0000
0000
0000
,
0001
0000
0000
0000
,
1000
0000
0000
0000
,
0100
0000
0000
0000
,
0010
0000
0000
0000
,
0001
0000
0000
0000
,
1000
0000
0000
0000
,
0100
0000
0000
1000
,
0000
0000
0000
0001
,
0000
1000
0000
0001
,
0000
1000
0000
0001
,
0000
0000
0000
1001
,
0000
0000
0000
1000
,
0000
0001
0000
1000
,
0000
0001
0000
1000
,
0000
0001
0000
0000
,
0000
1000
0000
0000
,
0000
0100
0000
0010
,
0000
0000
0000
0000
,
0000
1001
0000
0000
,
0000
1001
0000
0000
,
0000
1001
0000
0000
,
0000
1000
0000
0000
,
0000
0001
0000
0000
,
0000
0100
0000
0000
,
0000
0010
0000
0000
,
0000
0100
0000
0000
,
0000
1001
0000
0000
,
0000
0000
0000
0000
,
0000
1001
0000
0000
,
0000
0000
0000
0000
,
0000
1001
0000
0000
,
0000
0000
0000
0000
,
0000
1001
0000
0000
,
0000
0000
0000
0000
,
0000
1000
0000
0000
,
0000
0001
0000
0000
,
0000
1000
0000
0000
,
0000
0100
0000
0000
,
0000
0010
0000
0000
,
0000
0100
0000
0000
,
0000
0010
0000
0000
,
0000
0100
0000
0000
,
0000
0001
0000
0000
,
0000
1000
0000
0000
;

//--------------- dance-single - K. Ward ----------------
#NOTES:
     dance-single:
     K. Ward:
     Easy:
     4:
     0.221,0.257,0.158,0.035,0:
0000
0000
0000
0000
,
0000
0000
0000
0000
,
0000
0000
0000
0000
,
0100
0000
0100
0000
,
0010
0100
0000
0100
,
0000
0100
0000
0001
,
0000
1000
0000
1000
,
0000
0200
0000
0300
,
0000
1000
0000
1000
,
0000
0001
0000
0001
,
0000
0100
0000
0100
,
0000
0020
0000
0030
,
0000
1001
0000
1001
,
0000
1000
0010
0100
,
0000
1001
0000
1001
,
0000
0010
0100
0001
,
0000
1001
0000
1001
,
0000
0100
0010
0100
,
0000
1001
0000
1001
,
0000
0010
0100
0100
,
0000
1000
0000
0000
,
0000
0001
0000
0000
,
0000
0010
0000
0000
,
0000
0100
0100
0100
,
0000
1000
0000
0000
,
0000
0001
0000
0000
,
0000
0100
0000
0010
,
0000
0100
0100
0100
,
0000
0001
0000
0100
,
0000
0001
0000
1000
,
0000
0100
0000
0010
,
0000
0200
0000
0300
,
0000
1000
0000
0001
,
0000
1000
0000
0001
,
0000
0100
0000
0010
,
0000
0200
0000
0300
,
0000
0010
0000
0010
,
0000
0001
0001
0001
,
0000
1000
0000
0001
,
0000
1000
1000
1000
,
0000
0010
0000
0100
,
0000
0001
0001
0001
,
0000
1000
0100
0001
,
0100
1000
0100
0001
,
0000
1000
0000
0000
,
0000
0100
0000
0000
,
0000
0001
0000
0100
,
0000
0010
0100
1001
,
0000
1000
0000
0000
,
0000
0001
0000
0000
,
0000
1000
0000
0000
,
0000
0001
0000
0000
,
0000
0100
0000
0100
,
0000
0010
0000
0010
,
0000
0100
0000
0100
,
0000
0010
0010
0010
,
0010
1001
0000
1001
,
0000
1000
0010
0100
,
0000
1001
0000
1001
,
0000
0100
0010
0100
,
0000
1001
0000
1001
,
0000
0100
0010
1000
,
0000
1001
0000
1001
,
0000
0100
0001
0010
,
0000
0001
0001
0001
,
0000
1000
1000
1000
,
0000
0100
0000
0010
,
0000
0001
0000
0100
,
0000
1000
0000
0001
,
0000
1000
1000
1000
,
0000
0001
0001
0001
,
0000
0100
0010
1000
,
0100
0010
0001
0010
,
0100
1001
0000
0000
;

//--------------- dance-single - K. Ward ----------------
#NOTES:
     dance-single:
     K. Ward:
     Medium:
     8:
     0.443,0.455,0.518,0.079,0:
0000
0000
0000
0000
,
0000
0000
0000
0000
,
0000
0000
0000
0000
,
1000
0100
1000
0000
0010
0100
0010
0000
,
1001
0000
1000
0000
0001
0000
1000
0001
,
0100
0000
0001
0000
0100
0000
0010
1000
,
0100
0000
1000
0000
0010
0000
0100
0001
,
0010
0200
0000
0310
,
1001
0000
0001
0000
0100
0000
0010
0100
,
0001
0000
0010
0000
0100
0000
0010
0100
,
1000
0000
0001
0000
0100
0000
0010
0100
,
0001
0020
0000
0130
,
0000
0110
1001
0110
,
1001
0001
0100
0010
,
0100
1001
0110
1001
,
0110
0010
1000
0100
,
0010
1001
0110
1001
,
0110
0001
0010
0100
,
0010
0110
1001
0110
,
1001
0000
0001
1000
0001
1000
0001
0000
,
0000
0000
1001
0000
0000
0000
0000
0100
,
0010
0100
0010
0100
0010
0100
0010
0000
,
0000
0000
1001
0000
0000
0000
0000
0010
,
0100
0010
0100
0010
0100
0010
0100
0000
,
0000
1000
0100
0000
0000
0000
0000
0001
,
1000
0001
1000
0001
1000
0000
1001
0000
,
0000
0000
1000
0000
0010
0000
0100
0001
,
0010
0000
0100
0010
0100
0010
0100
0000
,
1001
0000
1000
0000
0001
0000
1000
0001
,
0100
0000
0001
0000
0100
0000
0010
1000
,
0100
0000
1000
0000
0010
0000
0100
0001
,
0010
0200
0000
0310
,
1001
0000
0001
0000
0100
0000
0010
0100
,
0001
0000
1000
0000
1000
0000
0100
0001
,
0010
0000
0100
0000
0001
0000
0010
0100
,
1000
0200
0000
0310
,
0000
1001
0000
0110
,
0000
0011
1100
1001
,
0000
0000
0001
1000
0010
0000
0100
0010
,
1000
0001
0100
1001
,
0000
1100
0000
0011
,
0000
0110
1001
1001
,
0000
0000
0100
0010
1000
0000
0010
0100
,
0001
0010
0100
1001
,
0000
2000
0000
0100
,
3010
0002
0000
0100
,
0013
1001
0001
1001
,
1000
0110
0100
1001
,
0000
0000
1000
0000
0010
0000
0100
0001
,
1000
0000
0100
0000
0010
0000
0100
1000
,
0001
0000
1000
0000
0010
0000
0100
0001
,
0010
1200
0000
0010
,
0310
0001
000M
0001
,
000M
0001
0100
0010
,
00M0
0010
00M0
0010
,
00M0
0010
0100
1001
,
0000
0110
1001
0110
,
1001
0001
0100
0010
,
0010
1001
0110
1001
,
0110
1000
1000
0100
,
0010
1001
0110
1001
,
0110
0000
0001
0000
0001
0000
1000
0100
,
0010
0110
1001
0110
,
1001
0000
0100
0010
1000
0000
0100
0000
,
0000
0000
1000
0000
0001
0000
1000
0010
,
0100
0000
0001
0000
1000
0000
0100
0010
,
0100
0010
0000
0011
,
0000
0100
0001
1000
,
0001
0100
0001
1000
,
0001
0100
0010
0100
,
0010
1000
0010
0100
,
0001
0010
0000
0100
,
0000
0010
0010
0100
,
0100
2002
0000
0000
,
3003
0000
0000
0000
;

//--------------- dance-single - K. Ward ----------------
#NOTES:
     dance-single:
     K. Ward:
     Hard:
     13:
     0.612,0.65,0.404,0.141,0.123:
0000
0000
0000
0000
,
0000
0000
0000
0000
,
0000
0000
0000
0000
,
1000
0100
0001
0100
1000
0010
0100
0001
,
0010
0000
0000
0000
0001
0000
1000
0001
1000
0000
0001
0010
0001
0000
0100
0000
,
0001
0000
0000
0000
1000
0000
0010
1000
0010
0000
0100
0010
0100
0000
0010
0000
,
1000
0000
0000
0000
0100
0000
1000
0010
0100
0000
0010
0100
0001
0000
0100
0000
,
0001
0020
0000
0100
,
0031
0000
0000
0000
1000
0000
0001
1000
0010
0000
1000
0010
0100
0000
0010
0000
,
1000
0000
0000
0000
0010
0000
1000
0001
0100
0000
0001
0100
0010
0000
0100
0000
,
0001
0000
0000
0000
1000
0000
0001
0100
0010
0000
1000
0010
1000
0000
0010
0000
,
0100
2000
0000
3100
,
0010
1001
0110
0011
,
0101
0000
1000
0010
0100
0001
0010
0100
,
0010
0101
1100
0110
,
1001
0000
0010
0100
0001
0010
0100
0010
,
0000
1001
0110
0011
,
0101
0000
1000
0001
0100
0010
1000
0100
,
0010
0101
0011
0110
,
1001
0000
0100
0010
0100
0001
0010
0001
,
0000
0000
1000
0100
0001
0000
0001
0100
,
1000
0000
0001
0100
0010
0100
0001
0100
,
0010
0000
1000
0100
0001
0000
0001
0100
,
1000
0000
0100
0010
0001
0100
0010
0000
,
0101
0000
0001
1000
0001
0010
0100
1000
,
1000
0100
0010
0001
0001
0010
0100
1000
,
0000
1000
0100
0010
0100
1000
0010
0100
,
0001
0010
0100
0001
0010
0100
0010
0000
,
0101
0000
0000
0000
0001
0000
1000
0010
1000
0000
0010
1000
0010
0000
0100
0000
,
0010
0000
0000
0000
1000
0000
0010
0100
0001
0000
0100
0001
0010
0000
0001
0000
,
0100
0000
0000
0000
0001
0000
0100
0010
1000
0000
0010
1000
0010
0000
0100
0000
,
0001
0020
0000
0130
,
0011
0000
0000
0000
1000
0000
0010
1000
0010
0000
0100
0010
1000
0000
0010
0000
,
0010
0000
0000
0000
0001
0000
0100
0010
1000
0000
0010
0100
0010
0000
0100
0000
,
0100
0000
0000
0000
1000
0000
0010
1000
0010
0000
0100
0010
1000
0000
0010
0000
,
0010
0200
1000
0310
,
0100
0001
0020
0000
0000
0000
0230
0000
,
0000
1000
0310
2002
,
3003
0000
1000
0001
1000
0001
1000
0000
,
0011
0000
0100
1000
0100
0010
0100
0000
,
0001
0010
0001
0010
0001
0000
0000
0000
0000
0000
0000
0000
2000
0000
0000
0000
,
0000
3100
0010
2002
,
3003
0000
0010
0100
0010
0100
0010
0000
,
1100
0000
0010
0001
0010
0100
0010
0000
,
0001
1000
0001
1000
0001
0000
0000
0000
0000
0000
0000
0000
0100
0000
0010
0000
,
1000
0000
2000
0000
0000
0000
3100
0010
,
0001
0000
0010
0100
1000
0000
0010
0100
,
0001
0000
0010
0100
0010
0000
0101
0000
,
0000
0000
1000
0001
0100
0010
1000
0001
,
M000
0000
0001
1000
0010
1000
0010
0100
,
000M
0000
0100
0010
1000
0100
0010
0100
,
M0M0
0000
0001
0100
0001
0100
0010
M000
,
1100
M000
1000
0100
0100
0010
0100
0010
,
0001
0000
0001
0010
0010
0100
0010
0100
,
1000
0000
1000
0010
0100
0001
1000
0001
,
0100
0000
0010
0100
0001
0000
0010
0001
,
1000
1100
0011
1001
,
0110
0000
0001
0100
0010
1000
0100
1000
,
1000
M000
0011
0000
1100
0000
1001
0000
,
0110
0000
0001
1000
0100
0010
0100
0010
,
0010
00M0
0101
0000
1100
0000
0011
0000
,
1001
0000
0100
0001
0010
0100
0010
0001
,
0001
000M
1100
0000
0011
0000
0110
0000
,
1001
0000
0010
0100
0001
0010
0100
0010
,
M0M0
0M0M
1001
0000
0010
0000
0100
0001
,
0010
0000
0010
0000
0100
0000
0010
0001
,
1000
0110
0000
0011
,
0000
2000
0010
0100
,
3002
0100
0010
0100
,
1003
0000
0010
0100
0010
0100
0010
0000
,
0110
0000
0001
1000
0001
1000
0001
0000
,
1001
0000
0001
0010
0100
1000
0010
0100
,
0001
0010
0001
0100
0010
0000
0100
0001
,
0020
0200
0000
0000
,
0330
0000
0000
0000
;

//--------------- dance-single - C. Foy ----------------
#NOTES:
     dance-single:
     C. Foy:
     Challenge:
     17:
     1,1,0.799,0.36,0.782:
0000
0000
0000
0000
,
0000
0000
0000
0000
,
0110
1000
1010
0001
,
0011
0000
0000
0000
0000
0000
0000
0000
0110
0000
0000
0000
0000
0000
0000
0000
1001
0000
0000
0000
01M0
M00M
0000
0000
1001
0000
0000
0000
0MM1
M000
0000
0000
,
1001
0000
0001
0100
0001
0000
0100
0010
1000
0000
0100
0010
0001
0000
0100
0000
,
0010
0000
0010
1000
0001
0000
0010
0100
1000
0000
1000
0001
0010
0000
0010
0000
,
0100
0000
0100
1000
0001
0000
0100
0001
0100
0000
0010
0100
0001
0000
0001
0000
,
0010
0000
0010
0001
2000
0000
0000
0000
0000
0000
3001
0100
0010
0000
0100
0000
,
0100
0000
0001
1000
0100
0000
1000
0001
0100
0000
0100
0010
1000
0000
1000
0000
,
0001
0000
0001
0100
0010
0000
1000
0001
1000
0000
0010
0100
0010
0000
0010
0000
,
1000
0000
1000
0001
0100
0000
0010
0100
0010
0000
1000
0100
0010
0000
0010
0000
,
0100
0000
1000
0001
0020
0000
0000
0000
0000
0000
0031
1000
0100
0000
0010
0000
,
0100
0000
1000
0100
1100
0000
0010
0100
0110
0000
0010
1000
1010
0000
0010
0000
,
0110
0001
1000
0100
1000
0001
0100
0010
,
1000
0000
0001
0010
0011
0000
0100
1000
1100
0000
1000
0001
1001
0000
0100
0000
,
0110
1000
0001
0010
0001
1000
1010
1010
,
1100
0000
0001
0100
0101
0000
0010
1000
1010
0000
1000
0100
1100
0000
1000
0000
,
1001
0001
0001
1000
0010
0100
0001
1000
,
0001
0000
1000
0010
1010
0000
0001
0100
0101
0000
0010
0001
0011
0000
1000
0000
,
1001
0001
1000
0001
0100
0010
1001
1100
,
1001
0000
0001
1000
1100
0000
0100
1000
0001
0000
0100
0000
1000
0000
0200
0000
,
0300
0000
0001
0000
0010
0000
0200
0000
0300
0000
1000
0000
0010
0000
1000
0100
,
0010
0000
0010
0001
0100
0000
0100
0010
1000
0000
0100
0000
0001
0000
0200
0000
,
0300
1000
0010
0002
0003
0010
1000
0000
,
0100
0000
0010
0001
1001
0000
1000
0010
0100
0000
0100
0000
0010
0000
0020
0000
,
0030
0100
1000
0200
0300
0001
0010
1000
,
0010
0000
0001
0100
0010
0000
0010
1000
0001
0000
0100
0000
1000
0000
0200
0000
,
0300
0000
0001
0000
0010
0000
0200
0000
0300
0000
1000
0000
1000
0100
0010
0001
,
1000
0100
1000
0100
1100
0000
1000
0100
1000
0000
0010
1000
0010
0000
1000
0000
,
1000
0000
1000
0010
0100
0000
0100
0010
1000
0000
1000
0001
0010
0000
0010
0000
,
0001
0000
0001
0100
0010
0000
0010
0100
0001
0000
0001
1000
0100
0000
0100
0000
,
0010
0000
0010
0100
2000
0000
0000
0000
0000
3000
0001
1000
0100
0000
1000
0000
,
0001
0000
0001
1000
1001
0000
1000
0010
0100
0000
0001
1000
0100
0000
0100
0000
,
0010
0000
0010
0001
1000
0000
0010
1000
0010
0000
0010
1000
0001
0000
0100
0000
,
0001
0000
0001
0100
0010
0000
1000
0001
0100
0000
0100
0010
1000
0000
0100
0000
,
0010
0000
0100
1000
0020
0000
0000
0000
0030
0000
0010
1000
1010
0000
0010
0000
,
1001
0000
0001
1000
1001
0000
1000
0010
0100
0000
0100
0000
0101
0000
0000
0000
,
0000
0000
0001
0000
1100
0000
1000
0000
1001
0000
1000
0000
1001
0001
1000
0001
,
0100
0010
1000
0100
1000
0001
2MM0
3001
0100
0010
M20M
0310
1000
0010
1000
0100
,
20MM
3100
0010
0100
0010
0001
MM20
0031
1000
0001
0100
0001
M2M0
0301
0100
0010
,
0100
0010
1000
0001
1MM0
0000
1000
0010
0100
0000
0100
0000
0101
0000
0000
0000
,
0000
0000
1000
0000
0011
0000
0001
0000
1001
0000
0001
0000
1001
1000
0001
1000
,
0010
0100
0001
0010
0001
1000
0MM2
1003
0010
0100
M02M
0130
0001
0100
0001
0010
,
MM02
0013
0100
0010
0100
1000
02MM
1300
0001
1000
0010
1000
0M2M
1030
0010
0100
,
0001
0100
0010
0100
M02M
0030
1000
0001
0100
0000
0001
0010
0100
0000
0100
0000
,
0100
0000
1000
0001
0100
0000
0100
0010
1000
0000
1000
0100
0010
0000
0010
0000
,
0010
0000
0001
0001
0001
0000
1000
1000
,
1000
0000
0000
0000
1000
0000
0010
0000
1000
0001
0010
0000
M11M
0000
0100
0000
,
0100
0000
0000
0000
0100
0000
0000
0000
10MM
0M00
0000
0000
0001
0000
1000
0000
0100
0000
0000
0000
0010
0000
0001
0000
1000
0000
0000
0000
1000
0000
0000
0000
,
0MMM
M000
0000
0000
1000
0000
0001
0000
0100
0000
0000
0000
0001
0000
0010
0000
0100
0000
0000
0000
0100
0000
1000
0000
0001
0000
0000
0000
0100
0000
0000
0000
,
M0MM
0M00
0000
0000
1000
0000
0001
0000
0010
0000
0000
0000
0001
0000
0100
0000
0001
0000
0000
0000
0010
0000
0100
0000
0010
0000
0000
0000
0001
0000
0000
0000
,
MMM0
000M
0000
0000
0000
0000
0000
0000
2002
0000
0000
0000
0000
0000
0000
0000
3003
0000
0000
0000
0001
0000
0100
0000
0010
0000
0000
0000
1000
0000
0000
0000
,
0100
0000
0000
0000
1010
0000
0100
0001
1000
0000
1000
0100
0010
0000
0010
0000
,
0010
0000
0001
0100
0101
0000
0100
0001
1000
0000
1000
0010
1010
0000
0100
0000
,
0101
0000
0001
1000
1001
0000
0001
0100
0010
0000
0010
1000
1010
0000
1000
0000
,
0100
0000
1000
0010
2020
0000
3030
0000
1010
0000
0001
0100
0101
0000
0100
0000
,
0001
0010
0100
1000
1100
0000
0001
0010
0011
0000
1000
0001
1001
0000
0010
0000
,
0110
1000
0100
0001
0100
1000
0010
0001
,
0010
0000
1000
0001
1001
0000
0100
0001
0101
0000
0010
0001
0011
0000
1000
0000
,
1010
1000
0100
1000
0010
1000
1001
0101
,
0010
1000
0001
0100
0101
0000
0001
1000
1001
0000
0010
0100
0110
0000
0010
0000
,
1010
0001
0100
0001
0010
0001
0100
1000
,
0100
0000
0001
0100
0101
0000
0010
1000
1010
0000
0001
0100
0101
0000
0010
0000
,
1001
0010
1000
0100
0010
0001
0101
1001
,
0100
0000
0001
1000
1001
0000
0010
0100
0001
0000
1000
0010
1010
0000
1001
0000
,
1100
0000
1000
0100
0010
0000
0010
0001
1000
0000
1000
0100
1100
0000
1001
0000
,
0202
0303
0110
0100
0200
0300
1001
0100
,
0100
0000
0000
0000
000M
00M0
0M00
M000
001M
0000
0000
0000
0010
0000
1000
0000
1010
0000
0000
0000
0010
0000
0000
0000
1000
0000
0000
0000
0100
0000
0000
0000
,
1001
1000
0010
0100
0110
0010
1000
0100
,
0110
0000
0000
0000
0010
0000
0000
0000
M20M
00M0
0000
0000
0300
0000
0000
0000
20MM
0M00
0000
0000
3000
0000
0000
0000
0M2M
M000
0000
0000
0030
0000
0000
0000
,
M20M
00M0
0000
0000
0300
0000
0000
0000
M02M
0M00
0000
0000
0030
0000
0000
0000
2M0M
00M0
0000
0000
3000
0000
0000
0000
02MM
M000
0000
0000
0300
0000
0000
0000
,
M02M
0M00
0000
0000
0030
0000
0000
0000
0101
0000
0000
0000
0010
0000
1000
0000
0001
0000
0000
0000
0100
0000
0000
0000
0010
0000
0000
0000
1000
0000
0100
0000
,
1000
0000
0001
0000
1001
1000
0000
0000
0010
1000
0000
0000
0002
0000
0000
0003
,
0000
1000
2MM2
0000
0000
0000
0000
0000
,
3003
0000
0000
0000
;

//--------------- dance-double - M. Emirzian ----------------
#NOTES:
     dance-double:
     M. Emirzian:
     Easy:
     4:
     0.255,0.293,0.114,0.044,0:
00000000
00000000
00000000
00000000
,
00000000
00000000
00000000
00000000
,
00000000
00000000
00000000
00000000
,
00010000
10000000
00010000
01000000
,
00001000
00010000
00001000
00001000
,
00000000
00000010
00000001
00000001
,
00000000
00001000
00000100
00000100
,
00000000
00010000
00000000
00001000
,
00011000
00010000
00001000
00001000
,
00000000
01000000
00100000
00100000
,
00000000
10000000
01000000
01000000
,
00000000
00100000
00000000
00001000
,
00011000
00010000
00000000
00000100
,
00000000
00001000
00000010
00000100
,
00000000
00000001
00000000
00001000
,
00000000
00000100
00010000
00001000
,
00000000
01000000
00000000
00010000
,
00000000
00100000
01000000
10000000
,
00000000
00010000
00000000
01000000
,
00000000
00001000
00010000
00000010
,
00000000
00001000
00000000
00000000
,
00000000
00000100
00000000
00000000
,
00000000
00000010
00000000
00000000
,
00000000
00000001
00000000
00001000
,
00000000
00000000
00000000
00000000
,
00000000
00000100
00000000
00000000
,
00000000
01000000
00000000
00000000
,
00000000
00010000
00010000
00010000
,
00010000
10000000
01000000
01000000
,
00000000
00010000
00001000
00001000
,
00000000
00000100
00000001
00000001
,
00000000
00001000
00000000
00000100
,
00001100
00000100
00000010
00000010
,
00000000
00000001
00000100
00000100
,
00000000
00001000
00010000
00010000
,
00000000
01000000
00000000
10000000
,
00010000
10010000
00000000
10010000
,
00000000
10000000
00010000
00100000
,
00001000
00010000
00000010
00001000
,
00000001
00000000
00001000
00000001
,
00000000
00001001
00000000
00001001
,
00000000
00000001
00001000
00000010
,
00010000
00001000
01000000
00010000
,
10000000
00000000
01000000
00100000
,
00000000
00001000
00000000
00000000
,
00000000
00010000
00000000
00000000
,
00000000
00000100
00000000
00000000
,
00000000
00000010
00000000
00000000
,
00000000
00000001
00000000
00000000
,
00002000
00003000
00000000
00000000
,
02000000
03000000
00000000
00000000
,
20000000
30000000
00000000
00000000
,
00000000
10000000
00000000
00000000
,
00000000
00010000
00000000
00000000
,
00000000
00100000
00000000
00000000
,
00000000
00001000
00000000
00000000
,
00000000
00000100
00000001
00000001
,
00001000
00000001
00000001
00000010
,
00000100
00010000
00001000
00001000
,
00010000
00001000
00001000
01000000
,
00010000
10000000
00010000
00010000
,
10000000
00010000
00010000
01000000
,
00001000
00010000
00001000
00001000
,
00010000
00001000
00001000
00000010
,
00000001
00001000
00000100
00000011
,
00000000
00001000
00000100
00010100
,
00000000
00011000
00000000
01001000
,
00000000
01010000
01000000
00100000
,
01000000
00100000
10000000
00010000
,
00100000
01000000
10000000
00010000
,
00100000
00001000
00010000
00001000
,
00000100
00000001
00000100
00000010
,
00001000
00000100
00000010
00000001
,
00001000
00002002
00000000
00000000
,
00000000
00000000
00000000
00000000
00000000
00003003
00000000
00000000
00000000
00000000
00000000
00000000
00000000
00000000
00000000
00000000
00000000
00000000
00000000
00000000
00000000
00000000
00000000
00000000
00000000
00000000
00000000
00000000
00000000
00000000
00000000
00000000
;

//--------------- dance-double - M. Emirzian ----------------
#NOTES:
     dance-double:
     M. Emirzian:
     Medium:
     6:
     0.437,0.456,0.369,0.263,0:
00000000
00000000
00000000
00000000
,
00000000
00000000
00000000
00000000
,
00000000
00000000
00000000
00000000
,
00010000
00000000
00001000
00000000
00010000
00001000
00100000
00010000
,
01000000
00000000
00100000
00000000
10000000
00000000
00010000
01000000
,
00010000
00000000
00100000
00000000
00010000
00000000
01000000
00010000
,
01000000
00000000
00001000
00000000
00010000
00000000
00000010
00001000
,
00000010
00000000
00000200
00000000
00000000
00000300
00000001
00001000
,
00000100
00000000
00000010
00000000
00000001
00000000
00001000
00000100
,
00001000
00000000
00000010
00000000
00001000
00000000
00000100
00001000
,
00000100
00000000
00010000
00000000
00001000
00000000
01000000
00010000
,
01000000
00000000
00200000
00000000
00000000
00300000
10000000
00010000
,
01000000
10010000
10010000
01100000
,
01100000
00000000
00100000
00000000
10000000
00000000
01000000
00100000
,
01000000
00110000
00110000
00101000
,
00101000
00000000
00010000
00000000
00000100
00000000
00001000
00000010
,
00001000
00001001
00001001
00000110
,
00000110
00000000
00000010
00000000
00010000
00000000
00000100
00001000
,
00000100
00010100
00010100
00011000
,
00011000
00000000
01000000
00000000
00010000
00000000
10000000
01000000
,
10000000
00020000
00030000
02000000
,
03000000
00020000
00030000
02000000
,
03000000
00002000
00003000
00020000
,
00030000
00002000
00003000
00020000
,
00030000
00000200
00000300
00002000
,
00003000
00000200
00000300
00002000
,
00003000
00000002
00000003
00002000
,
00003000
00000002
00000003
00002000
,
00003000
00000000
00000100
00000000
00000100
00000000
00000010
00000001
,
00000010
00000000
00000100
00000000
00000100
00000000
00001000
00000100
,
00001000
00000000
00000100
00000000
00000100
00000000
00010000
00001000
,
00010000
00000000
00002000
00000000
00000000
00003000
01000000
00010000
,
10000000
00000000
01000000
00000000
01000000
00000000
00100000
00010000
,
00100000
00000000
01000000
00000000
01000000
00000000
00100000
00001000
,
00100000
00000000
00001000
00000000
00001000
00000000
00010000
00000100
,
00010000
00000000
00002000
00000000
00000000
00003000
00010000
00000100
,
00001000
00001001
00000000
00011000
,
00000000
10010000
01100000
11000000
,
00100000
00000000
00001000
00010000
00001000
00000000
00010000
00000100
,
00010000
00000000
00000100
00001000
00000100
00001000
00000100
00000000
,
00000010
00001001
00000000
00011000
,
00000000
10010000
00110000
11000000
,
00100000
00000000
01000000
00010000
01000000
00000000
00001000
00010000
,
00001000
00000000
00010000
00000010
00010000
00000000
00000100
00000000
,
00001000
00001000
00000000
00000000
,
00000000
00000200
00000000
00000300
,
00000020
00000000
00000032
00000000
,
00000203
00000000
00000300
00000010
,
00000000
00000010
00000000
00000000
,
00020000
00030000
00000000
00000000
,
00002000
00003000
00000000
00000000
,
02000000
03000000
00200000
00300000
,
10010000
00100000
00000000
00000000
,
00000000
10000000
00000000
00000000
,
00000000
00010000
00000000
00100000
,
00000000
00001000
00001000
00010000
,
00010000
00000000
00000100
00000000
00000100
00000000
00001000
00000001
,
00001000
00000000
00000010
00000100
00000010
00000000
00001001
00000000
,
00001100
00000000
00010000
00000000
00010000
00000000
00001000
00010000
,
00001000
00000000
01000000
00010000
01000000
00000000
10010000
00000000
,
11000000
00000000
00100000
00000000
00100000
00000000
00010000
00100000
,
00010000
00000000
00100000
00001000
00100000
00000000
00101000
00000000
,
00011000
00000000
00010000
00000000
00010000
00000000
00000100
00001000
,
00000100
00000000
00000010
00000001
00000010
00000000
00000100
00000000
,
00001001
00000000
00001000
00000000
00001000
00000000
00000100
00010000
,
00001000
00000000
00010000
00000000
00010000
00000000
00001000
01000000
,
00010000
00000000
01000000
00100000
10000000
00000000
00010000
01000000
,
00100000
01000000
10010000
01000000
,
10010000
01000000
01001000
00010000
,
00011000
00000010
00001001
00000010
,
00001001
00000100
00000010
00000011
,
00000100
00000010
00001000
00000000
00000100
00010000
00001000
00000000
,
00010000
00001000
01000000
00000000
00010000
01000000
00100000
10000000
,
00000000
00010000
00220000
00000000
00000000
00000000
00000000
00000000
,
00000000
00000000
00000000
00000000
00000000
00330000
00000000
00000000
00000000
00000000
00000000
00000000
00000000
00000000
00000000
00000000
00000000
00000000
00000000
00000000
00000000
00000000
00000000
00000000
00000000
00000000
00000000
00000000
00000000
00000000
00000000
00000000
;

//--------------- dance-double - M. Emirzian ----------------
#NOTES:
     dance-double:
     M. Emirzian:
     Hard:
     9:
     0.613,0.684,0.378,0.167,0.255:
00000000
00000000
00000000
00000000
,
00000000
00000000
00000000
00000000
,
00000000
00000000
00000000
00000000
,
00011000
00000000
00011000
00000000
00010000
00001000
00000010
00000001
,
00000010
00000000
00000000
00000100
00001000
00000000
00000000
00001000
00000100
00000000
00000000
00000100
00010000
00000000
00001000
00000000
,
00010000
00000000
00000000
01000000
10000000
00000000
00000000
10000000
01000000
00000000
00000000
01000000
00100000
00000000
00010000
00000000
,
00100000
00000000
00000000
00001000
00010000
00000000
00000000
00010000
00001000
00000000
00000000
00001000
00000100
00000000
00000001
00000000
,
00000100
00000010
00002000
00000000
00000000
00003100
00000010
00000001
,
00000100
00000000
00000000
00000010
00001000
00000000
00000000
00001000
00000010
00000000
00000000
00000010
00010000
00000000
00001000
00000000
,
00010000
00000000
00000000
00100000
10000000
00000000
00000000
10000000
00100000
00000000
00000000
00100000
01000000
00000000
00010000
00000000
,
01000000
00000000
00000000
00001000
00010000
00000000
00000000
00010000
00001000
00000000
00000000
00010000
00000010
00000000
00001000
00000000
,
00000001
00000100
00000020
00000000
00000000
00001030
00000100
00000010
,
00000001
00001001
00000110
00011000
,
10010000
00000000
10000000
01000000
00010000
00001000
00010000
00000100
,
00000010
00001001
00000110
00011000
,
10010000
00000000
10000000
00100000
00010000
00001000
00010000
00000010
,
00000100
00000110
00001001
00011000
,
10010000
00000000
10000000
00100000
00010000
00001000
00000100
00001000
,
00010000
10010000
01100000
00011000
,
00001001
00000000
00000001
00000100
00001000
00010000
01000000
00010000
,
00001000
00010000
01000000
20000000
,
00M00000
00100000
00100000
00000000
0M000000
01000000
31000000
00000000
,
00000000
00100000
00001000
00020000
,
00M00000
00100000
00100000
00000000
0000M000
00001000
00031000
00000000
,
00000000
00000010
00000001
00002000
,
000000M0
00000010
00000010
00000000
00000M00
00000100
00003100
00000000
,
00010000
00011000
00001000
00200000
,
000M0000
00010000
00010000
00000000
0M000000
01000000
01300000
00000000
,
10010000
00000000
00000000
00010000
01000000
00000000
00000000
01000000
00010000
00000000
00000000
00010000
00100000
00000000
00001000
00000000
,
00100000
00000000
00000000
00001000
00010000
00000000
00000000
00010000
00001000
00000000
00000000
00001000
00010000
00000000
00000010
00000000
,
00010000
00000000
00000000
00000100
00001000
00000000
00000000
00001000
00000100
00000000
00000000
00000100
00000010
00000000
00000001
00000000
,
00000100
00000010
00002000
00000000
00000000
00003100
00000010
00000001
,
00000100
00000000
00000000
00000010
00001000
00000000
00000000
00001000
00000010
00000000
00000000
00000010
00010000
00000000
00001000
00000000
,
00010000
00000000
00000000
00001000
01000000
00000000
00000000
01000000
00001000
00000000
00000000
00001000
00010000
00000000
00100000
00000000
,
00010000
00000000
00000000
00100000
10000000
00000000
00000000
10000000
00100000
00000000
00000000
00100000
10000000
00000000
01000000
00000000
,
00100000
00001000
00020000
00000000
00000000
01030000
00010000
00001000
,
00000010
00000000
00000000
00000000
00000001
00000000
00000000
00000100
00000010
00000000
00001000
00000000
00000001
00000000
00000000
00000000
,
00000010
00001001
00011000
10010000
,
01100000
00000000
10000000
01000000
00010000
01000000
10000000
00000000
,
10000000
01000000
00010000
01000000
10000000
01000000
00010000
00000000
,
00001000
00000000
00010000
00000000
01000000
00000000
00000000
10000000
00010000
00000000
01000000
00000000
00100000
00000000
00000000
00000000
,
10000000
01100000
10010000
00011000
,
00001001
00000000
00000001
00000010
00001000
00000010
00000001
00000000
,
00000001
00000010
00001000
00000010
00000001
00000010
00001000
00000000
,
00010000
00100000
00010000
00100000
10000000
00000000
00000000
00000000
10010000
00000000
00000000
00000000
00100000
00000000
00000000
00000000
,
01000000
00001000
00010000
00002000
,
00003020
00000030
00000002
00000003
,
00000200
00001300
01000000
10010000
,
00100000
00000000
01000000
00000000
00010000
00000000
00100000
00001000
,
00020000
00000000
00030010
00000000
00001000
00000000
00000001
00001000
,
00000200
00000000
00000310
00000000
00000001
00000000
00010000
00001000
,
02000000
00000000
03020000
00000000
00000000
10030000
01000000
00000000
,
00100000
00000000
00001000
00000000
00000100
00000000
00000001
00001000
,
00000100
00000000
00000010
00000000
00000100
00000000
00100000
00010000
,
10000000
00000000
00100000
00000000
00010000
00000000
00000100
00000010
,
00000001
00000000
00000200
00000000
00000000
00000310
00001000
00000100
,
00010000
00000000
00000000
00010000
00001000
00000000
00000000
00001000
01000000
00000000
00000000
01000000
00100000
00000000
10000000
00000000
,
01000000
00010000
01000000
10000000
00100000
00010000
00001000
00000010
,
00000001
00000000
00000000
00000001
00000010
00000000
00000000
00000010
00000100
00000000
00000000
00000100
00010000
00000000
00001000
00000000
,
00000100
00000001
00000010
00001000
00000010
00000001
00000100
00001000
,
00010000
00000000
00000000
00010000
01000000
00000000
00000000
01000000
10000000
00000000
00000000
10000000
00100000
00000000
01000000
00000000
,
00010000
00100000
10000000
00100000
00010000
01000000
00001000
00010000
,
00000010
00000000
00000000
00000010
00001000
00000000
00000000
00001000
00000100
00000000
00000000
00000100
00000010
00000000
00000001
00000000
,
00000100
00001000
00000100
00000001
00000010
00001000
00010000
00100000
,
10000000
00000000
00000000
10000000
00100000
00000000
00000000
00100000
01000000
00000000
00000000
01000000
00001000
00000000
01001000
00000000
,
00011000
00000000
00000000
00010000
00000100
00000000
00000000
00000100
00001000
00000000
00000000
00001000
00000010
00000000
00001001
00000000
,
00001100
00000000
00000011
00000001
00000100
00000000
00001010
00010000
,
00001000
00000000
00001000
00010000
01000000
00000000
01000000
10000000
,
00100000
00000000
00100000
00010000
00001000
00000000
00001000
00000010
,
00000001
00000010
00001100
00000000
01010000
00000000
10100000
01000000
,
01000000
00000000
00110000
00000000
00001010
00000000
00000101
00000010
,
00000010
00000100
00010000
00000000
00001000
00000100
00000001
00000000
,
00000100
00001000
00010000
01000000
00000000
10000000
01000000
00010000
,
00000000
00001000
00022000
00000000
00000000
00000000
00000000
00000000
,
00000000
00000000
00000000
00000000
00000000
00033000
00000000
00000000
00000000
00000000
00000000
00000000
00000000
00000000
00000000
00000000
00000000
00000000
00000000
00000000
00000000
00000000
00000000
00000000
00000000
00000000
00000000
00000000
00000000
00000000
00000000
00000000
;

//--------------- dance-double - M. Emirzian ----------------
#NOTES:
     dance-double:
     M. Emirzian:
     Challenge:
     10:
     0.777,0.772,0.36,0.132,0.408:
00000000
00000000
00000000
00000000
,
00000000
00000000
00000000
00000000
,
00100000
10000000
00100000
01000000
00010000
10000000
00100000
01000000
,
00010000
00000000
01001000
00000000
00001000
00010000
00001000
00010000
,
00011000
000MM000
00010000
00001000
00010000
00000000
00000100
00001000
00000100
00000000
00010000
00001000
00010000
00000000
00000100
00000000
,
01000000
00000000
00001000
00010000
00001000
00000000
01000000
00010000
01000000
00000000
00001000
00010000
00001000
00000000
00100000
00000000
,
00000010
00000000
00010000
00001000
00010000
00000000
00000010
00001000
00000010
00000000
00010000
00001000
00010000
00000000
00000001
00000000
,
00010000
00000000
00000010
00001000
00000020
00000000
00000000
00000000
00000000
00000130
00000001
00001000
00000100
00000000
00001000
00000000
,
00001000
00000000
00000100
00010000
00000100
00000000
01000000
00001000
01000000
00000000
00000010
00010000
00000010
00000000
00010000
00000000
,
00001000
00000000
00100000
00001000
00100000
00000000
00000010
00010000
00000010
00000000
01000000
00001000
01000000
00000000
00001000
00000000
,
00010000
00000000
00000100
00010000
00000100
00000000
01000000
00001000
01000000
00000000
00000010
00010000
00000010
00000000
00010000
00000000
,
00001000
00000000
01000000
00010000
00200000
00000000
00000000
00000000
00300000
00010000
01000000
00100000
10000000
00000000
01000000
00000000
,
00100000
00000000
00010000
10000000
01000000
00000000
00100000
00010000
10000000
00000000
01000000
00100000
00010000
00000000
00100000
00000000
,
00001000
00010000
00000100
00100000
00001000
00010000
00000100
00000010
,
00000001
00000000
00001000
00000010
00000100
00000000
00000001
00000100
00000010
00000000
00001000
00000001
00000010
00000000
00000100
00000000
,
00001000
00000010
00010000
00001000
01000000
00000010
00010000
00001000
,
01000000
00000000
00001000
00010000
00000100
00000000
00001000
00000100
00010000
00000000
00001000
00010000
00000010
00000000
00010000
00000000
,
00001000
10000000
00001000
00010000
00000100
00000010
00000001
00001000
,
00000010
00000000
00000100
00000010
00001000
00000000
00000010
00010000
00001000
00000000
00010000
00000010
00001000
00000000
00000010
00000000
,
00010000
00001000
00100000
00000010
00010000
00001000
01000000
00000100
,
00010000
00000000
00001000
00010000
00001000
00000000
00010000
00001000
00010000
00000000
01000000
00000000
10000000
00000000
00010000
00000000
,
00000000
00000010
00000001
00001000
00000000
00100000
10000000
00010000
,
01000000
00000000
00100000
10000000
00010000
00000000
01000000
00100000
10000000
00000000
00100000
00000000
00010000
00000000
00000010
00000000
,
00000000
00000100
00001000
00100000
00000000
00000100
00010000
00000000
,
00000001
00000000
00000100
00000010
00001000
00000000
00000100
00001000
00000001
00000000
00001000
00000000
00000100
00000000
01000000
00000000
,
00000000
00000010
00010000
00100000
00000000
01000000
00001000
10000000
,
00010000
00000000
00100000
01000000
10000000
00000000
00010000
01000000
00100000
00000000
01000000
00000000
00001000
00000000
00000100
00000000
,
00000000
00000010
00010000
00100000
00000000
00010000
00001000
00010000
,
00001000
00000000
00010000
00000000
00001000
00000000
00000000
00001000
01000000
00000000
00000000
01000000
00000100
00000000
00010000
00000000
,
00001000
00000000
00000000
00001000
01000000
00000000
00000000
01000000
00100000
00000000
00000000
00100000
01000000
00000000
00001000
00000000
,
00010000
00000000
00000000
00010000
00000001
00000000
00000000
00000001
00001000
00000000
00000000
00001000
00000100
00000000
00000010
00000000
,
00000001
00000000
00001000
00000010
00000200
00000000
00000000
00000000
00000300
00000010
00000100
00000001
00001000
00000000
00000100
00000000
,
00000010
00000000
00000100
00000000
00001100
00000000
00000000
00010100
00000000
00000000
00011000
00000000
00010000
00000000
00100000
00000000
,
00010000
00000000
00001000
00000000
00011000
00000000
00000000
01001000
00000000
00000000
00011000
00000000
00001000
00000000
00000010
00000000
,
00001000
00000000
00010000
00000000
00011000
00000000
00000000
00101000
00000000
00000000
00110000
00000000
00100000
00000000
01000000
00000000
,
10000000
00000000
00100000
01000000
00020000
00000000
00000000
00000000
00030000
01000000
00001000
01000000
00010000
00000000
00100000
00000000
,
01000000
10000000
01000000
10000000
00010000
00000000
01000000
00100000
10000000
00000000
01000000
00000000
00100000
00000000
00000000
00000000
,
00000000
00000001
00000100
00000010
00001000
00000100
00000010
00000000
,
00011000
00000000
00100000
10000000
01000000
10000000
00010000
00000000
,
00000100
00000010
00000001
00000010
00000100
00001000
00000001
00000000
,
00000100
00000010
00000100
00000010
00001000
00000000
00000001
00000100
00000010
00000000
00001000
00000000
00000001
00000000
00000000
00000000
,
00000000
10000000
00100000
10000000
01000000
00100000
01000000
00000000
,
00011000
00000000
00000001
00000100
00000010
00001000
00000100
00000000
,
01000000
00100000
10000000
00010000
00100000
10000000
00100000
00000000
,
00010000
10000000
00010000
10000000
00100000
00000000
00000000
00000000
01001000
00000000
00000000
00000000
00010000
00000000
00001000
00000000
,
00000001
00000000
00000100
00000000
00010000
00000000
00001000
00010000
,
10000000
00000000
01000000
00001000
00000100
00000000
00000001
00001000
,
00010000
00000000
01000000
00001000
00010000
00000100
00010000
00000000
,
00000000
01020000
00031000
00002100
,
00013000
02100000
03000010
00000120
,
01000030
00012000
00003001
00021000
,
10030000
00000000
00011000
00000000
01000000
00000100
00010000
00001000
,
01000000
00120000
00031000
00002010
,
00013000
00012000
00000001
00010000
,
10003000
01002000
00003010
00020100
,
00130000
00000000
00011000
00000000
01000100
00000000
00010000
00001000
,
00010000
00001000
01000000
00010000
01000000
00000000
00100000
10000000
00100000
00000000
00010000
00100000
00010000
00000000
00001000
00000000
,
01000000
00000100
00001000
00000010
00001000
00000001
00000100
00000010
,
00010000
00000000
00001000
00010000
00001000
00000000
01000000
00000100
01000000
00000000
00001000
00010000
00001000
00000000
00100000
00000000
,
01000000
10000000
00001000
01000000
00100000
01000000
00001000
00010000
,
00000100
00000000
00010000
00001000
00010000
00000000
00000010
00100000
00000010
00000000
00010000
00001000
00010000
00000000
00000100
00000000
,
00000010
00000001
00010000
00001000
01000000
00000100
00010000
00001000
,
00100000
00000000
00001000
00010000
00001000
00000000
10000000
00001000
10000000
00000000
00010000
10000000
00010000
00000000
00100000
00000000
,
00001000
01000000
00001000
00010000
00000010
00001000
00000100
00000010
,
00000001
00000000
00001000
00000010
00000100
00000000
00000001
00000100
00000010
00000000
00001000
00000001
00000010
00000000
00000100
00000000
,
00000100
00000000
00010000
00001000
01000000
00000000
00001000
00010000
00000010
00000000
00010000
00001000
00100000
00000000
00010000
00000000
,
00010000
00000000
10000000
00100000
01010000
00000000
00001000
00010000
,
00010100
00000000
00000000
00000000
00001000
00000000
00000010
00001000
00000010
00000000
00000100
00000000
00000100
00000000
00000001
00000000
,
00000001
00001000
00001000
00000100
00000100
00010000
00010000
00001000
,
00001000
01000000
01010000
00000000
10001000
00000000
00011000
00000000
,
00010010
00001100
00010100
00010001
,
00001001
00000000
00000000
00000000
00010100
00000000
00000000
00000000
00000000
00000000
00010000
00001000
00010000
00000000
00000100
00000000
,
01000000
00000000
00001000
00000000
00010000
00001000
00000000
00000000
00001000
01000000
00000000
00000000
01000000
00000000
01100000
00000000
,
00000000
00010000
01001000
00000000
00000000
00000000
00000000
00000000
;

//--------------- lights-cabinet - ----------------
#NOTES:
     lights-cabinet:
     :
     Easy:
     1:
     0.637,0.901,0.72,0.035,0:
000000
000000
000000
000000
,
000000
000000
000000
000000
,
000000
000000
000000
000000
,
100000
010000
000100
010000
100000
001000
100000
000100
,
222200
333300
000000
000000
000100
000000
010000
000000
100000
000000
001000
000000
010000
000000
100000
000000
,
001000
000000
100000
001000
000100
010000
001000
000100
,
010000
000000
000100
010000
100000
001000
010000
100000
,
011000
100100
000000
011000
,
100100
000000
010000
000100
001000
100000
010000
001000
,
100000
000000
001000
100000
010000
100100
001000
100000
,
000100
000000
100000
000100
001000
100000
010000
001000
,
010000
000000
001000
000000
000000
000000
010000
000100
,
010000
110000
001100
100100
,
011000
000000
100000
010000
100000
000100
010000
001000
,
100000
001100
110000
100100
,
011000
000000
000100
001000
000100
100000
001000
100000
,
000000
010100
101000
110000
,
100100
000000
000100
100000
001000
010000
000100
100000
,
000100
101000
010100
001100
,
100100
000000
100000
000100
010000
001000
100000
000100
,
000000
000000
100000
010000
000100
000000
000100
010000
,
100000
000000
000100
010000
000100
100000
001000
010000
,
001000
000100
100000
010000
000100
000000
000100
010000
,
100000
000000
000100
010000
000100
100000
001000
000000
,
010000
000000
000100
100000
000100
001000
010000
100000
,
001000
010000
001000
000100
100000
001000
010000
001000
,
010100
000000
100000
000100
100000
010000
001000
100000
,
000100
001000
010000
100000
001000
000000
011000
000000
,
100100
000000
000100
010000
100000
001000
010000
100000
,
001000
000000
100000
001000
000100
010000
001000
000100
,
010000
000000
000100
010000
100000
001000
010000
100000
,
001000
000000
011000
000000
100100
000000
011000
100000
,
000100
000000
010000
000100
001000
100000
010000
001000
,
100000
000000
001000
100000
010000
000100
001000
010000
,
000100
000000
100000
000100
010000
100100
010000
001000
,
100000
000000
000100
000000
000000
000000
100000
001000
,
100000
100100
000000
011000
,
000000
100100
011000
111100
,
000000
000000
100000
000100
100000
000100
100000
000000
,
011000
000000
000100
100000
000100
100000
000100
000000
,
010000
001000
100100
000000
000000
000000
011000
000000
,
000000
100100
011000
100100
,
000000
000000
000100
100000
000100
100000
110000
000000
,
011000
000000
100000
000100
100000
000100
100000
000000
,
011000
100100
011000
000000
000000
000000
100000
010000
,
100000
000000
000100
000000
000000
000000
001000
010000
,
000100
000000
100000
001000
010000
000000
001000
010000
,
000100
000000
100000
001000
100000
010000
001100
000000
,
000000
000000
100000
000100
010000
001000
100000
000100
,
000011
000000
000100
100000
001000
100000
001000
010000
,
000011
000000
001000
000100
010000
001000
100000
010000
,
000011
000000
000100
010000
000111
010000
001000
000011
,
100000
000000
100011
001000
100000
001000
010000
000100
,
100000
000000
000111
010000
001000
100000
110011
000000
,
001111
000000
100011
001000
010000
000100
100011
000100
,
010000
000000
001000
010011
001000
100011
011000
000011
,
100000
110000
001100
100100
,
011000
000000
100000
010000
100000
000100
010000
001000
,
100000
001100
110000
100100
,
011000
000000
000100
001000
000100
100000
001000
100000
,
010000
010100
101000
110000
,
100100
000000
000100
100000
001000
010000
000100
100000
,
000100
101000
010100
001100
,
100100
000000
100000
000100
010000
001000
100000
000100
,
000000
000000
100000
000000
001000
000000
100000
000100
,
100000
000000
001000
000000
010000
000000
000100
100000
,
000100
110000
000000
001100
,
000000
100000
001000
000100
,
000100
100000
010000
000100
,
100000
000000
001000
100000
001000
000100
001000
000000
,
010000
000000
000100
010000
000100
010000
000100
000000
,
100000
000000
001000
010000
000100
100000
001000
010000
,
000100
100000
000100
010000
001000
100000
000100
010000
,
100100
011000
100100
000000
000000
000000
000000
000000
;
