#TITLE:Sun Is Coming Out;
#SUBTITLE:;
#ARTIST:Ayla presents Yel;
#TITLETRANSLIT:;
#SUBTITLETRANSLIT:;
#ARTISTTRANSLIT:;
#GENRE:;
#CREDIT:;
#MUSIC:suniscomingout.ogg;
#BANNER:suniscomingout.png;
#BACKGROUND:suniscomingout-bg.png;
#CDTITLE:;
#SAMPLESTART:0.000;
#SAMPLELENGTH:0.000;
#SELECTABLE:YES;
#OFFSET:-3.888;
#BPMS:0.000=68.025
,16.000=136.050
,72.000=68.025
,76.000=136.050
,164.000=68.025
,168.000=136.050
,200.000=68.025
;
#STOPS:;
#BGCHANGES:;
#FGCHANGES:;

//--------------- dance-single - ----------------
#NOTES:
     dance-single:
     :
     Easy:
     5:
     0,0,0,0,0:
1000
0100
0010
0001
,
2000
3010
0002
0013
,
0010
0100
1000
0001
,
0200
0310
0002
0013
,
1000
0000
0001
0000
,
0010
0000
0100
0000
,
1000
0100
0010
0000
,
0001
0010
0100
0000
,
1000
1000
0010
0000
,
0001
0001
0010
0000
,
1000
0001
1000
0000
,
0010
0100
0010
0000
,
0011
0000
0100
0000
,
1000
0001
1000
0000
,
0100
0000
0001
0000
,
1000
0100
0010
0000
,
0001
0010
0100
0010
,
1000
0001
0100
0001
,
2000
3000
0002
0003
0020
0030
0200
0300
,
1000
0110
0001
0000
,
0001
0110
1000
0000
,
1000
1010
0010
0000
,
0100
0101
0001
0000
,
0100
1001
0010
0000
,
0010
1001
0100
0000
,
1000
0011
0100
0000
,
0010
0110
1000
0000
,
1000
0100
0100
0001
,
0010
0100
1000
0000
,
1000
0001
0010
0100
,
0010
0001
0010
0000
,
1000
0100
0001
0010
,
1000
0100
0010
0000
,
0001
0010
1000
0010
,
0001
0100
1000
0000
,
1000
0000
0001
0000
,
0010
0000
0100
0000
,
1000
0000
0001
0000
,
0001
0000
0100
0000
,
1000
0000
0010
0000
,
0010
0000
0100
0000
,
1000
0010
0001
0100
,
1000
1000
0001
0001
,
1000
0001
0010
0000
,
0010
0010
0100
0100
,
0001
0010
0100
0000
,
1000
0100
0001
0010
,
0001
0100
1000
0000
,
1000
0010
0001
0100
,
0001
0010
1000
0000
,
1000
0001
0001
0010
,
1000
0000
0001
0010
,
0010
0100
0001
1000
,
0100
0000
0010
0100
,
0002
0000
0003
0000
;

//--------------- dance-single - ----------------
#NOTES:
     dance-single:
     :
     Medium:
     9:
     0,0,0,0,0:
0000
0000
1000
0000
0010
0000
0001
0000
0010
0000
0000
0000
1000
0100
1000
0000
,
0001
0010
0100
1000
,
0000
0000
1000
0000
0001
0000
0100
0000
0010
0000
0000
0000
0001
0010
0001
0000
,
1000
0001
0010
0100
,
1000
0100
0000
0010
0001
0010
0000
1000
,
0010
1000
0000
0001
0100
0001
0000
1000
,
0100
0010
0000
0010
0001
1000
0000
0001
,
1000
0100
0000
0100
1000
0001
0000
1000
,
0001
0010
0000
0101
0000
0100
0000
1000
,
0000
0100
0000
1010
0000
0100
0000
0001
,
0000
0100
0000
1001
0000
0010
0000
0100
,
0000
1000
0000
0011
0000
0010
0000
0100
,
1000
0001
0020
0000
0130
1000
0001
0000
,
0100
0010
2000
0000
3100
0010
0001
0000
,
0010
0100
2000
0000
3001
0100
0010
0000
,
0100
0001
0020
0000
0130
1000
0001
0000
,
1000
0100
0002
0000
0103
1000
0010
0000
,
0010
1000
0002
0000
0013
1000
0010
0000
,
2000
0000
3010
0000
0100
0001
0100
0000
0002
0000
0013
0000
0100
1000
0100
0000
,
1000
0001
1001
0000
0001
1000
1001
0000
,
1000
0010
1010
0000
0100
0001
0101
0000
,
0010
0100
0110
0000
0100
0010
0110
0000
,
0010
1000
1010
0000
0001
0100
0101
0000
,
1000
0100
0100
0000
0001
0100
0100
0000
,
1000
0010
0010
0000
0001
0010
0010
0000
,
1000
0100
0001
0010
,
1000
0100
0001
0010
,
1001
0000
0100
1000
0001
0100
0010
0000
,
1001
0000
1000
0100
0010
0001
0100
0000
,
1001
0000
0010
0100
1000
0001
0010
0000
,
1001
0000
1000
0010
0001
0010
1000
0000
,
1010
0000
0100
0010
0001
0010
0100
0000
,
0011
0000
1000
0010
0100
0010
1000
0000
,
1100
0000
0001
1000
0100
1000
0001
0000
,
0101
0000
0001
0100
1000
0100
0001
0000
,
1000
0100
0001
0000
0010
0000
0100
0000
,
0010
0100
0010
0000
1000
0000
0001
0000
,
0001
0010
1000
0000
0100
0000
0001
0000
,
1000
0001
0100
0000
0010
0000
0100
0000
,
1000
0001
0010
0100
,
1000
0100
0010
0001
,
2000
0000
3100
0010
0001
1000
0100
0000
0020
0000
0130
1000
0100
0001
0100
0000
,
1000
0000
1010
0000
0001
0010
0100
0000
,
0010
0000
0101
0000
0010
1000
0100
0000
,
0100
0000
1001
0000
0100
0001
0010
0000
,
0010
0000
1100
0000
0001
0100
0010
0000
,
0200
0000
1300
0010
0100
0001
0010
0000
,
0002
0000
0013
0100
1000
0001
0010
0000
,
0200
0000
1300
0010
1000
0001
0100
0000
,
0020
0000
0130
0001
0100
0010
1000
0000
,
0000
0000
1000
0000
0100
0000
0001
0010
0100
0000
1000
0000
0001
0000
1000
0010
,
0100
0001
0100
1000
0100
0001
0100
1000
,
0000
0000
0001
0000
0010
0000
0001
0010
0100
0000
1000
0000
0010
0000
0100
0001
,
0010
0000
1000
0100
0010
0001
1000
0100
,
0020
0000
0030
0000
;

//--------------- dance-single - ----------------
#NOTES:
     dance-single:
     :
     Hard:
     13:
     0,0,0,0,0:
0000
0000
0000
0000
1000
0000
0000
0000
0002
0000
0000
0000
0003
0000
0020
0000
0000
0000
0000
0000
0030
0000
0000
0000
1000
0000
0100
0000
1000
0000
0100
0010
,
0000
0000
0001
0010
0001
0000
1000
0100
1000
0000
0010
0000
0100
0000
1000
0000
,
0001
0000
0000
0000
1000
0000
0000
0000
0020
0000
0000
0000
0030
0000
0200
0000
0000
0000
0000
0000
0300
0000
0000
0000
0001
0000
0010
0000
0001
0000
0010
0100
,
0000
0000
1000
0010
1000
0010
0100
0000
0001
1000
0001
0000
0010
0000
0100
0000
,
1000
0000
0010
0000
1000
0010
0000
0100
0001
0000
0010
0000
0001
0010
0000
0001
,
1000
0000
0100
0000
1000
0100
0000
0010
0001
0000
0100
0000
0001
0100
0000
0010
,
1000
0000
0001
0000
1000
0001
0000
1000
0010
0000
0100
0000
0010
0100
0000
0001
,
0010
0000
0100
0000
0010
0100
0000
0010
0001
0000
1000
0000
0001
1000
0000
0001
,
0100
0000
0010
0000
0100
0001
0000
0001
1000
0000
0100
0000
1000
0010
0000
0010
,
0100
0000
0001
0000
0100
0010
0000
0010
1000
0000
0001
0000
1000
0100
0000
0100
,
0010
0000
0001
0000
1000
0100
0000
0100
0010
0000
0001
0000
0100
0010
0000
0010
,
0100
0000
0001
0000
0010
0100
0000
0100
1000
0000
0100
0000
0010
0001
0000
0001
,
0100
0000
0010
0000
0000
1000
0000
0000
0001
0000
0000
0010
0000
0100
1000
0100
,
0000
0000
1000
0000
0000
0010
0000
0000
0100
0000
0000
0001
0000
0010
0100
0010
,
0000
0000
0001
0000
0000
0010
0000
0000
1000
0000
0000
0010
0000
0001
1000
0001
,
0000
0000
1000
0000
0000
0001
0000
0000
0010
0000
0000
0100
0000
1000
0010
1000
,
0010
0000
0100
0000
0000
0001
0000
0000
1000
0000
0000
0100
0000
0010
0001
0010
,
0000
0000
0001
0000
0000
0100
0000
0000
0010
0000
0000
1000
0000
0100
0010
0100
,
0000
0000
1000
0000
0000
0100
0000
0000
0001
0000
0000
0100
0000
1000
0001
1000
0000
0000
0001
0000
0000
1000
0000
0000
0100
0000
0000
0010
0000
0001
0100
0001
,
0000
0000
0010
0000
1000
0100
0000
1000
0010
0000
1000
0100
0000
0010
0001
0010
,
0000
0000
0100
0000
0010
0001
0000
0010
0100
0000
0010
0001
0000
0100
0010
0100
,
0000
0000
0001
0000
0100
0010
0000
0100
1000
0000
0100
0010
0000
1000
0001
1000
,
0000
0000
0010
0000
0100
0001
0000
0100
0010
0000
0100
0001
0000
1000
0010
1000
,
0000
0000
0100
0000
0100
0010
0000
0010
0001
0000
0001
0100
0000
0010
1000
0010
,
0000
0000
1000
0000
1000
0100
0000
0100
0010
0000
0010
0001
0000
0100
0010
0100
,
0000
0000
0010
0000
0010
0100
0000
0100
0001
0000
0001
1000
0000
0001
0010
0001
,
0000
0000
0010
0000
0010
0100
0000
0100
1000
0000
1000
0010
0000
0100
0001
0100
,
0010
1000
0100
0001
0100
1000
0001
0100
,
1000
0000
0000
0000
0110
0000
0000
0000
0001
0000
0010
0000
0001
0000
1000
0001
,
0000
0000
1000
0000
1000
0010
0000
0010
0100
0000
0100
0001
0000
0010
0100
0010
,
0000
0000
0001
0000
0001
0100
0000
0100
0010
0000
0010
1000
0000
0100
0010
0100
,
1000
0001
0010
1000
0010
0001
1000
0010
,
0001
0000
0000
0000
1001
0000
0000
0000
0010
0000
0100
0000
0010
0000
0001
0100
,
0000
0000
0010
0000
0010
1000
0000
1000
0001
0000
0001
0100
0000
0001
1000
0001
,
0000
0000
0010
0000
0010
0001
0000
0001
1000
0000
1000
0100
0000
0010
0001
0010
,
0002
0000
0013
0100
2000
0000
3010
0200
,
0000
0010
0302
0023
,
0230
2300
3020
0230
,
0001
0010
0301
0020
,
0230
1000
0302
0013
,
0200
0000
1300
0002
0000
0000
0013
0100
,
0000
0000
1000
0000
0000
0010
0000
0000
0100
0000
0000
0001
0000
0010
0100
0010
0000
0000
0001
0000
0000
1000
0000
0000
0010
0000
0000
0100
0000
0001
1000
0001
,
0010
0100
1000
0100
0001
0100
1000
0010
,
0001
0000
0000
0000
1010
0000
0000
0000
0001
0000
0100
0000
0010
0000
1000
0100
,
0000
0000
1000
0000
1000
0100
0000
0100
0010
0000
0010
0001
0000
0010
0100
0010
,
0000
0000
0001
0000
0001
0010
0000
0010
0100
0000
0100
1000
0000
0100
0010
0100
,
1000
0100
0010
1000
0010
0001
0100
1000
,
0100
0000
0000
0000
0101
0000
0000
0000
1000
0000
0100
0000
0010
0000
0001
0010
,
0000
0000
0001
0000
1000
0100
0000
1000
0010
0000
1000
0100
0000
0010
0001
0010
,
0000
0000
0100
0000
0010
0001
0000
0010
0100
0000
0010
0001
0000
0100
0010
0100
,
0000
0000
0000
0000
0001
0000
0000
0000
0020
0000
0000
0000
0030
0000
0200
0000
0000
0000
0000
0000
0300
0000
0000
0000
1000
0000
0010
0000
0100
0000
0001
0100
,
0000
0000
0010
1000
0100
0000
1000
0001
0100
0000
0010
0000
0100
0000
0001
0000
,
0010
0000
0000
0000
1000
0000
0000
0000
0200
0000
0000
0000
0300
0000
0020
0000
0000
0000
0000
0000
0030
0000
0000
0000
0001
0000
0100
0000
1000
0000
0100
0001
,
0000
0000
0100
0010
1000
0010
0100
0000
0001
0010
0100
0000
0010
0000
0100
0000
,
2000
0000
3000
0000
;
