#TITLE:Solina;
#SUBTITLE:;
#ARTIST:Evolution;
#TITLETRANSLIT:;
#SUBTITLETRANSLIT:;
#ARTISTTRANSLIT:;
#GENRE:;
#CREDIT:;
#MUSIC:Solina.ogg;
#BANNER:solina.png;
#BACKGROUND:Solina-bg.png;
#CDTITLE:;
#SAMPLESTART:51.976;
#SAMPLELENGTH:14.580;
#SELECTABLE:YES;
#OFFSET:0.020;
#BPMS:0.000=129.214;
#STOPS:;
#BGCHANGES:;
#FGCHANGES:;

//--------------- dance-single - M. Puls ----------------
#NOTES:
     dance-single:
     M. Puls:
     Beginner:
     1:
     0.064281,0.104457,0,0,0,56,56,0,0,0,0,0.064281,0.104457,0,0,0,56,56,0,0,0,0:
0000
0000
0000
0000
,
0000
0000
0000
0000
,
0000
0000
0000
0000
,
0000
0000
0000
0000
,
1000
0000
0000
0000
,
0000
0000
0000
0000
,
0100
0000
0000
0000
,
0000
0000
0000
0000
,
1000
0000
0000
0000
,
0000
0000
0000
0000
,
0001
0000
0000
0000
,
0000
0000
0000
0000
,
0010
0000
0000
0000
,
0000
0000
0000
0000
,
0001
0000
0000
0000
,
0000
0000
0000
0000
,
1000
0000
0000
0000
,
0000
0000
0000
0000
,
0100
0000
0000
0000
,
0000
0000
0000
0000
,
0010
0000
0000
0000
,
0000
0000
0000
0000
,
0001
0000
0000
0000
,
0000
0000
0000
0000
,
1000
0000
0000
0000
,
0001
0000
0000
0000
,
0100
0000
0000
0000
,
0010
0000
0000
0000
,
1000
0000
0000
0000
,
0001
0000
0000
0000
,
0100
0000
0000
0000
,
0010
0000
0000
0000
,
1000
0000
0000
0000
,
0001
0000
0000
0000
,
0010
0000
0000
0000
,
0100
0000
0000
0000
,
1000
0000
0000
0000
,
0100
0000
0000
0000
,
0010
0000
0000
0000
,
0001
0000
0000
0000
,
1000
0000
0000
0000
,
1000
0000
0000
0000
,
1000
0000
0000
0000
,
0001
0000
0000
0000
,
0001
0000
0000
0000
,
0001
0000
0000
0000
,
0001
0000
0001
0000
,
0001
0000
0000
0000
,
0100
0000
0100
0000
,
0100
0000
0000
0000
,
0010
0000
0010
0000
,
0010
0000
0000
0000
,
1000
0000
1000
0000
,
1000
0000
0000
0000
,
0001
0000
0000
0000
,
0010
0000
0000
0000
,
0001
0000
0000
0000
,
0010
0000
0100
0000
,
0000
0000
0000
0000
,
1000
0000
0100
0000
,
0000
0000
0000
0000
,
0001
0000
0010
0000
,
0000
0000
0000
0000
,
1000
0000
0000
0000
,
0001
0000
0000
0000
,
1000
0000
0000
0000
;

//--------------- dance-single - K. Ward ----------------
#NOTES:
     dance-single:
     K. Ward:
     Easy:
     3:
     0.156112,0.238192,0.01607,0.128563,0,136,134,2,16,0,0,0.156112,0.238192,0.01607,0.128563,0,136,134,2,16,0,0:
0000
0000
0000
0000
,
0000
0000
0000
0000
,
0000
0000
0000
0000
,
0000
0000
0000
0000
,
0000
0100
0000
1000
,
0000
0100
0000
1000
,
0000
0100
0000
1000
,
0000
0001
0000
1000
,
0000
0001
0000
0100
,
0000
0001
0000
0100
,
0000
0010
0000
0100
,
0000
0001
0000
0001
,
2000
0001
0000
0000
,
0000
0000
0001
0000
0000
3000
0000
0000
,
0002
1000
0000
0000
,
0000
0000
1000
0000
0000
0003
0000
0000
,
2000
0001
0000
0000
,
0000
0000
0001
0000
0000
3000
0000
0000
,
0002
1000
0000
0000
,
0000
0000
1000
0000
0000
0003
0000
0000
,
1000
1000
1000
0000
,
0001
0001
0001
0000
,
0100
0000
0010
0000
,
1000
0100
1100
0000
,
0001
0001
0001
0000
,
1000
1000
1000
0000
,
0001
0000
0010
0000
,
0001
0100
0001
0100
,
0002
0000
0000
0000
,
2000
0000
3003
0000
,
0200
0000
0000
0000
,
0020
0000
0330
0000
,
2000
0000
0000
0000
,
0002
0000
3003
0000
,
0020
0000
0000
0000
,
0200
0000
0330
0000
,
1000
1000
0000
0010
,
0100
0100
0000
0001
,
0010
0010
0000
0001
,
0100
0100
0100
0100
,
0001
1000
0000
0010
,
0100
0100
0000
0001
,
1001
0000
0000
0000
,
0000
0000
0000
0000
,
0001
0000
0001
0000
,
1000
1000
1000
1000
,
0010
0010
0100
0100
,
0010
0010
1000
0000
,
0010
0010
0100
0100
,
0010
0010
1000
0000
,
0001
0001
0001
0000
,
0010
0010
0100
0100
,
0010
0010
0010
0000
,
0001
0001
0100
0001
,
0002
0000
0000
1000
,
1003
0000
0000
0000
,
0200
0000
0000
0001
,
0301
0000
0000
0000
,
2000
0000
0000
0010
,
3010
0000
0000
0000
,
0020
0000
0000
0100
,
0130
0000
0000
0000
,
0000
0001
0000
1000
,
0000
0100
0000
1000
,
0000
0100
0000
1000
,
0000
0000
0001
0000
0000
0000
1000
0001
;

//--------------- dance-single - K. Ward ----------------
#NOTES:
     dance-single:
     K. Ward:
     Medium:
     6:
     0.2709,0.291124,0.048211,0.072316,0,236,230,6,9,0,0,0.2709,0.291124,0.048211,0.072316,0,236,230,6,9,0,0:
0000
0000
0000
0000
,
0000
0000
0000
0000
,
0000
0000
0000
0000
,
0000
0000
0000
0000
,
0001
0001
0100
0100
,
0001
0001
0001
0001
,
0000
0001
0000
0100
,
0000
0010
0000
0100
,
0001
0001
0100
0100
,
0001
0001
0001
0001
,
0000
1000
0000
0010
,
0000
0100
0000
0010
,
0200
0010
0000
0010
,
0000
0010
0000
0310
,
0020
0100
0000
0100
,
0000
0100
0000
0130
,
0200
0001
0000
0001
,
0000
0001
0000
0301
,
2000
0001
0000
0001
,
0000
3001
0000
0100
,
0100
0001
0100
0000
0010
0000
0010
0000
,
1000
0010
1000
0000
0100
0000
0100
0000
,
1000
0010
1000
0000
0100
0000
0100
0000
,
1000
1000
0010
0000
,
0100
0001
0100
0000
0010
0000
0010
0000
,
1000
0010
1000
0000
0100
0000
0100
0000
,
1000
0000
0010
0000
,
1000
0000
1000
0000
0001
0010
0001
0000
,
1000
0000
0010
0000
1000
0001
0001
0000
,
1000
0000
0010
0000
0100
0001
0001
0000
,
0001
0000
0100
0000
0001
1000
1000
0000
,
0010
0000
0100
0000
0001
1000
1000
0000
,
1000
0000
0010
0000
1000
0001
0001
0000
,
1000
0000
0010
0000
1000
0001
0001
0000
,
0001
0000
0100
0000
0001
1000
1000
0000
,
0001
0000
0100
0000
0001
1000
1000
0000
,
0001
0000
1000
0010
0000
0010
1000
0000
,
1000
0010
0100
0001
,
0001
0000
1000
0010
0000
0010
1000
0000
,
1000
0000
0010
0000
0100
0001
0001
0000
,
1000
0000
0001
0100
0000
0100
0001
0000
,
0001
0100
0010
0100
,
1001
0000
0000
0110
0000
0000
1001
0000
,
0000
0000
0010
0001
,
1001
0000
0000
0110
0000
0000
1001
0000
,
0000
0000
0010
0001
,
1000
1000
0001
0001
,
1000
0000
1000
0000
0100
1000
0100
0000
,
1000
1000
0001
0001
,
1000
0000
1000
0000
0100
1000
0100
0000
,
0001
0001
0020
0031
,
1000
1000
0001
0001
,
1000
0000
1000
0000
0100
1000
0100
0000
,
1000
1000
0001
1000
,
0200
1000
0000
1000
,
0000
1300
0000
1000
,
0020
0100
0000
0100
,
0000
0000
0100
0000
0000
0030
0100
0000
,
0200
0010
0000
0001
,
0000
0000
0010
0000
0000
0300
0001
0000
,
2000
0010
0000
0010
,
0000
0010
3001
0100
,
0001
0001
0100
0100
,
0001
0001
1000
0001
,
0001
0001
0100
0100
,
0001
0000
0001
0000
0100
0000
0100
0010
;

//--------------- dance-single - K. Ward ----------------
#NOTES:
     dance-single:
     K. Ward:
     Hard:
     10:
     0.408645,0.449919,0,0.321406,0.140615,356,356,0,40,0,0,0.408645,0.449919,0,0.321406,0.140615,356,356,0,40,0,0:
0000
0000
0000
0000
,
0000
0000
0000
0000
,
0000
0000
0000
0000
,
0000
0000
0000
0000
,
1000
0000
0000
0001
1000
0000
0001
0000
0010
0000
0000
0001
0010
0000
0001
0000
,
1000
0000
0000
0001
1000
0000
0001
0000
0010
0000
0000
0001
0010
0000
0001
0000
,
1000
0000
0000
0001
1000
0000
0001
0000
0010
0000
0000
0001
0010
0000
0001
0000
,
0100
0000
0000
0001
0100
0000
0001
0000
0010
0000
0001
0000
0010
0000
0001
0000
,
0100
0000
0000
0010
0100
0000
0010
0000
1000
0000
0000
0010
1000
0000
0010
0000
,
0100
0000
0000
0010
0100
0000
0010
0000
1000
0000
0000
0010
1000
0000
0010
0000
,
0100
0000
0000
0010
0100
0000
0010
0000
1000
0000
0000
0010
1000
0000
0010
0000
,
1000
0001
0100
0010
0100
0000
0010
0000
,
2000
3001
0020
0130
,
2000
3100
0002
0103
,
0200
0301
2000
3100
,
0200
0310
0002
1003
,
2000
3001
0020
0130
,
2000
3010
0002
0013
,
2000
3010
0002
0013
,
0200
0001
0310
0000
,
1000
0000
0000
1000
0010
0000
0000
0000
0010
0000
0000
0010
0100
0000
0000
0000
,
0100
0000
0000
0100
0001
0000
0000
0000
0001
0000
0000
0001
1000
0000
0000
0000
,
0100
0000
0000
0100
0010
0000
0000
0000
0010
0000
0000
0010
0100
0000
0000
0000
,
1000
0000
0000
1000
0001
0000
0000
0000
0200
0000
0000
0000
0310
0000
0000
0000
,
0001
0000
0000
0001
0100
0000
0000
0000
0100
0000
0000
0100
0010
0000
0000
0000
,
0010
0000
0000
0010
1000
0000
0000
0000
1000
0000
0000
1000
0001
0000
0000
0000
,
0010
0000
0000
0010
0100
0000
0000
0000
0100
0000
0000
0100
0010
0000
0000
0000
,
0001
0000
0000
0001
1000
0000
0000
0000
1000
0000
0001
0000
0100
0000
0010
0000
,
1000
0000
1000
0010
1000
0000
0200
0001
,
0000
0010
0000
0301
0010
0000
1000
0000
,
0001
0000
0001
0100
0001
0000
0020
1000
,
0000
0100
0000
1030
0100
0000
1000
0000
,
1000
0000
1000
0010
1000
0000
0200
0001
,
0000
0010
0000
0301
0010
0000
1000
0000
,
0001
0000
0001
0100
0001
0000
0020
1000
,
0000
0100
0000
1030
0100
0000
1000
0000
,
2000
0000
3010
0100
0001
1000
0001
0000
,
1000
0001
0100
0010
0100
0100
0100
0000
,
0002
0000
0103
0010
1000
0001
1000
0000
,
0001
1000
0010
0100
0010
0000
0010
0000
,
2000
0000
3010
0100
0001
1000
0001
0000
,
1000
0001
0100
0010
0100
0001
0100
0010
,
1000
0000
0010
1000
0000
0010
2000
0000
,
0000
0000
3000
0000
0100
0001
0100
0000
,
0001
0000
0100
0001
0000
0100
0001
0000
,
1000
0010
1000
0010
1000
0000
1000
0000
,
0001
0100
0001
0000
1000
0001
1000
0000
,
0001
1000
0001
1000
0010
0100
0001
0000
,
0001
0100
0001
0000
1000
0001
1000
0000
,
0001
1000
0001
1000
0010
0100
0001
0000
,
1000
0010
1000
0010
1000
0000
1000
0000
,
0001
0100
0001
0000
1000
0001
1000
0000
,
0001
1000
0001
1000
0010
0100
0001
0000
,
0001
0100
0001
0000
1000
0001
1000
0001
,
2000
3001
0020
0130
,
2000
3100
0002
0103
,
0200
0301
2000
3100
,
0200
0310
0002
1003
,
2000
3001
0020
0130
,
2000
3010
0002
0013
,
2000
3010
0002
0013
,
2000
0000
3010
0000
0020
0000
0130
0001
,
1000
0000
0000
0001
1000
0000
0001
0000
0010
0000
0000
0001
0010
0000
0001
0000
,
1000
0000
0000
0001
1000
0000
0001
0000
0010
0000
0000
0001
0010
0000
0001
0000
,
1000
0000
0000
0001
1000
0000
0001
0000
0010
0000
0000
0001
0010
0000
0001
0000
,
0100
0000
0000
0001
0100
0000
0001
0000
0010
0000
0000
0001
0010
0000
0001
0000
;

//--------------- dance-single - K. Ward ----------------
#NOTES:
     dance-single:
     K. Ward:
     Challenge:
     14:
     0.630186,0.767509,0.401758,0.345512,0.337477,549,499,50,43,12,9,0.630186,0.767509,0.401758,0.345512,0.337477,549,499,50,43,12,9:
0000
0000
0000
0000
,
0000
0000
0000
0000
,
0000
0000
0000
0000
,
0000
0000
0000
0000
,
1000
0001
0011
0000
1000
0100
1100
0000
,
0010
0100
0110
0010
1000
0100
1100
0000
,
1000
0001
0011
0000
1000
0100
1100
0000
,
0010
0000
0100
0000
0011
0000
0100
0000
0010
0000
0000
0000
1100
0000
0MM0
M00M
,
0010
1000
1100
0010
0110
0001
1100
0010
,
0110
0100
0011
0100
1010
0100
1100
0010
,
0110
0100
0101
0010
0011
0001
0110
1000
,
1100
0000
0010
0000
0110
0000
0100
00M0
M001
0000
MM0M
0000
MM02
00M0
0000
0000
,
1003
0000
0100
0000
1000
0100
1000
0000
0200
0000
1000
0000
2300
0000
0001
0000
,
3001
0000
0010
0000
0001
0010
0001
0000
0020
0000
0001
0000
0032
0000
0100
0000
,
0103
0000
0010
0000
1000
0100
1000
0000
0200
0000
1000
0000
2300
0000
0010
0000
,
3010
0000
0100
0000
0001
0010
0001
0000
0020
0000
0001
0000
0032
0000
0000
0000
,
1003
0000
0100
0000
0010
0100
0010
0000
0100
0000
1000
0000
1000
0000
0010
0000
,
0100
0000
0001
0000
0010
0001
0010
0000
0001
0000
0100
0000
0010
0000
1000
0000
,
1000
0000
0100
0000
1000
0100
1000
0000
0010
0000
0100
0000
0001
0000
0010
0000
,
0001
0010
0001
0000
0010
0001
0100
0000
0010
1000
0100
0000
1100
0000
0000
0000
,
2200
0000
0001
3300
0002
0000
1100
0003
,
2200
0000
0001
3300
0002
0000
1100
0003
,
0022
0000
1000
0033
2000
0000
0011
3000
,
0022
0000
1000
0033
1001
0000
1001
0000
,
1000
0010
0001
0100
1000
0010
0001
0100
,
1000
0010
0001
0100
1000
0010
0100
0001
,
1000
0100
0001
0010
1000
0100
0001
0010
,
1000
0100
0001
0100
0020
0000
0130
0000
,
1000
0010
0100
0001
0100
0010
1000
1000
,
0010
0000
0010
0000
0100
0000
0001
0010
0000
0001
0010
0000
0001
0000
0001
0000
,
0001
0100
0010
1000
0010
0100
0001
0001
,
1000
0000
1000
0000
0010
0000
0100
0001
0000
0010
0001
0000
1000
0000
1000
0000
,
0010
0010
0100
0010
1000
1000
0010
0010
,
0100
0000
0001
0000
0010
0000
0001
0100
0000
0100
0010
0000
1000
0000
0100
0000
,
0010
0001
0100
0010
1000
0100
1000
1000
,
0001
0000
0001
0000
0010
0000
0001
0100
0000
0010
1000
0000
0100
0000
1000
0000
,
1001
0000
0001
0000
0100
0000
0001
0100
0000
0001
0100
0000
0001
0000
0001
0000
,
0110
0000
0100
0000
0010
0000
0100
0010
0000
0100
0010
0000
1000
0000
0100
0000
,
1010
0000
0010
0000
0100
0000
0001
0100
0000
0001
0100
0000
0001
0000
0001
0000
,
0011
0000
0001
0000
0100
0000
0010
1000
0000
0100
1000
0000
0010
0000
0100
0000
,
0011
0000
0010
0000
0100
0000
0010
0100
0000
0010
0100
0000
1000
0000
1000
0000
,
1100
0000
0100
0000
1000
0000
0010
0100
0000
0010
0100
0000
0001
0000
0001
0000
,
0101
0000
0000
2200
0000
0000
0001
3300
,
0000
0000
0000
0000
,
1010
0000
0000
0022
0000
0000
1000
0033
,
0000
0000
0000
0000
0000
0010
0000
0010
,
1000
0100
1000
0010
0100
0001
0100
0010
1000
0100
1000
0010
0100
0001
0010
0000
,
1000
0010
1000
0100
1000
0010
0100
0001
0100
0010
1000
0100
2000
0000
0000
0000
,
3001
0100
0010
1000
0100
1000
0010
0100
0001
0010
0001
0100
0010
1000
0100
0000
,
1000
0100
1000
0010
0100
0001
0010
0001
0100
0010
1000
0100
2000
0000
0000
0000
,
3001
0010
1000
0100
0001
0010
1000
0000
,
1000
0100
1000
0010
0100
0001
0100
0010
1000
0100
1000
0010
0100
0001
0010
0000
,
1000
0010
1000
0100
1000
0010
0100
0001
1000
0010
0100
0001
0010
0000
0000
0000
,
0001
0010
0001
0100
0010
0000
0100
0000
0010
0100
0010
1000
0100
0000
1000
0000
,
1100
0010
0110
0000
0001
0010
0011
0000
,
1000
0010
0100
0000
0001
0000
0010
0000
0001
0000
0010
0000
0011
0000
0000
0000
,
0200
0001
0302
0000
0013
0200
2000
0300
,
3010
0100
0001
0000
0100
0000
0010
0000
1000
0000
0100
0000
2100
0000
0000
0000
,
0001
3001
0011
0002
0000
1003
1100
0200
,
0000
1300
0010
0100
0001
0001
0011
0000
,
0000
0001
0010
0011
0000
0100
0020
1000
,
1030
0100
1000
0000
0010
0000
0100
0000
0010
1000
0100
0000
2000
0000
0001
0000
,
3001
0000
0010
0000
0001
0010
0001
0000
0020
0000
0001
0000
0032
0000
1000
0000
,
1003
0000
0100
0000
1000
0100
1000
0000
0200
0000
1000
0000
2300
0000
0010
0000
,
3010
0000
0100
0000
0001
0010
0001
0000
0020
0000
0001
0000
0032
0000
0100
0000
,
0103
0000
0010
0000
1000
0100
1000
0000
0200
0000
1000
0000
1300
0000
0010
0000
;

//--------------- dance-double - M. Emirzian ----------------
#NOTES:
     dance-double:
     M. Emirzian:
     Easy:
     4:
     0.23302,0.291124,0,0.080352,0,203,203,0,10,0,0,0.23302,0.291124,0,0.080352,0,203,203,0,10,0,0:
00000000
00000000
00000000
00000000
,
00000000
00000000
00000000
00000000
,
00000000
00000000
00000000
00000000
,
00000000
00000000
00000000
00000000
,
10000000
10000000
10000000
10000000
,
01000000
00000000
00010000
00000000
,
00001000
00001000
00001000
00001000
,
00000010
00000000
00000001
00000000
,
00000100
00000100
00000100
00000100
,
00001000
00000000
00010000
00000000
,
01000000
10000000
01000000
00000000
,
00100000
00000000
00001000
00000000
,
00010000
00000100
00010000
00000000
,
00001000
00000000
00000010
00000000
,
00000002
00000100
00000103
00000000
,
00000020
00001000
00001030
00000000
,
00000200
00010000
00010300
00000000
,
00002000
00100000
00103000
00000000
,
00020000
10000000
10030000
00000000
,
01000000
00010000
00001000
00000100
,
00000001
00000000
00000200
00000010
,
00000310
00000000
00020000
00001000
,
00031000
00000000
02000000
00100000
,
03100000
00000000
10000000
00100000
,
00010000
00001000
00000010
00000000
,
00000002
00000010
00000013
00000000
,
00000200
00010000
00010300
00000000
,
00001000
00000000
00010000
00000000
00001000
00010000
00001000
00000000
,
00010000
00100000
10000000
01000000
,
00010000
00001000
00010000
00000100
,
00000010
00000001
00000100
00000100
,
00001000
00010000
01000000
00000000
00010000
01000000
10000000
00000000
,
00100000
00010000
00001000
00100000
,
01000000
00010000
00001000
00000010
,
00000001
00000100
00001000
00010000
,
00010000
00001000
00000100
00000000
00001000
00000100
00000001
00000000
,
00000100
00000010
00001000
00000100
,
00000010
00001000
00010000
00100000
,
10000000
01000000
00010000
01000000
,
00010000
00001000
00000010
00000000
00001000
00000010
00000001
00000000
,
00000100
00001000
00010000
01000000
,
10000000
00100000
01000000
00001000
,
00010000
00010000
00010000
00010000
,
00000100
00000000
00000010
00000000
,
00000001
00000001
00000001
00000001
,
00000100
00000000
00001000
00000000
,
00010000
00010000
00010000
00010000
,
00000000
00001000
00001000
00001000
,
00001000
00000000
01000000
01000000
,
01000000
01000000
00000000
00100000
,
00100000
00100000
00100000
00000000
,
10000000
00010000
10000000
00000000
,
01000000
00100000
01000000
00000000
,
00010000
00001000
00010000
00000000
,
00000100
00000000
00000100
00000000
,
00000010
00000000
00000010
00000001
,
00000100
00000000
00000100
00000000
,
00000100
00001000
00010000
00000000
,
00001000
00000000
00010000
01000000
,
10000000
00000000
00100000
00000000
,
00100000
00000000
01000000
00001000
,
00010000
00000000
01000000
00000000
,
00010000
00000000
00001000
00000000
,
00000010
00000000
00000001
00000000
,
00000100
00000000
00000010
00010000
,
00001000
00000000
00000000
00000000
01000000
00000000
00100000
00100000
;

//--------------- dance-double - M. Emirzian ----------------
#NOTES:
     dance-double:
     M. Emirzian:
     Medium:
     7:
     0.382244,0.423453,0.168738,0.104457,0,333,312,21,13,0,0,0.382244,0.423453,0.168738,0.104457,0,333,312,21,13,0,0:
00000000
00000000
00000000
00000000
,
00000000
00000000
00000000
00000000
,
00000000
00000000
00000000
00000000
,
00000000
00000000
00000000
00000000
,
20000000
32000000
03020000
02030000
,
03010000
00001000
00000010
00000000
00000100
00001000
00000001
00000000
,
00001001
00000100
00001000
00000100
,
00000020
00020030
00032000
02003000
,
03100000
10000000
00010000
00000000
10100000
00000000
11000000
00000000
,
02000000
03010000
02000000
03010000
,
00002000
00013000
00002000
00003010
,
00000001
00000200
00000010
00000310
,
00000100
00000000
00001000
00010000
00100000
00000000
10000000
00000000
,
01000000
00010000
00001000
00000000
00100000
00010000
01000000
00000000
,
00100000
00000000
00010000
00001000
00000010
00000001
00000100
00000000
,
00000010
00001000
00000100
00000000
00000011
00000000
00000101
00000000
,
00000010
00000000
00000100
00001000
00010000
00000000
01000000
10000000
,
00010000
00000000
01000000
00000000
10000000
01000000
00010000
00100000
,
00001000
00011000
00010010
00001000
,
00000100
00000100
00000100
00000100
,
00000010
00000000
00000001
00000100
00001000
00000000
00000100
00000010
,
00010000
00000000
00001000
00000000
00010000
01000000
10000000
01000000
,
00010000
11000000
00110000
01000000
,
00100000
00000000
00010000
00000000
00001000
00010000
01000000
00000000
,
00010000
00001000
00010000
00000100
,
00001000
00000000
00000010
00000000
00000100
00000001
00000010
00000000
,
00001000
00000010
00000001
00000000
00000100
00000010
00010000
00000000
,
00001000
00000000
01000000
00010000
00100000
01000000
10000000
00000000
,
10010000
00000000
10000000
01000000
00010000
01000000
10000000
10000000
,
00000000
00000000
00100000
00010000
00001000
01000000
00010000
00010000
,
00000000
00000000
00100000
00001000
00010000
00000010
00000100
00000100
,
00000001
00001001
00000110
00010100
,
00101000
00000000
01000000
00010000
01000000
10000000
01000000
01000000
,
00000000
00000000
00010000
00100000
01000000
00010000
00001000
00001000
,
00000000
00000000
00010000
00000100
00001000
00000100
00000001
00000001
,
00000100
00010010
00011000
01100000
,
01000000
00000000
00100000
00010000
00001000
01000000
00100000
00100000
,
00000000
00000000
01000000
10000000
01000000
00010000
00100000
00100000
,
00000000
00000000
00001000
00010000
00000010
00001000
00000010
00000010
,
00000001
00001010
00010100
00011000
,
00010000
00000000
00100000
10000000
00100000
00010000
00001000
00001000
,
00000000
00000000
01000000
00100000
10000000
01000000
00100000
00000000
,
01000000
01000000
01000000
01000000
,
00000000
10000000
00100000
00010000
,
00001000
00000000
00010000
00001000
00000010
00000000
00000001
00000000
,
00000100
00000100
00000100
00000010
,
00001000
00000000
00000100
00000000
00000010
00000000
00001000
00010000
,
01000000
00000000
10000000
00000000
00010000
01000000
00100000
00000000
,
10000000
00000000
10000000
00000000
10000000
00100000
00010000
00000000
,
00001000
00000000
00010000
00000010
00001000
00000010
00000001
00000000
,
00000010
00001000
00000100
00000100
,
00000100
00000000
00010000
00000000
00001000
00010000
01000000
00000000
,
00100000
00000000
10000000
00100000
00010000
00100000
00001000
00000000
,
00010000
00010000
00000100
00000100
,
00001010
00000100
00000100
00000100
,
00000010
00000000
00001000
00000000
00000100
00001000
00000010
00000000
,
00000100
00000001
00000010
00000100
,
00010000
00001000
01000000
00010000
,
01000000
00000000
01000000
00000000
00100000
10000000
01000000
00010000
,
01000000
00100000
00010000
01000000
,
00100000
00000000
00010000
00000000
00001000
00000000
00010000
00000100
,
00001000
00000100
00000001
00000000
00000100
00000000
00000100
00000000
,
00001000
00001000
00000010
00000010
,
00000100
00001000
00010000
00010000
,
00100000
00000000
00010000
00100000
01000000
00001000
00010000
00000000
,
01000000
00000000
10000000
00000000
00100000
00000000
01000000
01000000
;

//--------------- dance-double - M. Emirzian ----------------
#NOTES:
     dance-double:
     M. Emirzian:
     Hard:
     9:
     0.546391,0.555782,0.24909,0.01607,0.13258,476,445,31,2,1,1,0.546391,0.555782,0.24909,0.01607,0.13258,476,445,31,2,1,1:
00000000
00000000
00000000
00000000
,
00000000
00000000
00000000
00000000
,
00000000
00000000
00000000
00000000
,
00000000
00000000
00000000
00000000
,
10000000
M0010000
10010000
10000000
,
00200000
00000000
00000000
00020000
00000000
00000000
00001000
00300000
00000000
00031000
00000000
00000000
,
00010000
00000000
00000100
00000000
00000010
00000001
00000100
00000000
,
00000010
00001000
00000001
00000000
00000010
00000000
00001000
00000000
,
00010000
00100000
10000000
01000000
00010000
00000000
01000000
00100000
,
00001000
00010000
00100000
10000000
,
01000000
00000000
00010000
00000000
00001000
00010000
00100000
00000000
,
00010000
00001000
00000100
00000000
00000110
00000000
00001001
00000000
,
00001000
00000100
00000001
00000100
00001000
00000001
00000010
00001000
,
00000010
00000100
00010000
00001000
01000000
00100000
10000000
00100000
,
00010000
00001000
00010000
00000100
00000010
00000100
00010000
00000100
,
00001000
00000100
00000001
00001000
00000010
00000100
00010000
00001000
,
01000000
00100000
00010000
00100000
10000000
00010000
00100000
01000000
,
00010000
00001000
00100000
00001000
00010000
01000000
00010000
00001000
,
00000100
00001000
00010000
00000010
00001000
00000010
00000001
00001000
,
00000100
00000001
00000100
00001000
00010000
00000010
00001000
00000100
,
00000010
00001000
00010000
00100000
01000000
00010000
01000000
10000000
,
00010000
00100000
10000000
00100000
00010000
00001000
00010000
00000100
,
00000010
00000001
00001000
00000010
00000100
00001000
00000001
00000010
,
00001000
00000100
00000010
00001000
01000000
00100000
10000000
00010000
,
00100000
01000000
10000000
01000000
00010000
00001000
00000100
00000001
,
00000100
00000010
00010000
00001000
00000010
00001000
00010000
00100000
,
01000000
00010000
00100000
01000000
10000000
01000000
00010000
00100000
,
00010000
00000000
00001000
00000000
00000010
00000000
00000001
00000000
00000010
00000000
00000100
00000000
00010000
00001000
00010000
00001000
,
00010000
00000000
00100000
00000000
10000000
00000000
00100000
00000000
01000000
00000000
00010000
01000000
00000000
10000000
01000000
00000000
,
00010000
00000000
00100000
00000000
01000000
00000000
00010000
00000000
00001000
00000000
00000010
00000100
00000000
00000010
00000001
00000000
,
00000100
00000000
00000001
00000000
00000010
00000000
00000100
00000000
00010000
00000000
00000010
00000100
00000000
00001000
00010000
00000000
,
00100000
00010000
00100000
00000000
00010000
00000000
00001000
00000000
00000010
00001000
00000010
00000000
00001000
00000000
00010000
00000000
,
00100000
00000000
10000000
00000000
01000000
00000000
00010000
00000000
01000000
00000000
00100000
00010000
00000000
01000000
00100000
00000000
,
00010000
00000000
00001000
00000000
00000100
00000000
00001000
00000000
00000001
00000000
00000010
00001000
00000000
00000010
00000001
00000000
,
00000010
00000000
00000100
00000000
00001000
00000000
00000100
00000000
00000010
00000000
00010000
00001000
00000000
00000100
00001000
00000000
,
00010000
00001000
00010000
00000000
01000000
00000000
00010000
00000000
00001000
00010000
00001000
00000000
00000010
00000000
00001000
00000000
,
00010000
00000000
00000010
00000000
00001000
00000000
00000001
00000000
00000100
00000000
00000010
00001000
00000000
00000100
00001000
00000000
,
00000001
00000000
00000100
00000000
00001000
00000000
00010000
00000000
00100000
00000000
10000000
00100000
00000000
00010000
00100000
00000000
,
01000000
00000000
10000000
00000000
00010000
00000000
00100000
00000000
01000000
00000000
00001000
00010000
00000000
01000000
00010000
00000000
,
00001000
00010000
00001000
00000000
00000100
00000000
00001000
00000000
00010000
00001000
00010000
00000000
00100000
00000000
00010000
00000000
,
00001000
00000000
00000010
00000000
00000001
00000000
00001000
00000000
00000010
00000000
00000100
00000001
00000000
00000010
00000100
00000000
,
00001000
00000000
00000010
00000000
00000100
00000000
00000001
00000000
00000010
00000000
00001000
00010000
00000000
00100000
01000000
00000000
,
10010000
01000000
00010000
00001000
,
00010010
00011000
00010000
01000000
,
00010000
00001000
00000010
00000001
,
00000100
00000001
00001000
00000100
00000011
00000000
00001100
00000000
,
00001000
00000010
00000101
00001100
,
00001000
00010000
01000000
10000000
11000000
00000000
10100000
00000000
,
00100000
00010000
00001000
00000010
00001010
00000000
00000011
00000000
,
00000010
00000001
00000100
00000010
00001010
00000010
00011000
00000000
,
00010000
00001000
01000000
00010000
00110000
00000000
11000000
00000000
,
10000000
01000000
00010000
00001000
00011000
00000000
00101000
00000000
,
00010000
01000000
00100000
00000000
00011000
00000000
00010010
00000000
,
00010000
00001000
00000010
00000100
00010000
00001000
00000100
00000000
,
00000100
00000010
00000001
00001000
00000100
00000001
00000010
00001000
,
00010000
00001000
01000000
00010000
01000000
10000000
01000000
00010000
,
10000000
00100000
00010000
00100000
01000000
00001000
00010000
00000100
,
00001000
00000100
00000001
00000100
00000010
00000001
00000100
00000000
,
00000010
00000000
00001010
00000000
00000100
00001000
00010000
01000000
,
00100000
00010000
10000000
01000000
00010000
01000000
00100000
00001000
,
00010000
00000010
00000100
00000001
00000010
00001000
00000010
00000100
,
00010000
00100000
00010000
00001000
00000100
00001000
00010000
01000000
,
10000000
00000000
00000000
00000000
11000000
00000000
00000000
00000000
10100000
00000000
00000000
00100000
00000000
00000000
00010000
00000000
,
00011000
00000000
00000000
00000000
00010010
00000000
00000000
00000000
00010000
00000000
00000000
00001000
00000000
00000000
00000010
00000000
,
00000011
00000000
00000000
00000000
00001010
00000000
00000000
00000000
00001000
00000000
00000000
00010000
00000000
00000000
01000000
00000000
,
01010000
00000000
11000000
00000000
00010000
01000000
00100000
00100000
;

//--------------- dance-double - M. Emirzian ----------------
#NOTES:
     dance-double:
     M. Emirzian:
     Challenge:
     9:
     0.592306,0.582248,0.128563,0.064281,0.361582,516,500,16,8,22,4,0.592306,0.582248,0.128563,0.064281,0.361582,516,500,16,8,22,4:
00000000
00000000
00000000
00000000
,
00000000
00000000
00000000
00000000
,
00000000
00000000
00000000
00000000
,
00000000
00000000
00000000
00000000
,
00000001
00000000
00000000
00000000
00000000
00000000
00000200
00000000
00000000
00000000
00000000
00000000
00002000
00000000
00000000
00000000
00000000
00000000
00010000
00000000
00003300
000M0000
00000000
00000000
,
00010000
00000000
00000000
00000000
00000000
00000000
02000000
00000000
00000000
00000000
00000000
00000000
20000000
00000000
00000000
00000000
00000000
00000000
00010000
00000000
33000000
00M00000
00000000
00000000
,
00100000
10000000
00100000
01000000
00100000
00010000
00001000
00000000
,
00000010
00000100
00000010
00000001
00000010
00000100
00010000
00000010
,
00000200
00000000
00000000
00000000
00000000
00000000
00000002
00000000
00000000
00000000
00000000
00000000
00000010
00000000
00000303
000000M0
00000000
00000000
00000010
00000000
00000000
00000000
00000000
00000000
,
00000200
00000000
00000000
00000000
00000000
00000000
00020000
00000000
00000000
00000000
00000000
00000000
00001000
00000000
00030300
0000M000
00000000
00000000
00001000
00000000
00000000
00010000
00000000
00000000
,
01000000
00100000
00010000
00000000
01000000
10000000
01000000
00000000
,
00001000
00010000
01000000
00100000
00001000
00010000
00000010
00001000
,
00000100
00000000
00000010
00000000
00001000
00000000
00000001
00000000
00000100
00000000
00010000
00001000
00010000
00000000
00100000
00000000
,
01000000
00000000
00001000
00000000
01000000
00000000
00100000
00000000
00010000
00000000
00100000
00000000
10000000
00000000
01000000
00010000
,
01000000
00000000
00100000
00000000
00001000
00000000
01000000
00000000
00100000
00000000
00010000
00001000
00010000
00000000
00000100
00000000
,
00000010
00000000
00000100
00000000
00010000
00000000
00001000
00000000
00000100
00000000
00000010
00000000
00001000
00000000
00000100
00010000
,
00000100
00000000
00000010
00000000
00000001
00000000
00000100
00000000
00001000
00000000
00000100
00000010
00010000
00000000
00001000
00000000
,
00100000
00000000
01000000
00000000
00010000
00000000
10000000
00000000
00100000
00000000
01000000
00000000
00010000
00000000
00001000
00010000
,
00001000
00000000
00000100
00000000
00000001
00000000
00000010
00000000
00000100
00000000
00010000
00000010
00010000
00000000
00001000
00000000
,
00000100
00000000
00000010
00000000
00010000
00000000
00000010
00000000
00001000
00000000
00000010
00000000
00000001
00000000
00001000
00000100
,
00001000
00000000
00010000
00000000
00100000
00000000
10000000
00000000
00010000
00000000
01000000
00001000
01000000
00000000
00100000
00000000
,
10000000
00000000
01000000
00000000
00100000
00000000
00001000
00000000
00010000
00000000
01000000
00000000
00010000
00000000
00001000
00100000
,
00001000
00000000
00010000
00000000
00000010
00000000
00000100
00000000
00000010
00000000
00000001
00000010
00000100
00000000
00000010
00000000
,
00010000
00000000
00000010
00000000
00001000
00000000
00000100
00000000
00000010
00000000
00001000
00000000
00100000
00000000
01000000
00100000
,
00010000
00000000
01000000
00000000
00001000
00000000
01000000
00000000
00100000
00000000
10000000
00010000
10000000
00000000
01000000
00000000
,
00100000
00000000
01000000
00000000
00010000
00000000
00100000
00000000
00010000
00000000
00001000
00000000
00000100
00000000
00000001
00000100
,
00000001
00000000
00000010
00000000
00001000
00000000
00000100
00000000
00001000
00000000
00010000
00001000
00010000
00000000
00000100
00000000
,
00000010
00000000
00000001
00001000
00000001
00000000
00000100
00000000
00000010
00000000
00001000
00000000
00000100
00000010
00000100
00000010
,
00000100
00000000
00001000
00000000
00000001
00000000
00000100
00000010
00000100
00000000
00001000
00010000
00000000
00010000
00100000
00000000
,
10000000
00000000
01000000
00000000
00100000
00000000
00010000
01000000
00010000
00000000
10000000
01000000
00000000
01000000
00100000
00000000
,
00001000
00000000
00010000
00000000
00100000
00000000
00010000
00001000
00010000
00000000
00001000
00000100
00000000
00000100
00000001
00000000
,
00000010
00000100
00000010
00000000
00000001
00000000
00000100
00000000
00000010
00001000
00000010
00000000
00000100
00000000
00000001
00000000
,
00000010
00000000
00001000
00000000
00010000
00000000
01000000
10000000
01000000
00000000
00010000
00001000
00000000
00001000
01000000
00000000
,
00100000
00000000
00010000
00000000
00100000
00000000
01000000
00001000
01000000
00000000
00100000
10000000
00000000
10000000
01000000
00000000
,
00010000
00000000
10000000
00000000
00100000
00000000
00001000
00010000
00001000
00000000
00000100
00000001
00000000
00000001
00000010
00000000
,
00000100
00001000
00000100
00000000
00010000
00000000
00000010
00000000
00000100
00001000
00000100
00000000
00000001
00000000
00000100
00000000
,
00001000
00000000
00010000
00000000
00000100
00000000
00010000
00001000
00010000
00000000
00100000
10000000
00000000
10000000
01000000
00000000
,
00010000
00000000
01000000
00000000
10000000
00000000
00010000
01000000
00100000
00000000
00010000
00001000
00000000
00001000
00000100
00000000
,
00000001
00000000
00000010
00000000
00000100
00000000
00001000
00000001
00000100
00000000
00001000
00010000
00000000
00010000
00001000
00000000
,
00000010
00000100
00000010
00000000
00000001
00000000
00000100
00000000
00001000
00010000
00001000
00000000
00000100
00000000
00001000
00000000
,
00010000
00000000
01000000
00000000
10000000
00000000
00010000
01000000
00010000
00000000
00100000
01000000
00000000
01000000
10000000
00000000
,
00010000
00000000
01000000
00000000
00100000
00000000
00010000
00001000
00010000
00000000
00001000
00000100
00000000
00000100
00000001
00001000
,
00000100
00000010
0000MMMM
00010000
,
0MMMM000
10000000
MMMM0000
00000100
,
00000010
00000001
00001000
00000100
,
00010000
00001000
00000100
00001000
00011000
00101000
00110000
00000000
,
10000000
00000000
00100000
10000000
00100000
00000000
01000000
00010000
01000000
00000000
00001000
00000000
00100000
00000000
00001000
00000000
,
00010000
00000000
00000010
00001000
00000000
00000000
00000010
00000000
00010000
00001000
00000000
00000000
01010000
00000000
00000000
00000000
,
00100000
00000000
10000000
01000000
10000000
00000000
00100000
00010000
00100000
00000000
01000000
00000000
00001000
00000000
00010000
00000000
,
00000010
00000000
00001000
00000100
00000000
00000000
00000010
00000000
00000001
00000100
00000000
00000000
00001010
00000000
00000000
00000000
,
00010000
00000100
00000010
00000001
00000101
00001001
00001010
00000000
,
00010000
00000000
00001000
01000000
00000000
00000000
00100000
00000000
01000000
00010000
00000000
00000000
10010000
00000000
00000000
00000000
,
00100000
00000000
01000000
10000000
01000000
00000000
00100000
00001000
00100000
00000000
00010000
00000000
01000000
00000000
00100000
00000000
,
00010000
00000000
00001000
01000000
00000000
00000000
00001000
00000000
00010000
00001000
00000000
00000000
00010000
00000000
00000010
00000000
,
00000100
00000000
00000010
00000000
00001000
00000000
00000001
00000000
00001000
00000000
00000010
00000100
00000010
00000000
00000100
00000000
,
00000010
00000000
00001000
00000100
00000000
00000000
00010000
00000000
00001000
00010000
00000000
00000000
00010100
00000000
00000000
00000000
,
01000000
00000000
00001000
00000000
00100000
00000000
01000000
00000000
00100000
00000000
00010000
10000000
00010000
00000000
01000000
00000000
,
00100000
00000000
00010000
00001000
00000000
00000000
00100000
00000000
01000000
00010000
00000000
00000000
00011000
00000000
00000000
00000000
,
00000010
00000000
00000100
00000000
00010000
00000000
00000010
00000000
00010000
00000000
00001000
00100000
00001000
00000000
00010000
00000000
,
01000000
00000000
10000000
00100000
00000000
00000000
01000000
00000000
00010000
00100000
00000000
00000000
00011000
00000000
00000000
00000000
,
00000010
00000000
00000100
00000000
00001000
00000000
00000100
00000000
00000010
00000000
00010000
00000010
00010000
00000000
00001000
00000000
,
00000100
00000000
00001000
00010000
00000000
00000000
01000000
00000000
00100000
00010000
00000000
00000000
11000000
00000000
00000000
00000000
,
10000000
00000000
00000000
00000000
00100000
00000000
00000000
00000000
01000000
00000000
00000000
00001000
00000000
00000000
00010000
00000000
,
00001010
00000000
00000000
0000M0M0
00000100
00000000
00000000
00000000
00000010
00000000
00000000
00000001
00000000
00000000
00000100
00000000
,
00001001
00000000
00000000
0000M00M
00000100
00000000
00000000
00000000
00010000
00000000
00000000
00001000
00000000
00000000
00100000
00000000
,
01010000
00000000
00000000
0M0M0000
00100000
00000000
00000000
00000000
10000000
00000000
01000000
00000000
00010000
00000000
00010000
00000000
;

//--------------- lights-cabinet - ----------------
#NOTES:
     lights-cabinet:
     :
     Easy:
     1:
     0.61756,0.741043,1.157063,0.032141,0.136598,538,359,144,4,0,33,0.61756,0.741043,1.157063,0.032141,0.136598,538,359,144,4,0,33:
000000
000000
000000
000000
,
000000
000000
000000
000000
,
000000
000000
000000
000000
,
000000
000000
200200
311300
,
110000
000000
000000
000100
100000
000000
010000
000000
001100
000000
000000
010000
001000
000000
000100
000000
,
110000
000000
000000
000100
100000
000000
010000
000000
001100
000000
000000
010000
001000
000000
000100
000000
,
101000
000000
000000
000100
100000
000000
000100
000000
011000
000000
000000
000100
001000
000000
000100
000000
,
011000
000000
000000
100000
010000
000000
000100
000000
101000
000000
000100
000000
001000
000000
000100
000000
,
011000
000000
000000
001000
010000
000000
000100
000000
101000
000000
000000
001000
100000
000000
001000
000000
,
110000
000000
000000
001000
010000
000000
001000
000000
110000
000000
000000
001000
100000
000000
001000
000000
,
110000
000000
000000
001000
010000
000000
001000
000000
110000
000000
000000
001000
100000
000000
001000
000000
,
101000
000100
010000
001000
110000
000000
001000
000000
,
110000
100111
101000
010011
,
110000
010011
000100
010011
,
110000
000111
110000
010011
,
110000
001011
000100
100011
,
101000
000111
011000
010011
,
110000
001011
010100
001011
,
110000
001011
000100
001011
,
110000
000111
001100
110011
,
110000
000000
000000
100000
001011
000000
000000
000000
001100
000000
000000
001000
010011
000000
000000
000000
,
010100
000000
000000
010000
000111
000000
000000
000000
001100
000000
000000
000100
100011
000000
000000
000000
,
011000
000000
000000
010000
001011
000000
000000
000000
101000
000000
000000
001000
010011
000000
000000
000000
,
110000
000000
000000
100000
000111
000000
000000
000000
200200
000000
000000
000000
311311
000000
000000
000000
,
001100
000000
000000
000100
010011
000000
000000
000000
011000
000000
000000
010000
001011
000000
000000
000000
,
101000
000000
000000
001000
100011
000000
000000
000000
110000
000000
000000
100000
000111
000000
000000
000000
,
001000
000000
000000
001000
010011
000000
000000
000000
110000
000000
000000
010000
001011
000000
000000
000000
,
000100
000000
000000
000100
100011
000000
000000
000000
110000
000000
000100
000000
010011
000000
001000
000000
,
110000
000000
100000
001000
101000
000000
010000
000100
,
000000
001000
000000
000100
001100
000000
011000
000000
,
100100
000000
000100
100000
000100
000000
001000
100000
,
000000
010000
000000
100000
110000
000000
100000
000000
,
100100
000000
010000
001000
110000
000000
010000
000100
,
000000
001000
000000
000100
001000
000000
100100
000000
,
011000
000000
000100
010000
000100
000000
001000
100000
,
000000
010000
000000
100000
011000
000000
100000
000000
,
100100
000000
001000
010000
001100
100000
000100
000000
,
110000
000100
010000
001000
110000
010000
010000
000000
,
000100
000000
010000
001000
101000
000100
100000
000000
,
001100
100000
001000
010000
001100
000000
011000
000000
,
100100
000000
001000
010000
000100
100000
000100
000000
,
101000
000100
010000
001000
110000
000100
010000
001000
,
100100
000000
011000
100100
000000
011000
100100
000000
,
011000
011000
100100
100100
,
001100
000000
010000
000100
000000
010000
000100
000000
,
110000
001000
100000
001000
100100
000000
011000
000000
,
000100
010000
000100
000000
110000
000100
100000
000000
,
000100
100000
000100
100000
101000
010000
000100
000000
,
000100
010000
000100
000000
101000
000100
100000
000000
,
001100
100000
000100
100000
001100
010000
000100
000000
,
110000
001000
100000
001000
100100
000000
011000
000000
,
000100
010000
000100
000000
110000
000100
100000
000000
,
000100
100000
000100
100000
101000
010000
000100
000000
,
000100
010000
000100
000000
101000
000100
100000
000100
,
110000
000100
001100
010000
,
110000
010000
000100
010000
,
010100
000100
110000
010000
,
011000
001000
010100
100000
,
110000
000100
001000
010000
,
110000
001000
000100
001000
,
110000
001000
000100
001000
,
101000
000000
001000
000000
011000
000000
010000
000100
,
110000
000000
000000
000100
100000
000000
000100
000000
101000
000000
000000
000100
001000
000000
000100
000000
,
110000
000000
000000
000100
100000
000000
000100
000000
001000
000000
000000
000100
001000
000000
000100
000000
,
110000
000000
000000
000100
100000
000000
000100
000000
001100
000000
000000
000100
001000
000000
000100
000000
,
110000
000000
000000
000100
010000
000000
000100
000000
001100
000000
000000
000000
011000
000000
100100
000000
;
