#TITLE:Samb-Adaigo (Original Club Mix);
#SUBTITLE:;
#ARTIST:Safri Duo;
#TITLETRANSLIT:;
#SUBTITLETRANSLIT:;
#ARTISTTRANSLIT:;
#GENRE:;
#CREDIT:;
#MUSIC:samb-adagio.ogg;
#BANNER:samb-adaigo.png;
#BACKGROUND:samb-adaigo-bg.png;
#CDTITLE:;
#SAMPLESTART:0.000;
#SAMPLELENGTH:0.000;
#SELECTABLE:YES;
#OFFSET:-7.027;
#BPMS:0.000=138.000
,32.000=69.000
,34.000=138.000
,228.000=34.500
;
#STOPS:;
#DISPLAYBPM:138.000;
#BGCHANGES:;
#FGCHANGES:;

//--------------- dance-single - ----------------
#NOTES:
     dance-single:
     :
     Easy:
     4:
     0,0,0,0,0:
1000
0000
0001
0000
,
1000
1000
1000
0000
,
0100
0000
0010
0000
,
0001
0001
0001
0000
,
1000
0000
0001
0000
,
0010
0010
0010
0000
,
1000
0000
0001
0000
,
0010
0100
1000
0001
,
2002
0000
0000
3003
1000
0000
0000
0000
,
1000
0000
0010
0000
,
0010
0000
0001
0000
,
0001
0000
0010
0000
,
0100
0000
1000
0000
,
1000
0000
0100
0000
,
0100
0000
0001
0000
,
0001
0000
0010
0000
,
0010
0000
1001
0000
,
1001
0000
0010
0000
,
0010
0000
1001
0000
,
1001
0000
0100
0000
,
0100
0000
0001
0000
,
1000
0000
0010
0000
,
0100
0000
0001
0000
,
0001
0000
1000
0000
,
1000
0000
0010
0010
,
0000
0001
1000
0001
,
0000
0100
0010
0100
,
0000
0001
0010
1000
,
0000
1000
0010
0001
,
0000
0001
0010
0001
,
0000
1000
0010
1000
,
0000
0010
0100
1000
,
0000
0100
0010
0010
,
0001
0000
0001
0001
,
0010
0000
0100
0100
,
1000
0000
0100
0100
,
0001
0000
0001
0010
,
1000
0000
1000
0100
,
0010
0000
0001
1000
,
0100
0000
0010
0001
,
1000
0000
1000
0010
,
0000
0000
0001
0010
,
0000
0000
0010
0100
,
0000
0000
1000
0001
,
0000
0000
0001
0100
,
0000
0000
0010
1000
,
0000
0000
0100
0001
,
0000
0000
1000
0001
,
0010
0100
1000
1001
,
0000
0000
0010
0110
,
0000
0000
0010
1100
,
0000
0000
0010
0101
,
0000
0000
1000
1000
,
0000
0000
0001
0001
,
0000
0000
0010
0100
,
0000
0000
0100
0001
,
0100
0001
0010
0000
,
1000
0010
0000
0000
0000
0000
0000
0000
;

//--------------- dance-single - ----------------
#NOTES:
     dance-single:
     :
     Medium:
     7:
     0,0,0,0,0:
1000
0100
1000
0001
,
1000
0001
1000
0000
1001
0000
0010
0000
,
1000
0001
0010
1000
,
0100
0010
0100
0000
0110
0000
0000
0000
,
1000
0001
0100
0010
,
1000
0100
1000
0000
1100
0000
0001
0000
,
1000
0001
0100
0010
,
1000
1000
1000
0000
0001
0001
0001
0000
,
0220
0000
0000
0330
2000
0000
3010
0000
,
0100
0001
0100
0000
0002
0000
0103
0000
,
0100
1000
0100
0000
2000
0000
3001
0000
,
0010
0100
0010
0000
0020
0000
0130
0000
,
0001
0100
0001
0000
2000
0000
3002
0000
,
0013
0100
1000
0000
0020
0000
0230
0000
,
0301
0010
0100
0000
2000
0000
3020
0000
,
0130
0001
0010
0000
0200
0000
2300
0000
,
3001
1000
0100
0000
1000
0010
0100
0000
,
0001
0000
1000
0000
0001
0010
0100
0000
,
0010
0000
1000
0000
0010
0100
0001
0000
,
1000
0000
0100
0000
0010
0001
1000
0000
,
0100
0000
0001
0000
1000
0010
1000
0000
,
0001
0000
0100
0000
0001
0100
0001
0000
,
1000
0000
0010
0000
0100
0001
0100
0000
,
0001
0000
0100
0000
1000
0001
1000
0000
,
0100
0010
1000
0010
,
0001
0110
1000
0001
,
0010
1100
0001
0010
,
0010
0101
0100
1000
,
0100
0011
0001
1000
,
0100
1100
0010
0001
,
0010
0110
1000
0001
,
1000
0101
0001
0010
,
1000
1010
0200
0301
,
0020
0130
2000
3010
,
0200
0301
2000
3001
,
0020
0130
2000
3100
,
0020
0000
0031
0000
1000
0100
1000
0000
,
0001
0010
0001
0000
1000
0001
1000
0000
,
0010
0100
0010
0000
1000
0001
1000
0000
,
0010
0100
0010
0000
1000
0010
1000
0000
,
0001
0100
0001
0000
0010
0000
1010
0000
,
0100
0101
0010
0101
,
1000
1100
0010
0110
,
0001
0011
0100
1100
,
0010
0110
0012
0103
,
2010
3001
2001
3100
,
1002
0103
0120
1030
,
0210
1300
2100
3010
,
0120
0000
0031
0000
1000
0100
0001
0000
,
1000
0100
0001
0000
0010
1000
0001
0000
,
0010
1000
0001
0000
1000
0100
0010
0000
,
1000
0100
0010
0000
0001
0010
0001
0000
,
0001
0010
0001
0000
1000
0000
0010
0000
,
0001
0010
1000
0100
,
0010
0001
0001
0010
,
1000
0010
0001
0100
,
1000
0001
1000
0001
1000
0000
0000
0000
,
0020
0130
0000
0000
0000
0000
0000
0000
;

//--------------- dance-single - ----------------
#NOTES:
     dance-single:
     :
     Hard:
     13:
     0,0,0,0,0:
1000
0000
0001
0010
0001
0010
0001
1000
0000
0000
0010
0100
0010
0100
0001
0000
,
0010
0000
0100
0000
1000
0000
0001
0100
0000
0000
0010
0000
1100
0000
0000
0000
,
0001
0000
0010
0100
0010
0100
0010
0001
0000
0000
1000
0001
1000
0001
0100
0000
,
0010
0000
1000
0000
0001
0000
0010
0100
0000
0000
0010
0000
0101
0000
0000
0000
,
0010
0000
0100
0001
0100
0001
0100
0010
0000
0000
1000
0010
1000
0010
0100
0000
,
0001
0000
0100
0000
0010
0000
1000
0100
0000
0000
1000
0000
0011
0000
0000
0000
,
0100
0000
0010
1000
0010
1000
0010
0100
0000
0000
0001
0100
0001
0100
0010
0000
,
1000
0100
1000
0000
0001
0100
0001
0000
1000
0010
1000
0000
0001
0010
0001
0000
,
2002
0000
0000
0000
0000
0000
3003
0000
1000
0100
0000
0000
0010
0000
0000
0001
,
0000
0010
0000
0000
0100
0000
0000
1000
0000
0010
0000
0000
0100
0000
0000
1000
,
0000
0010
0000
0000
0100
0000
0000
0001
0000
1000
0000
0000
0100
0000
0000
1000
,
0000
0001
0000
0000
0100
0000
0000
0010
0000
0100
0000
0000
0001
0000
0000
0100
,
0000
0010
0000
0000
1000
0000
0000
0001
0000
1000
0000
0000
0010
0000
0000
1000
,
0000
0001
0000
0000
0010
0000
0000
0100
0000
1000
0000
0000
0010
0000
0000
0100
,
0000
0001
0000
0000
0010
0000
0000
0001
0000
0100
0000
0000
1000
0000
0000
1000
,
0000
0100
0000
0000
0001
0000
0000
0001
0000
0100
0000
0000
1000
0000
0000
1000
,
0000
0010
0000
0000
0001
0000
0000
0010
0000
1000
0000
0000
1010
0000
0000
0010
,
0000
0001
0000
0000
0011
0000
0000
1000
0000
0100
0000
0000
1100
0000
0000
0001
,
0000
0100
0000
0000
0101
0000
0000
1000
0000
0001
0000
0000
1001
0000
0000
0010
,
0000
0100
0000
0000
0110
0000
0000
0001
0000
1000
0000
0000
1001
0000
0000
0100
,
0000
0010
0000
0000
0110
0000
0000
0100
0000
0010
0000
0000
1010
0000
0000
0001
,
0000
0100
0000
0000
0110
0000
0000
1000
0000
0001
0000
0000
0011
0000
0000
0100
,
0000
1000
0000
0000
1010
0000
0000
0001
0000
1000
0000
0000
0011
0000
0000
0010
,
0000
0100
0000
0000
1100
0000
0000
0001
0000
0100
0000
0000
1010
0000
0000
1000
,
0000
0100
0000
0000
0011
0000
0000
0000
1000
0010
1000
0000
0100
0000
0000
0010
,
0001
0010
0001
0000
0100
0000
0000
0010
1000
0010
1000
0000
0001
0000
0000
0100
,
0010
0100
0010
0000
1000
0000
0000
0001
0100
0001
0100
0000
0010
0000
0000
1000
,
0001
1000
0001
0000
0010
0000
0000
0100
1000
0100
1000
0000
0001
0000
0000
0100
,
0010
0100
0010
0000
1000
0000
0000
0001
1000
0001
0010
0000
0100
0000
0000
1000
,
0010
1000
0001
0000
0010
0000
0000
0100
1000
0100
0010
0000
0001
0000
0000
0100
,
0010
0100
0001
0000
1000
0000
0000
0001
0100
0001
0010
0000
0100
0000
0000
1000
,
0010
1000
0100
0000
1000
0000
0000
0010
0100
0010
1000
0000
0001
0000
0000
0010
,
0100
0010
0001
0000
1000
0000
0000
1000
0100
0010
0001
0000
0100
0000
0000
0010
,
1000
0001
0100
0000
0010
0000
0000
1000
0010
0100
0001
0000
0010
0000
0000
0100
,
1000
0001
0010
0000
0100
0000
0000
0010
0100
1000
0001
0000
0100
0000
0000
0010
,
0100
0001
1000
0000
0100
0000
0000
0010
0001
1000
0100
0000
0010
0000
0000
0001
,
0010
0100
1000
0000
0100
0000
0000
0010
0001
0100
0001
0000
0010
0000
0000
0100
,
1000
0010
1000
0000
0100
0000
0000
0010
0100
1000
0100
0000
0010
0000
0000
0001
,
0010
0100
0010
0000
0001
0000
0000
1000
0100
0001
0100
0000
1000
0000
0000
0001
,
0100
1000
0100
0000
0001
0000
0000
1000
0010
0001
0010
0000
1000
0000
0000
0001
,
0010
1000
0010
0000
0001
0000
0000
0000
1000
0010
0000
0000
0100
0000
0000
0001
,
0000
0010
0000
0001
0010
0000
0000
0001
0000
0100
0000
0001
0100
0000
0000
0010
,
0000
0100
0000
0010
0100
0000
0000
0010
0000
1000
0000
0010
1000
0000
0000
0100
,
0000
0010
0000
0100
0010
0000
0000
0100
0000
1000
0000
0100
1000
0000
0000
0001
,
0000
1000
0000
0001
1000
0000
0000
0010
0000
0100
0000
0010
1000
0000
0000
0001
,
0000
1000
0000
0001
0100
0000
0000
0010
0000
1000
0000
0010
0100
0000
0000
0001
,
0000
0010
0000
0001
0100
0000
0000
0001
0000
0010
0000
0001
1000
0000
0000
0100
,
0000
0010
0000
0100
1000
0000
0000
0010
0000
0100
0000
0001
0100
0000
0000
0010
,
0000
1000
0000
0010
0100
0000
0000
0001
0000
0010
0000
0100
1000
0000
0000
0001
,
0000
0100
0000
0010
1000
0000
0000
0010
0000
1000
0000
0001
0100
0000
0000
0010
,
0000
0100
0000
0001
1000
0000
0000
0100
0000
0010
0000
0001
1000
0000
0000
0100
,
0000
0010
0000
0001
0100
0000
0000
0010
0000
1000
0000
0100
0010
0000
0000
0001
,
0000
0100
0000
0010
1000
0000
0000
1000
0000
0001
0000
0001
1000
0000
0000
0001
,
0000
1000
0000
1000
0001
0000
0000
1000
0000
0010
0000
0010
1000
0000
0000
0001
,
0000
0010
0000
0010
0001
0000
0000
0010
0000
0100
0000
0100
0010
0000
0000
0100
,
0000
0010
0000
0010
0100
0000
0000
1000
0000
0100
0000
0100
1000
0000
0000
1000
,
0001
0000
0100
0001
0100
0001
0100
0001
0100
0000
0000
0000
0000
0000
0000
0000
,
0020
1030
0000
0000
0000
0000
0000
0000
;
