#TITLE:Remember December;
#SUBTITLE:;
#ARTIST:Mind Reflection;
#TITLETRANSLIT:;
#SUBTITLETRANSLIT:;
#ARTISTTRANSLIT:;
#GENRE:;
#CREDIT:;
#MUSIC:Remember December.ogg;
#BANNER:Remember December.png;
#BACKGROUND:Remember December-bg.png;
#CDTITLE:;
#SAMPLESTART:101.047;
#SAMPLELENGTH:12.000;
#SELECTABLE:YES;
#OFFSET:-0.002;
#BPMS:0.000=192.405;
#STOPS:;
#BGCHANGES:;
#FGCHANGES:;

//--------------- dance-single - K. Ward ----------------
#NOTES:
     dance-single:
     K. Ward:
     Beginner:
     2:
     0.109556,0.197653,0.055343,0,0,97,90,7,0,0,0,0.109556,0.197653,0.055343,0,0,97,90,7,0,0,0:
0000
0000
0000
0000
,
0000
0000
0000
0000
,
0000
0000
0000
0000
,
0000
0000
0000
0000
,
1000
0000
0000
0000
,
0000
0000
0000
0000
,
0001
0000
0000
0000
,
0000
0000
0000
0000
,
1000
0000
0001
0000
,
0010
0000
0000
0000
,
0000
0000
0000
0000
,
0100
0000
0000
0000
,
0000
0000
0000
0000
,
0010
0000
0000
0000
,
0000
0000
0000
0000
,
0001
0000
0000
0000
,
1000
0000
0001
0000
,
0010
0000
0010
0000
,
0010
0000
0000
0000
,
0100
0000
0100
0000
,
0100
0000
0000
0000
,
1000
0000
0000
0000
,
0001
0000
0000
0000
,
1000
0000
1000
0000
,
1000
0000
0000
0000
,
1001
0000
0000
0000
,
0000
0000
0000
0000
,
1001
0000
0000
0000
,
0000
0000
0000
0000
,
0110
0000
0000
0000
,
0000
0000
0000
0000
,
1001
0000
0000
0000
,
0000
0000
0000
0000
,
0001
0000
0001
0000
,
0001
0000
0000
0000
,
0010
0000
0010
0000
,
0010
0000
0000
0000
,
0001
0000
0001
0000
,
0001
0000
0000
0000
,
1000
0000
1000
0000
,
1000
0000
0000
0000
,
0001
0000
0000
0000
,
0010
0000
0000
0000
,
0100
0000
0000
0000
,
1000
0000
0000
0000
,
1000
0000
0000
0000
,
0100
0000
0000
0000
,
0010
0000
0000
0000
,
0001
0000
0001
0000
,
0001
0000
0000
0000
,
0000
0000
0000
0000
,
1000
0000
0000
0000
,
0000
0000
0000
0000
,
0001
0000
0000
0000
,
1000
0000
0000
0000
,
0001
0000
0001
0000
,
0001
0000
0000
0000
,
1000
0000
0000
0000
,
1000
0000
0000
0000
,
1000
0000
0000
0000
,
0010
0000
0010
0000
,
0010
0000
0000
0000
,
0100
0000
0000
0000
,
0001
0000
0000
0000
,
1000
0000
0000
0000
,
1001
0000
0000
0000
,
0000
0000
0000
0000
,
1000
0000
0000
0000
,
0000
0000
0000
0000
,
0001
0000
0000
0000
,
0000
0000
0000
0000
,
1000
0000
0000
0000
,
0010
0000
0010
0000
,
0100
0000
0000
0000
,
0000
0000
0000
0000
,
0001
0000
0000
0000
,
0000
0000
0000
0000
,
1000
0000
0000
0000
,
0010
0000
0000
0000
,
0100
0000
0000
0000
,
0000
0000
0000
0000
,
1001
0000
0000
0000
,
0000
0000
0000
0000
,
0010
0000
0000
0000
,
0000
0000
0000
0000
,
0100
0000
0000
0000
,
0000
0000
0000
0000
,
0001
0000
0000
0000
,
0100
0000
0100
0000
,
0100
0000
0000
0000
,
0010
0000
0000
0000
,
1000
0000
0000
0000
,
0100
0000
0000
0000
,
1000
0000
0000
0000
,
0001
0000
0000
0000
,
0010
0000
0000
0000
,
0000
0000
0000
0000
,
1001
0000
0000
0000
,
0000
0000
0000
0000
,
1000
0000
1000
0000
,
1000
0000
0000
0000
;

//--------------- dance-single - K. Ward ----------------
#NOTES:
     dance-single:
     K. Ward:
     Easy:
     4:
     0.214595,0.355776,0.023718,0.031625,0,190,187,3,4,0,0,0.214595,0.355776,0.023718,0.031625,0,190,187,3,4,0,0:
0000
0000
0000
0000
,
0000
0000
0000
0000
,
0000
0000
0000
0000
,
0000
0000
0000
0000
,
0001
0000
1000
0000
,
0001
0000
0001
0000
,
0010
0000
0100
0000
,
0001
0000
1000
1000
,
0001
0000
0000
0000
,
0001
0000
0100
0000
,
0001
0000
0001
0000
,
0001
0000
0100
0000
,
0001
0000
0001
0000
,
0010
0000
0100
0000
,
0010
0000
0010
0000
,
1000
1000
1000
1000
,
0010
0000
0010
0000
,
1000
0000
0001
0000
,
1000
0000
0001
0000
,
0001
0000
0100
0000
,
0001
0000
0001
0000
,
0010
0000
0100
0000
,
0010
0000
0010
0000
,
1000
1000
1000
1000
,
0001
0000
0001
0000
,
1000
0000
0000
0000
,
0010
0000
0000
0000
,
1000
0000
0000
0000
,
0010
0000
0000
0000
,
1000
0000
0000
0000
,
0010
0000
0000
0000
,
1000
0000
0001
0000
,
0100
0000
0100
0100
,
0001
0000
0100
0000
,
0001
0000
1000
0000
,
0001
0000
0100
0000
,
0001
0000
1000
1000
,
0001
0000
0100
0000
,
0001
0000
0001
0000
,
1000
0000
1000
0000
,
0001
0001
0000
0000
,
0100
0000
0100
0000
,
0001
0000
0001
0000
,
0100
0000
0100
0000
,
0001
0000
0001
0000
,
0100
0000
0100
0000
,
0001
0000
0001
0000
,
1000
0000
1000
0000
,
0001
0000
0001
0000
,
0100
0000
0000
0000
,
0100
0000
0000
0000
,
0100
0000
0000
0000
,
0100
0000
0010
0000
,
0100
0000
0100
0000
,
0100
0000
0100
0000
,
0100
0100
0100
0100
,
0100
0000
0000
0000
,
0001
0001
0001
0001
,
0010
0010
0010
0010
,
0001
0001
0001
0001
,
0010
0001
0010
0001
,
0001
0001
0001
0001
,
0010
0010
0010
0010
,
0001
0001
0001
0001
,
0001
0000
0001
0000
,
0020
0000
0000
0000
,
0000
0000
0000
0000
,
2030
0000
0000
0000
,
0000
0000
0000
0000
,
3002
0000
0000
0000
,
0000
0000
0000
0000
,
0203
0000
0000
0000
,
0000
0000
0000
0000
,
0301
0000
0100
0000
,
0001
0000
1000
0000
,
0001
0000
0100
0000
,
0001
0000
1000
1000
,
0001
0000
0100
0000
,
0001
0000
0001
0000
,
1000
0000
1000
0000
,
0001
0001
0001
0000
,
0100
0000
0100
0000
,
0001
0000
0001
0000
,
0100
0000
0100
0000
,
0001
0000
0001
0000
,
0100
0000
0100
0000
,
0001
0000
0001
0000
,
1000
0000
0000
0000
,
0100
0000
1000
0000
,
0001
0000
0000
0000
,
0100
0000
0100
0000
,
0001
0000
0000
0000
,
0001
0000
0000
0000
,
0100
0000
0000
0000
,
0001
0000
0001
0000
,
0100
0000
0000
0000
,
0001
0000
0001
0000
,
0000
0000
1001
0000
,
0000
0000
1001
0000
,
1000
0000
0001
0000
,
1001
0000
0000
0000
;

//--------------- dance-single - K. Ward ----------------
#NOTES:
     dance-single:
     K. Ward:
     Medium:
     9:
     0.405472,0.516468,0.292527,0.158123,0,359,322,37,20,6,0,0.405472,0.516468,0.292527,0.158123,0,359,322,37,20,6,0:
0000
0000
0000
0000
,
0000
0000
0000
0000
,
0000
0000
0000
0000
,
0000
0000
0000
0000
,
0100
0200
0000
0000
,
0000
0000
0000
0300
0000
0000
0000
0000
,
0010
0020
0000
0000
,
0000
0000
0000
0030
0000
0000
0000
0000
,
1000
0001
1000
0001
,
0100
0010
0000
0101
0000
0000
0000
0000
,
0010
0100
0000
1010
0000
0000
0000
0000
,
0100
0010
0000
0110
0000
0000
0000
0000
,
0010
0100
0000
1001
0000
0000
0000
0000
,
0100
0010
0000
1000
0000
0000
0100
0000
,
0010
0100
0000
1000
0000
0000
0000
0000
,
0010
0100
0000
1000
0000
0000
0100
0000
,
0010
0100
0010
0100
0010
0010
0100
0000
,
0001
1000
0100
0010
,
0001
0100
0000
1001
0000
0000
0000
0000
,
0100
0010
0001
0010
,
0100
0010
0000
1100
0000
0000
0000
0000
,
0100
0010
0000
0011
0000
0000
0000
0000
,
0100
0010
0000
1100
0000
0000
0000
0000
,
0100
0001
0100
1000
,
0020
0100
0001
0130
,
1001
0000
0010
0010
,
0200
0000
0000
0300
,
1000
1000
0100
0100
,
0002
0000
0000
0003
,
0100
0000
0001
0000
0010
0100
1000
0000
,
0200
0000
0000
0300
,
0010
0000
0100
0000
0001
1000
0100
0000
,
2002
0000
3003
0000
,
0001
0100
0010
0100
,
0001
0100
0010
0100
,
1000
0100
0010
1000
,
0001
1000
0001
1000
0001
0000
1001
0000
,
0010
0100
0010
0100
,
1000
0100
0010
0100
,
0010
0001
0010
0100
,
1001
0110
1001
0000
,
1000
0000
0001
0000
0100
0001
0000
0010
,
0001
0000
0100
0001
0000
0010
0001
0000
,
1000
0000
1000
0000
0100
1000
0000
0010
,
1000
0000
0100
1000
0000
0100
0010
0000
,
1001
0000
0100
0000
0010
0100
0000
0100
,
0001
0000
0010
0100
0000
0100
0010
0000
,
0001
0000
1000
0000
0001
1000
0000
1000
,
0001
0000
0010
0100
0000
1000
0100
0000
,
0200
0000
0310
0000
,
0200
0000
1300
0000
,
0020
0000
0031
0000
,
0020
0000
0130
0000
,
0000
1001
0000
0110
,
0000
1001
0000
0110
,
0000
1000
0001
1000
,
0002
0000
1003
0000
,
1000
0001
0100
0001
,
0010
0001
0100
0001
,
1000
1000
0100
0100
,
0001
0100
0110
0000
,
1001
0001
0011
0000
,
0100
0010
1001
0000
,
0100
0010
0100
1000
,
0100
0011
1100
0110
,
2002
0000
0000
0000
,
3003
M00M
0000
0000
,
2200
0000
0000
0000
,
3300
MM00
0000
0000
,
0022
0000
0000
0000
,
0033
00MM
0000
0000
,
1000
1000
0001
0000
,
0001
0001
1000
0000
,
1001
1000
0010
0100
,
0100
0010
1000
1000
,
0001
0001
0010
0100
,
0010
0000
0001
0000
0100
0000
0001
0010
,
0100
0010
0100
1000
,
0010
0001
0010
0100
,
0001
0000
1000
0000
,
0100
0010
0110
0000
,
1001
0100
0010
0100
,
0001
0010
0000
0001
0000
0000
0000
0000
,
0100
1000
0100
0010
,
1000
0001
0000
1000
0000
0000
0000
0000
,
0100
0100
0010
0100
,
0100
1000
0000
1001
0000
0000
0000
0000
,
0100
0010
0001
0010
,
0100
0000
0010
0000
0100
0010
0100
0000
,
1001
0010
0100
0001
,
1000
0100
1000
0000
0001
0010
0001
0000
,
0100
0100
0001
1000
,
0100
0010
0001
0000
0001
0010
0100
0000
,
1000
0010
0100
0001
,
1000
0100
1000
0000
0010
0100
0001
0000
,
0010
0100
0010
0001
,
0010
0100
0010
0010
,
1001
0000
0100
0000
,
1001
0000
0010
0000
,
1001
0000
0100
0001
,
0020
0000
0130
0000
;

//--------------- dance-single - K. Ward ----------------
#NOTES:
     dance-single:
     K. Ward:
     Hard:
     13:
     0.658468,0.675382,0.221372,0.379495,0.185794,583,555,28,48,37,0,0.658468,0.675382,0.221372,0.379495,0.185794,583,555,28,48,37,0:
0000
0000
0000
0000
,
0000
0000
0000
0000
,
0000
0000
0000
0000
,
0000
0000
0000
0000
,
0010
0000
0010
0000
1000
0001
0000
1000
,
0010
0000
0100
0001
0000
1000
0001
0000
,
0100
0000
0100
0000
0001
1000
0000
0010
,
0100
0000
0001
1000
0000
0001
1000
0000
,
0002
2003
3020
2030
,
3010
1000
0010
1000
0001
0100
0001
0100
,
0010
1000
0100
0010
0001
0100
0010
0000
,
0010
1000
0010
1000
0001
0100
0001
0100
,
0010
1000
0100
0010
0001
0100
0010
0000
,
0010
1000
0010
1000
0001
0100
0001
0100
,
0010
1000
0100
0010
0001
0100
0010
0000
,
0010
1000
0100
0010
0001
0100
0010
1000
,
0100
0010
0001
1000
0001
1000
0001
0000
,
1000
1000
0001
1000
0010
0100
0010
0000
,
0001
0001
1000
0001
0100
0010
0100
0000
,
0100
0100
1000
0100
1000
0010
1000
0000
,
0001
0001
0100
0001
0010
0001
0010
0000
,
1000
0010
1000
0002
0000
0000
0013
0000
,
0001
0100
0001
2000
0000
0000
3100
0000
,
0011
1100
0011
1100
,
1000
0010
0100
0001
0010
0001
0100
0001
,
1000
0000
0001
0000
0100
0010
1000
0000
,
0020
0130
0200
0310
,
0001
0000
1000
0000
0010
0100
0001
0000
,
0100
0001
1000
0010
0100
0001
1000
0000
,
0001
0000
1000
0000
0010
0100
0001
0000
,
0200
0310
0020
0130
,
0001
0000
1000
0000
0010
0100
0001
0000
,
1000
0010
0100
0010
1000
0001
1000
0000
,
2000
0010
3010
0000
0002
0100
0103
0000
,
0200
0010
0310
0000
0020
1000
1030
0000
,
0011
1010
1100
0011
,
1001
0000
0000
0000
0110
0000
0000
0000
1000
0000
0000
0001
1000
0000
0000
0001
,
2000
0010
3010
0000
0002
0100
0103
0000
,
0200
0010
0310
0000
0020
1000
1030
0000
,
0001
0010
0001
0010
0001
1000
0100
1000
,
2001
3010
0210
0301
,
1000
0100
1000
0000
0010
0001
0010
0000
,
1000
0100
1000
0001
1000
0100
1000
0000
,
0001
0010
0001
0000
1000
0100
1000
0000
,
0001
0010
0001
1000
0001
0010
0001
0000
,
1000
0100
1000
0100
0010
0001
0020
0000
,
0031
1000
0100
0010
0100
1000
0200
0000
,
1300
0001
1000
0100
0010
0001
0020
0000
,
0031
0100
0110
0000
0010
0100
0110
0000
,
1000
0000
0000
1000
0010
0000
0000
0000
0100
0000
0000
0100
0010
0000
0000
0000
,
0010
0000
0000
0010
1000
0000
0000
0000
2000
0000
0000
0000
3001
0000
0000
0000
,
0001
0000
0000
0001
1000
0000
0000
0000
1000
0000
0000
1000
0100
0000
0000
0000
,
0100
0000
0000
0000
0000
0000
0000
0000
0000
0100
0000
0000
1000
0000
0000
0000
0000
0000
0000
0000
0000
0000
0000
0000
1000
0000
0000
0000
0000
0000
0000
0000
0000
0000
0000
0000
0010
0000
0000
0000
0100
0000
0000
0000
0010
0000
0000
0000
,
0100
0000
0000
0100
0001
0000
0000
0000
0001
0000
0000
0001
1000
0000
0000
0000
,
1000
0000
0000
1000
0001
0000
0000
0000
0001
0000
0000
0001
1000
0000
0000
0000
,
0010
0000
0000
0010
0100
0000
0000
0100
0010
0000
0000
0010
0100
0000
0000
0100
,
0020
0000
0130
1001
,
0001
0000
0000
0001
1000
0000
0000
1000
0010
0000
0000
0010
0100
0000
0000
0100
,
0001
0000
0000
0001
0010
0000
0000
0010
0001
0000
0000
0001
0100
0000
0000
0100
,
0001
0000
0000
0001
1000
0000
0000
1000
0010
0000
0000
0010
0100
0000
0000
0100
,
0020
0100
1000
1030
,
0010
0000
0000
0010
1000
0000
0000
1000
0001
0000
0000
0001
0100
0000
0000
0100
,
0010
0000
0000
0010
1000
0000
0000
1000
0001
0000
0000
0001
0100
0000
0000
0100
,
0001
0000
0000
0100
0010
0000
0000
0001
0010
0000
0000
1000
0010
0000
0000
0100
,
0001
0000
0000
0010
0100
0000
0000
1000
0001
0000
0000
0100
0010
0000
0000
0000
,
2000
000M
0000
00M0
0000
000M
0000
00M0
,
0000
0M00
0000
0M00
3020
M000
0000
M000
,
0230
00M0
0000
M0M0
0000
000M
0000
M0M0
,
0302
00M0
0M00
M000
0000
0M00
0000
00M0
,
2003
0000
0M00
000M
0000
0000
00M0
0000
0000
0000
00M0
0000
0000
0000
0M00
0000
,
3020
0M00
0000
M000
0000
M000
0230
M000
,
0302
0M00
0000
00M0
0000
0M00
0000
M000
,
0023
0M0M
0000
M000
0230
M000
0000
00M0
,
1300
0000
0001
0000
0100
0010
1000
0000
,
0020
0130
0200
0310
,
0001
0000
1000
0000
0010
0100
0001
0000
,
0100
0000
0000
0000
0011
0000
0000
0000
0100
0000
0000
0000
0011
0000
0000
0001
,
1000
0000
1000
0000
0010
0100
0001
0000
,
0200
0310
0020
0130
,
0001
0000
1000
0000
0010
0100
0001
0000
,
0010
1100
0010
1100
,
1000
0010
1000
0010
1000
0010
1000
0100
,
0010
0001
0100
0010
1000
0001
0100
0000
,
0010
1000
0010
1000
0001
0100
0001
0100
,
0010
1000
0100
0010
0001
0100
0010
0000
,
0010
1000
0010
1000
0001
0100
0001
0100
,
0010
1000
0100
0010
0001
0100
0010
0000
,
0010
1000
0100
0010
0001
0100
0010
1000
,
0100
0010
0001
1000
0001
1000
0001
0000
,
1000
0001
1000
0010
0100
0001
1000
0010
,
0200
0010
0310
0000
0020
0100
0130
0000
,
0001
1000
0001
0100
0010
1000
0001
0100
,
0020
0100
0130
0000
0200
0010
0310
0000
,
0001
1000
0001
0100
0010
1000
0001
0100
,
0020
0100
0130
0000
0200
0010
0310
0000
,
0001
1000
0010
1000
0010
0100
0001
0100
,
0010
1000
0010
0100
0110
0000
0110
0000
,
2000
0000
3001
0000
,
0002
0000
1003
0000
,
0011
1010
1100
0011
,
1001
0110
1001
0000
;

//--------------- dance-single - C. Foy ----------------
#NOTES:
     dance-single:
     C. Foy:
     Challenge:
     16:
     0.775931,0.874024,0.237184,0.276715,0.395307,687,657,30,35,53,0,0.775931,0.874024,0.237184,0.276715,0.395307,687,657,30,35,53,0:
0000
0000
0000
0000
,
0000
0000
0000
0000
,
0000
0000
0000
0000
,
0000
0000
0000
0000
,
2001
0000
0000
0000
0010
3000
0000
0000
1000
0000
0001
0000
0000
0000
1000
0000
,
0010
0000
0100
0001
0000
1000
0001
0000
,
1002
0000
0000
0000
0100
0003
0000
0000
0001
0000
1000
0000
0000
0000
0010
0000
,
0100
0000
0001
1000
0000
0001
1000
0000
,
1002
0000
0000
0003
0102
0000
0000
0003
2001
0000
0000
3000
2010
0000
0000
0000
,
3010
1000
0001
0100
0010
0100
0001
1000
,
0010
1000
0100
0010
0001
0100
0010
0000
,
0010
1000
0100
0010
0001
0100
0010
1000
,
0010
1000
0100
0010
0001
0100
0010
0000
,
0010
0100
0001
1000
0100
1000
0010
0100
,
0010
1000
0100
0010
0001
0100
0010
0000
,
0010
0100
0010
1000
0100
0010
0001
0100
,
0010
0000
0010
0100
0001
0000
0010
0000
0100
0000
1000
0000
0001
0100
0010
0000
,
1000
1000
0001
0100
1000
0100
0001
0000
,
0001
0001
0010
1000
0010
0001
0001
0000
,
0100
0100
1000
0100
0010
1000
0100
0000
,
1000
1000
0010
0001
0010
1000
0100
0100
,
1000
0010
1000
0002
0000
0000
0013
0000
,
0001
0100
0001
2000
0000
0000
3100
0000
,
0101
0000
1010
0000
0110
0000
1010
0001
,
1000
0000
0010
1000
0001
0000
0001
0000
0010
0000
0001
0000
1000
0001
0100
0010
,
1000
0000
0100
0010
0001
0000
0010
0000
0100
0000
1000
0000
0000
0000
0001
0000
,
0100
0000
0010
1000
0001
0000
1000
0000
0010
0000
0001
0000
0010
0000
1000
0000
,
0100
0000
1000
0001
0010
0000
0001
0000
0100
0000
0010
0000
0000
0000
1000
0000
,
0100
0000
1000
0100
1000
0000
0001
0000
1000
0000
0001
0100
0001
0000
1000
0010
,
1000
0000
0001
0010
0001
0000
0010
0000
0001
0000
0100
0000
0000
0000
0010
0000
,
1000
0000
0100
1000
0001
0000
0100
0000
0010
0000
1000
0000
0001
0000
1000
0010
,
0100
0000
0010
0100
0001
0000
1000
0000
0100
0000
0010
0000
0000
0000
0100
0000
,
1000
0000
0100
1000
0001
0000
0100
0000
0010
0000
1000
0100
1000
0001
0100
0010
,
1000
0100
1000
0010
1000
0100
0010
0001
,
0010
0100
1000
0001
0100
0010
1000
0001
,
1000
0100
1000
0001
0100
0010
0100
0001
,
0100
0000
0010
1000
0001
0000
1000
0000
0001
0000
0010
0100
1000
0000
0001
0100
,
0010
0100
0010
1000
0100
1000
0001
0010
,
0001
0100
0010
1000
0100
0010
0001
0100
,
0010
0100
0010
1000
0100
0010
0001
0010
,
0001
0100
0010
1000
0001
0000
0010
0100
1000
0000
0001
1000
0001
0000
1000
0010
,
0100
0010
1000
0100
1000
0001
0010
0100
,
0010
0001
0100
0010
0100
0010
1000
0100
,
0010
0001
0100
0010
1000
0100
1000
0010
,
1000
0000
0000
1000
0100
0000
1000
0000
0001
0000
1000
0100
1000
0000
0001
1000
,
0001
0100
0010
1000
0100
0010
0001
1000
,
0010
0100
0001
1000
0010
1000
0001
0100
,
0001
0010
0100
0010
0001
0100
0010
1000
,
0001
0000
0000
0001
1000
0000
0000
1000
0001
0000
0100
0000
0010
0000
1000
0001
,
2000
0000
0000
3100
0000
0010
0000
0000
0001
0100
0000
0010
,
0200
0000
0000
0000
0000
0000
0001
0300
0000
0000
0100
0000
0000
0000
0000
0000
0001
0000
0000
0000
0000
0000
0010
0000
,
0002
0000
0000
0000
0000
0000
1000
0003
0000
0000
0100
0000
0000
0000
0000
0000
0100
0000
0010
0000
0000
0000
0010
0000
,
0001
0000
0000
0100
0000
0010
0000
0000
1000
0001
0100
0001
,
1000
0000
0000
0100
0000
0010
0000
0000
0010
0001
0000
0001
,
0200
0000
0000
0310
0000
1000
0000
0000
0100
0000
0000
0010
,
0001
0000
0000
0001
0000
0100
0000
0000
0100
1000
0000
0000
,
1100
0110
0011
1010
,
1000
0000
0000
0001
1000
0000
0000
1000
0010
0000
0000
0010
0001
0000
0000
0001
,
0010
0000
0000
0010
1000
0000
0000
1000
0100
0000
0000
0100
0001
0000
0000
0001
,
0100
0000
0000
0010
0001
0000
0000
0100
1000
0000
0000
1000
0100
0000
0000
0100
,
0020
0000
0000
0000
0100
0000
0000
0000
0001
0000
0000
0000
1000
0030
0000
0000
,
0010
0000
0000
0010
1000
0000
0000
0001
0100
0000
0000
0010
0100
0000
0000
0010
,
1000
0000
0000
0100
0010
0000
0000
0001
0100
0000
0000
0010
1000
0000
0000
0100
,
1000
0000
0000
0100
0010
0000
0000
0001
0010
0000
0000
0100
1000
0000
0000
0010
,
0001
0000
0000
0010
1000
0000
0000
0100
0010
0000
0000
0001
1000
0000
0000
0000
,
2M10
000M
0000
00M0
0000
000M
0000
00M0
,
0000
0000
0M00
0000
0000
0000
0M00
3000
0120
0000
M00M
0000
0000
0M00
M00M
0030
,
0201
0000
00M0
0000
0000
0000
M00M
0000
0000
0000
00M0
0000
0000
0000
M00M
0300
,
10M2
0000
0000
0M00
0000
0000
M000
0000
0000
0000
0M00
0000
0000
0000
00M0
0003
,
2010
0000
0M00
000M
0000
0000
00M0
0000
0000
0000
00M0
0000
0000
0000
0M00
3000
,
012M
0000
000M
0000
M000
0000
0M00
0000
0000
0000
M000
0000
023M
0000
M000
0300
,
10M2
0000
0M00
0000
0000
0000
M0M0
0000
0000
0000
0M00
0000
0000
0000
M000
0003
,
1020
0000
0M0M
0000
0000
0000
M000
0030
0201
0000
M000
0000
0000
0000
00M0
0000
,
M31M
0000
0010
0000
0100
0010
1000
0000
,
0020
0130
0200
0310
,
1000
0000
0001
0000
0010
0100
1000
0000
,
0100
0000
0000
0000
1010
0000
0000
0000
0100
0000
0000
0000
0101
0000
0000
0001
,
1000
0000
0100
0000
0010
0100
0001
0000
,
0200
0310
0020
0031
,
0001
0000
1000
0000
0010
0100
0001
0000
,
0010
0000
0000
0000
0101
0000
0000
0000
0100
0000
0001
1000
0010
0000
1000
0100
,
1000
0010
1000
0001
0100
0010
1000
0100
,
0010
0001
0100
0010
1000
0001
0100
0100
,
0010
1000
0010
0100
0001
0010
0100
1000
,
0010
0000
1000
0000
0100
0000
0010
0000
0001
0000
0100
0000
0010
0000
0000
0010
,
1000
0001
0010
0100
1000
0100
0010
0001
,
0100
0010
0100
0001
0100
0010
1000
1000
,
0010
1000
0010
1000
0001
0100
0010
1000
,
0100
0000
0010
0000
0001
0000
1000
0000
0001
0000
0100
0010
1000
0000
0010
0100
,
0001
1000
0001
0100
0010
1000
0001
0100
,
0200
0010
0310
0000
0020
0100
0130
0000
,
0001
1000
0001
0100
0010
1000
0001
0100
,
0020
0000
0100
0000
0130
0000
0000
0000
0200
0000
0010
0000
0310
0000
0000
1000
,
0001
1000
0001
0100
0010
1000
0001
0100
,
0020
0100
0130
0000
0200
0010
0310
0000
,
0010
1000
0100
0010
0001
0100
0010
1000
,
0001
0000
1000
0000
0010
0000
0100
0000
0110
0000
0010
1000
0001
0000
1000
0010
,
2000
0000
3MMM
0001
,
0002
0000
0000
0000
0000
0000
0000
0000
1MM3
0001
1000
0010
1000
0001
1000
0100
,
1000
0000
0000
0010
1000
0000
0000
0000
1100
0000
0000
1000
0001
0000
0000
0000
,
1010
0000
0000
0001
1000
0000
0000
0000
1001
0000
0000
0000
0000
0000
0000
0000
;

//--------------- dance-double - M. Emirzian ----------------
#NOTES:
     dance-double:
     M. Emirzian:
     Easy:
     5:
     0.360294,0.47674,0.134404,0.126498,0,319,302,17,16,0,0,0.360294,0.47674,0.134404,0.126498,0,319,302,17,16,0,0:
00000000
00000000
00000000
00000000
,
00000000
00000000
00000000
00000000
,
00000000
00000000
00000000
00000000
,
00000000
00000000
00000000
00000000
,
10000000
00010000
10000000
00000000
,
00010000
00000000
00100000
00001000
,
00100000
00000000
00001000
00000000
,
00010000
00000100
00010000
00000000
,
00000100
00000000
00001010
00000000
,
00001100
00000000
00000010
00000001
,
00001000
00000000
00000220
00000330
,
00000100
00000000
00000010
00010000
,
00001000
00000000
02020000
03030000
,
00010000
00000000
10000000
00010000
,
01000000
00000000
20200000
30300000
,
10000000
00000000
00010000
01000000
,
00001000
00000000
00010000
00010000
,
00010000
00000000
00002200
00003300
,
00001000
00000001
00000100
00000000
,
00000010
00000000
00022000
00033000
,
00001000
01000000
00010000
00000000
,
10000000
00000000
00220000
00330000
,
01000000
00100000
00001000
00000000
,
00010000
00000100
00001000
00000000
,
00000000
00000010
00000010
00000010
,
00000100
00000001
00000100
00000010
,
00000100
00000001
00000100
00000010
,
00001000
00000001
00001000
00000100
,
00001000
00000001
00001000
00000100
,
00010000
00001000
00100000
00001000
,
00010000
00001000
01000000
00001000
,
00010000
00100000
01000000
00100000
,
10000000
10010000
10010000
10010000
,
10000000
01000000
01000000
01000000
,
00100000
00100000
00100000
00001000
,
00001000
00001000
00010000
00010000
,
00010000
00000100
00000100
00000100
,
00001100
00000010
00000010
00000010
,
00000001
00000001
00000001
00000100
,
00000100
00000100
00000010
00000010
,
00000010
00010000
00010000
00010000
,
00011000
00100000
00100000
00100000
,
10000000
10000000
10000000
00010000
,
00010000
00010000
01000000
01000000
,
01000000
00001000
00001000
00001000
,
00010000
00010000
00010000
00000010
,
00000010
00000010
00001000
00001000
,
00001000
00000100
00000100
00000100
,
00000010
00000010
00001001
00001001
,
00001001
00000000
00001000
00000000
,
00000001
00010000
00001000
00000000
,
10000000
00000000
00010000
00000000
,
10000000
00001000
00010000
00000000
,
00000001
00000000
00001000
00000000
,
00000001
00010000
00001000
00000000
,
00010000
00001000
00010000
00001000
,
01000000
00010000
01000000
00100000
,
10000000
01000000
01000000
00100000
,
00002000
00000000
00013000
00001000
,
00010000
00000100
00000100
00001000
,
00000020
00000000
00000130
00000001
,
00000100
00000010
00000010
00000100
,
00002000
00000000
00013000
00001000
,
00010000
00001000
00001000
01000000
,
00200000
00000000
10300000
01000000
,
10000000
00000000
00000000
00000000
,
01000000
00000000
00000000
00000000
,
00010000
00000000
00000000
00000000
,
00001000
00000000
00000000
00000000
,
00000100
00000000
00000000
00000000
,
00000001
00000000
00000000
00000000
,
00000010
00000000
00000000
00000000
,
00001000
00000000
00010000
00001000
,
00010000
00001000
01000000
00010000
,
01000000
00010000
01000000
00100000
,
10000000
00100000
10000000
01000000
,
10000000
00010000
10000000
01000000
,
00100000
01000000
10000000
01000000
,
00100000
01000000
10000000
00010000
,
01000000
00001000
00010000
00000100
,
00001000
00000010
00000010
00000010
,
00000100
00000001
00000100
00000000
,
00000010
00001000
00000100
00000000
,
00010000
00001000
00100000
00000000
,
00001000
00010000
00000100
00000000
,
00010000
00001000
01000000
00000000
,
00010000
01000000
00100000
00000000
,
10000000
01000000
00100000
00001000
,
00010000
00000100
00001000
00000010
,
00000100
00000100
00000100
00000000
,
00000001
00000000
00000010
00000000
,
00000100
00000100
00000100
00000000
,
00010000
00000000
00001000
00000000
,
01000000
01000000
01000000
00000000
,
00100000
00000000
10000000
00000000
,
01000000
01000000
01000000
00000000
,
00100000
00000000
00001000
00000000
,
00010000
00000000
00000100
00000000
,
00001000
00000010
00000100
00000000
,
00000001
00000100
00001000
00010000
,
01000000
10000000
10010000
00000000
;

//--------------- dance-double - M. Emirzian ----------------
#NOTES:
     dance-double:
     M. Emirzian:
     Medium:
     7:
     0.484533,0.71511,0.490181,0.094874,0,429,367,62,12,0,0,0.484533,0.71511,0.490181,0.094874,0,429,367,62,12,0,0:
00000000
00000000
00000000
00000000
,
00000000
00000000
00000000
00000000
,
00000000
00000000
00000000
00000000
,
00000000
00000000
00000000
00000000
,
10000000
00000000
00010000
00000000
00000000
10000000
00000000
00000000
,
00010000
00000000
00000000
01000000
00000000
00001000
00000000
00000000
,
00010000
00000000
00001000
00000000
00000000
00010000
00000000
00000000
,
00000100
00000000
00000000
00001000
00000000
00000010
00000000
00000000
,
00000100
00001001
00010010
00001100
,
00000010
00000001
00000100
00000010
,
00001000
00000100
00000000
00010000
00000000
00000000
00000000
00000000
,
00001000
01000000
00010000
00100000
,
01000000
10000000
00000000
00010000
00000000
00000000
00000000
00000000
,
10000000
00010000
01000000
00001000
,
00010000
00000100
00000000
00001000
00000000
00000000
00000000
00000000
,
00000001
00000100
00000010
00001000
,
00000100
00010000
00001000
00100000
00001000
00010000
00000100
00000000
,
00010000
00001000
01000000
00100000
,
10000000
00010000
00000000
01000000
00000000
00000000
00000000
00000000
,
00100000
10000000
00010000
01000000
,
00001000
00010000
00000000
00000100
00000000
00000000
00000000
00000000
,
00000010
00000001
00000100
00000010
,
00010000
00001000
01000000
00000000
00001000
00000000
00010000
00000000
,
00001000
00100000
00010000
00000000
01000000
00000000
00001000
00000000
,
00010000
00001000
01000000
00001000
00010000
00000100
00010000
00000000
,
00001000
00010000
00010000
00010000
,
00100000
10000000
10010000
10010000
,
01000000
00100000
00100000
00100000
,
00001000
00001000
00011000
00011000
,
00010000
00000100
00000100
00001000
,
00000010
00000010
00000100
00000100
,
00000001
00000010
00001000
00010000
,
00100000
10010000
10010000
10010000
,
01000000
01000000
01000000
00110000
,
01010000
00001000
00010000
00000100
,
00001000
00001010
00001100
00000010
,
00000010
00000010
00000011
00000101
,
00000010
00010000
00001000
00100000
,
00110000
01010000
00100000
10100000
,
11000000
11000000
01010000
11000000
,
01010000
00011000
00011000
00010100
,
00001000
00001000
00001000
00001010
,
00001100
00000010
00000001
00000100
,
00000010
00001010
00010010
00001000
,
00010000
00001000
01000000
01010000
,
00110000
01000000
01000000
01000000
,
11000000
10100000
01000000
01001000
,
00011000
00010010
00001010
00000011
,
00001010
00000011
00001010
00001100
,
00010000
00000000
00001000
00000000
00010000
00000000
00000000
00010000
,
00001000
10000000
01000000
00000000
,
10000000
00000000
00010000
00000000
00100000
00000000
00000000
00001000
,
00010000
00000001
00000100
00000000
,
00000010
00000000
00000100
00000000
00000001
00000000
00000000
00010000
,
00001000
10000000
01000000
00100000
,
00011000
00011000
00010100
00010100
,
00001100
00001100
00001001
00000000
,
00000100
00000000
00000010
00000000
00000100
00000000
00000000
00001000
,
00010000
00010000
00001000
00010000
,
01000000
00000000
10000000
00000000
00100000
00000000
00000000
01000000
,
00010000
00100000
00100000
01000000
,
00010000
00000000
00001000
00000000
00010000
00000000
00000000
00000100
,
00001000
00000010
00000010
00000100
,
00000001
00000100
00001000
00010000
,
01000000
10000000
00010000
10000000
,
10010000
00000000
02000000
03000000
,
00200000
00300000
00002000
00003000
,
00020000
00030000
00000200
00000300
,
00000020
00000030
00000002
00000003
,
00000200
00000300
00000020
00000030
,
00020000
00030000
00002000
00003000
,
02000000
00000000
00000000
00000000
,
03010000
00000000
01000000
00000000
,
00100000
10000000
01000000
00100000
,
00001000
00010000
00000100
00010000
,
00001000
00100000
00001000
00010000
,
00000100
00001100
00001100
00000010
,
00000001
00000100
00000010
00010000
,
00000100
00001000
00000100
00010000
,
00001000
01000000
00010000
00100000
,
01000000
10000000
00010000
10010000
,
10010000
10000000
00010000
01000000
,
00001000
00000000
00010000
00000100
00001000
00000000
00000000
00000000
,
00001001
00000010
00000100
00000001
,
00001000
00000000
00000100
00010000
00001000
00000000
00000000
00000000
,
00101000
00001000
01000000
00100000
,
10000000
00000000
00010000
01000000
00100000
00000000
00000000
00000000
,
10010000
10000000
01000000
00100000
,
00001000
00000000
00010000
00000010
00001000
00000000
00000000
00000000
,
00000001
00000100
00000010
00000100
,
00000001
00000100
00000100
00001000
,
00010000
00000100
00010000
00001000
,
00100000
00010000
00010000
01000000
,
00100000
10000000
00010000
10000000
,
01000000
00100000
00100000
00001000
,
00010000
00000100
00010000
00001000
,
00010000
00000010
00000010
00000100
,
00000001
00000100
00000010
00000100
,
00000001
00000100
00000000
00000010
00010000
00000000
00001000
00000000
,
01000000
00010000
10000000
00100000
,
00110000
01010000
01001000
00000000
;

//--------------- dance-double - M. Emirzian ----------------
#NOTES:
     dance-double:
     M. Emirzian:
     Hard:
     9:
     0.660727,0.71511,0.830145,0.252996,0.063249,585,480,105,32,0,0,0.660727,0.71511,0.830145,0.252996,0.063249,585,480,105,32,0,0:
00000000
00000000
00000000
00000000
,
00000000
00000000
00000000
00000000
,
00000000
00000000
00000000
00000000
,
00000000
00000000
00000000
00000000
,
10000000
00000000
00010000
00000000
01000000
00100000
00000000
01000000
,
00100000
00000000
00010000
00001000
00000000
00010000
00000000
00000010
,
00001000
00000000
00000100
00000000
00000010
00000100
00000000
00000010
,
00000100
00000000
00010000
00001000
00000000
00010000
00000000
00001000
,
00011000
01001000
10010000
01100000
,
21000000
00000000
31000000
00000000
00100000
00001000
00010000
00000000
,
00001000
00100000
00001000
00010000
00000100
00000000
00001000
00000000
,
00000120
00000000
00000130
00000000
00000001
00001000
00000100
00000000
,
00000010
00000001
00001000
00000100
00010000
00000000
00001000
00000000
,
02010000
00000000
03010000
00000000
10000000
01000000
00100000
00000000
,
00010000
01000000
00001000
00010000
00000010
00000000
00000100
00000000
,
00000012
00000000
00000013
00000000
00000100
00001000
00000010
00000000
,
00010000
00001000
00100000
00001000
00010000
00000100
00001000
00000100
,
00020000
00000000
00031000
00000000
01000000
00010000
10000000
00000000
,
01000000
00000000
00100000
00010000
10000000
00000000
01000000
00000000
,
00210000
00000000
00301000
00010000
00000100
00000000
00001000
00000000
,
00000010
00000100
00000001
00001000
00000100
00000000
00010000
00001000
,
00012000
00000000
01003000
00010000
10000000
00000000
01000000
00000000
,
00100000
00001000
00010000
00000100
00000000
00010000
00000000
00001000
,
00100000
00010000
00100000
00001000
00000000
00010000
00000000
00000100
,
00001000
00000001
00001000
00000100
00010000
00001000
01000000
00100000
,
10000000
01000000
00100000
00010000
,
01000000
00001000
00011000
00010010
,
00001000
00000100
00000010
00000001
,
00001001
00000000
00000110
00000000
00000100
00001000
00010000
00001000
,
00100000
01000000
10000000
00000000
00010000
00000000
10000000
00000000
,
00110000
00101000
00010000
00000100
,
00001001
00000000
00000110
00000000
00000101
00000000
00000001
00000100
,
00000010
00001000
00000100
00010000
00001000
01000000
00100000
00000000
,
11000000
01010000
11000000
01010000
,
00101000
01001000
00011000
00010010
,
00010100
00001001
00000110
00010010
,
00011000
10010000
01001000
00110000
,
01001000
00011000
00010010
00001100
,
00000011
00010100
00011000
10100000
,
01010000
00010100
00001001
00000110
,
00001000
00000001
00000100
00000010
00000100
00001000
00010000
00000000
,
01001000
00110000
11000000
01100000
,
00101000
01010000
00101000
00010100
,
00001010
00001001
00010010
00101000
,
01001000
00010100
01001000
00110000
,
10100000
00110000
01001000
00110000
,
00101000
00010100
00001001
00000110
,
00001001
00000000
00011000
00000000
10010000
00000000
10000000
00100000
,
01000000
00001000
00010000
00000100
00001000
00000010
00000100
00000001
,
00000020
00000000
00000000
00000130
00000000
00010000
00000000
00000000
00001000
01000000
00000000
00010000
,
01000000
00000000
00000000
00200000
00000000
10000000
00300000
00000000
00100000
00000000
00000000
00100000
,
20000000
00000000
00000000
31000000
00000000
00100000
00000000
00000000
00001000
00010000
00000000
00000010
,
00002000
00000000
00000000
00003100
00000000
00000010
00000000
00000000
00000010
00000002
00000000
00000000
,
00000103
00000110
00010020
00001030
,
00201000
00310000
01200000
10300000
,
10010000
01100000
10010000
00101000
,
00010010
00000000
00000010
00000000
00000100
00000001
00000010
00000100
,
00002000
00003010
00010000
00001000
,
00100000
00001000
00010000
00000000
00000100
00010000
00001000
00000000
,
02000000
03010000
10000000
01000000
,
00100000
00001000
00010000
00000000
00000100
00010000
00001000
00000000
,
00020000
00030100
00000010
00000001
,
00000100
00000010
00010000
00000000
00001000
00010000
00000100
00000000
,
00020000
00031000
01000000
00010000
,
10000000
01000000
00100000
00001000
00010000
00000010
00001000
00000100
,
00000010
00000001
00000000
00000200
00000000
00000000
00000300
00000000
,
00000010
00010000
00000000
00001000
00000000
00000000
01000000
00000000
,
00010000
10000000
00000000
00200000
00000000
00000000
00300000
00000000
,
01000000
00001000
00000000
00020000
00000000
00000000
00030010
00000000
,
00000100
00000001
00000000
00000020
00000000
00000000
00000030
00000000
,
00000100
00001000
00000000
00000020
00000000
00000000
00000030
00000000
,
00010000
00001000
00000000
02000000
00000000
00000000
03100000
00000000
,
10000000
00010000
00000000
00200000
00000000
00000000
00300000
00000000
,
10010000
00100000
10000000
01010000
,
00100000
00001000
00010000
00000000
00000100
00000000
00000110
00000000
,
00000020
00000000
00000031
00000000
00000100
00000000
00000010
00001000
,
00000100
00000000
00000000
00000000
00010000
00000000
00001000
00000000
01000000
00000000
00010000
00000000
00100000
00000000
00000000
00100000
,
02000000
00000000
13000000
00000000
10010000
00000000
00010000
01000000
,
00100000
10000000
10010000
01000000
,
00010000
00010000
00001000
00001000
,
00000010
00000000
00000000
00000000
00000010
00000000
00000000
00000000
00000001
00000000
00000000
00001000
00000001
00000000
00000000
00001000
,
00000100
00010000
00010000
00010100
,
00001000
00000010
00000100
00000000
00000001
00000100
00000010
00000000
,
00010010
00001000
00001000
00011000
,
00001000
00000000
01000000
00000000
00010000
00000000
00000000
00000000
10000000
00000000
00100000
00000000
01000000
00000000
00000000
00010000
,
10000000
00010000
01010000
00101000
,
00010000
00000100
00001000
00000000
00000010
00001000
00000001
00000000
,
00001010
00000100
00001001
00010100
,
00010000
00001000
01000000
00010000
10000000
01000000
00100000
00010000
,
02000000
00000000
03100000
10000000
01000000
00000000
01000000
00100000
,
00001000
00001000
00010000
00010100
,
00002000
00000000
00003010
00000100
00000001
00000000
00000001
00000100
,
00000010
00000000
00000000
00000000
00000010
00000000
00000000
00000000
00010000
00000000
00000000
00000000
00001000
00000000
00000000
00001000
,
02000000
00000000
03010000
00100000
01000000
00000000
01000000
10000000
,
00100000
01000000
00011000
00010000
,
00000200
00000000
00000310
00000001
00001000
00000000
00001000
00000010
,
00000100
00000001
00001001
00000110
,
00010000
00001000
00000000
01000000
00000000
00000000
10010000
00000000
,
00100000
00001000
00010000
00000010
00010000
00001000
01000000
00001000
,
00010000
00001001
00010010
00011000
,
01001000
01000000
00100000
00000000
;

//--------------- dance-double - M. Emirzian ----------------
#NOTES:
     dance-double:
     M. Emirzian:
     Challenge:
     9:
     0.703646,0.71511,0.59296,0.110686,0.241137,623,548,75,14,3,2,0.703646,0.71511,0.59296,0.110686,0.241137,623,548,75,14,3,2:
00000000
00000000
00000000
00000000
,
00000000
00000000
00000000
00000000
,
00000000
00000000
00000000
00000000
,
00000000
00000000
00000000
00000000
,
00100000
00000000
00001000
00000000
01000000
00010000
00000000
00100000
,
01000000
00000000
10000000
00010000
00000000
01000000
00000000
00001000
,
00010000
00000000
00000010
00000000
00001000
00000100
00000000
00000010
,
00000001
00000000
00000100
00000010
00000000
00010000
00000000
00000100
,
00010100
00101000
01010000
11000000
,
10000000
00100000
01000000
00001000
00100000
00010000
01000000
00000000
,
00001000
00010000
00000010
00010000
00001000
00000000
00010010
00000000
,
00001000
00000100
00000010
00000001
00001000
00000010
00010000
00000000
,
00000100
00010000
00001000
01000000
00010000
00000000
10010000
00000000
,
00100000
01000000
10000000
00100000
01000000
00001000
01000000
00000000
,
00001000
00010000
00000010
00010000
00001000
00000000
00010100
00000000
,
00001000
00000010
00000100
00000001
00000010
00000100
00010000
00001000
,
01000000
00000000
00010000
10000000
00000000
00000000
00100000
00000000
01000000
00000000
00010000
00000000
00100000
00000000
00000000
00000000
,
01000000
10000000
00100000
01000000
00010000
01000000
00001000
00000000
,
00010000
00000010
00010000
00001000
00100000
00000000
00011000
00000000
,
00000100
00000010
00000001
00001000
00000010
00010000
00001000
00000000
,
01000000
00010000
01000000
00001000
00010000
00000000
01100000
00000000
,
00010000
01000000
00100000
10000000
01000000
00100000
00001000
00000000
,
00010000
00000010
00010000
00000100
00001000
00000010
00000100
00000000
,
00000001
00001000
00000010
00000100
00000001
00000010
00000100
00010000
,
00001000
00000000
01000000
00010000
00000000
00000000
00100000
00000000
01000000
00000000
10000000
00000000
00010000
00000000
00000000
00000000
,
01000000
00000000
00000000
01000000
00100000
00000000
00000000
00100000
10000000
00000000
00000000
10000000
01000000
00000000
00100000
00000000
,
00010000
00000000
00000000
00010000
00100000
00000000
00000000
00100000
00001000
00000000
00010000
00000000
00001000
00000000
00000000
00000000
,
00001000
00000000
00000000
00001000
00010000
00000000
00000000
00010000
00000100
00000000
00000000
00000100
00001000
00000000
00000100
00000000
,
00000010
00000000
00000000
00000010
00000001
00000000
00000000
00000001
00000100
00000000
00000010
00000000
00010000
00000000
00000000
00000000
,
00010000
00000000
00000000
00010000
00001000
00000000
00000000
00001000
01000000
00000000
00000000
01000000
00010000
00000000
01000000
00000000
,
00100000
00000000
00000000
00100000
10000000
00000000
00000000
10000000
01000000
00000000
00100000
00000000
00010000
00000000
00000000
00000000
,
00010000
00000000
00000000
00010000
01000000
00000000
00000000
01000000
00001000
00000000
00000000
00001000
00010000
00000000
00001000
00000000
,
00100000
00000000
00000000
00100000
00001000
00000000
00000000
00001000
00010000
00000000
00000010
00000000
00001000
00000000
00000010
00000000
,
00001001
00010100
00001010
00010100
,
00000110
00000000
00011000
00000000
01100000
00000000
01001000
01000000
,
00100000
10000000
01000000
00100000
00001000
00010000
00000010
00010000
,
00001000
00000000
01000000
00000000
00001000
00000000
00010000
00000000
00000010
00000000
00000000
00000100
00000001
00000000
00000000
00000001
,
00000010
00000110
00010100
00101000
,
10010000
00101000
00010100
00001001
,
00010100
00010000
00001000
01000000
00100000
10000000
00010000
01000000
,
00001000
00010000
00000010
00010000
00001000
00100000
00001000
00000000
,
01010000
00101000
00010010
00001001
,
00000110
00000000
00010100
00000000
00011000
00000000
10010000
10000000
,
01000000
00100000
00001000
00010000
00000010
00010000
00000100
00001000
,
00000001
00000000
00000010
00000000
00000100
00000000
00001000
00000000
00000010
00000000
00000000
00001000
00000100
00000000
00000000
00000100
,
00000010
00001001
00011000
10010000
,
01001000
00000000
00101000
00000000
00010100
00000000
01001000
01000000
,
00100000
10000000
01000000
00100000
00001000
01000000
00001000
00010000
,
00000010
00000000
00000000
00010000
00001000
00000000
00000000
00010000
00000100
00000000
00000010
00000000
00000001
00000000
00000100
00000000
,
00000010
00000000
00000000
00001000
00000000
00000100
00000000
00000000
00000100
00010000
00000000
00001000
,
00010000
00000000
00000000
00001000
00000000
01000000
00000000
00000000
00100000
00000000
00000000
10000000
,
01000000
00000000
00000000
00100000
00000000
00010000
00000000
00000000
00010000
00100000
00000000
00001000
,
00010000
00000000
00000000
00000100
00000000
00001000
00000000
00000000
00000010
00000100
00000000
00000000
,
00001001
00000010
00001100
00010000
,
00011000
00000100
00011000
00100000
,
01001000
10100000
11000000
00101000
,
00011000
00010000
00000100
00001000
00000010
00000100
00000001
00000000
,
00000010
00000000
00000000
00000000
00000100
00000000
00000000
00010000
00001000
00000000
00000000
00000000
01000000
00000000
00000000
00100000
,
10000000
00000000
00000000
00010000
01000000
00000000
00000000
00100000
10000000
00000000
00000000
01000000
00100000
00000000
00000000
00000000
,
00110000
00000000
00000000
00000000
00001000
00000000
00000000
00010000
00000100
00000000
00000000
00000000
00001000
00000000
00000000
00000010
,
00000100
00000000
00000000
00000001
00001000
00000000
00000000
00000100
00000010
00000000
00000000
00000001
00001000
00000000
00000000
00000000
,
00000010
00000000
00000000
00000000
00001010
00000000
00000000
00001000
00000010
00000000
00000000
00000000
00011000
00000000
00000000
00010000
,
00001000
00000000
00000000
00000000
01001000
00000000
00000000
01000000
00001000
00000000
00000000
00000000
00110000
00000000
00000000
00000000
,
01000000
10100000
01000000
00101000
,
00001000
01000000
00010000
01000000
00001000
00010000
00000010
00000000
,
00002000
00000000
00003200
0000M000
,
00000310
00000001
00000000
00001001
00000000
00000000
00010010
00000000
,
00020000
00000000
00032000
000M0000
,
01003000
00100000
00000000
10010000
00000000
00000000
20000000
00000000
,
02000000
00000000
00000000
00000000
00010000
33000000
00000000
00000000
,
00010000
00001000
00000200
00000000
,
00000002
00000000
00000000
00000000
00000010
00000303
00000000
00000000
,
00000010
00000100
00020000
00000000
,
00032000
001M0000
00100000
00103000
,
00010000
01000000
00100000
00000000
10000000
00000000
01100000
00000000
,
00100000
00000000
00010000
00000000
01000000
00000000
00001000
00010000
,
00000010
00000000
00000000
00000000
00010000
00000000
00001000
00000000
00010000
00000000
00000100
00000000
00001000
00000000
00000000
00000100
,
00000020
00000001
00000001
00000031
,
00000100
00000010
00010000
00000000
00001000
00000000
01001000
00000000
,
00010000
00000000
10000000
00000000
00100000
00000000
01000000
00100000
,
10000000
00000000
00000000
00000000
01000000
00000000
00100000
00000000
00010000
00000000
00000000
00100000
00001000
00000000
00000000
00010000
,
00001000
00000000
00010000
00000100
00001000
00000000
00000010
00000100
,
00000001
00000010
00000100
00001001
,
00000100
00000000
00000010
00010000
00001000
00000000
01000000
00010000
,
00100000
00000000
00000000
00000000
01000000
00000000
00000000
00000000
10000000
00000000
00000000
00000000
10010000
00000000
00000000
10000000
,
00100000
00000000
01000000
00001000
00010000
00000000
00001000
00010000
,
00000010
00001000
00000100
00001001
,
00000010
00000000
00000100
00001000
00000010
00000000
00010000
00001000
,
01000000
00000000
00000000
00000000
00100000
00000000
00000000
00000000
01000000
00000000
00000000
00001000
00010000
00000000
00000000
00001000
,
00100000
00000000
01000000
10000000
00100000
00000000
01000000
00001000
,
00010000
00000010
00001010
00010010
,
00001000
00000000
00010000
00000100
00001000
00000000
00000010
00001000
,
00000100
00000000
00000000
00000000
00000010
00000000
00000000
00000000
00000011
00000000
00000000
00000000
00001001
00000000
00000000
00001000
,
00000010
00000000
00010000
00001000
01000000
00000000
00001000
00100000
,
00010000
01000000
10100000
01010000
,
00100000
00000000
01000000
10000000
00100000
00000000
01000000
00001000
,
00010000
00000000
00000000
00000000
00000100
00000000
00000000
00000000
00000010
00000000
00000000
00000001
00001000
00000000
00000000
00001000
,
00000010
00002000
00000000
00000200
00003000
00000000
00010300
00000000
,
00001000
02000000
00000000
03100000
10000000
01000000
00100000
00000000
,
00101000
00010010
01001000
00010100
,
00000110
00000001
00000100
00000000
;

//--------------- lights-cabinet - ----------------
#NOTES:
     lights-cabinet:
     :
     Easy:
     1:
     0.773672,1.112394,0.55343,0.339964,0.181841,685,576,70,43,0,24,0.773672,1.112394,0.55343,0.339964,0.181841,685,576,70,43,0,24:
000000
000000
000000
000000
,
000000
000000
000000
000000
,
001000
000000
001000
000000
100000
000100
000000
100000
,
001000
000000
010000
000100
000000
100000
000100
000000
,
211200
000000
311300
000000
100000
000100
000000
100000
,
001000
000000
010000
000100
000000
100000
000100
000000
,
122100
000000
033000
000000
100100
011000
000000
001000
,
010000
000000
000100
100000
000000
000100
100000
000000
,
100100
011000
100100
011000
,
001000
100000
001000
100000
000100
010000
000100
010000
,
001000
100000
010000
001000
000100
010000
001000
000000
,
001000
100000
001000
100000
000100
010000
000100
010000
,
001000
100000
010000
001000
000100
010000
001000
000000
,
001000
100000
001000
100000
000100
010000
000100
010000
,
001000
100000
010000
001000
000100
010000
001000
000000
,
001000
100000
010000
001000
000100
010000
001000
100000
,
010000
001000
000100
100000
000100
100000
000100
000000
,
100000
100000
000100
100000
001000
010000
001000
000000
,
000100
000100
100000
000100
010000
001000
010000
000000
,
010000
010000
100000
010000
100000
001000
100000
000000
,
000100
000100
010000
000100
001000
000100
001000
000000
,
100000
001000
100000
000100
010000
000000
001000
000000
,
000100
010000
000100
100000
001000
000000
010000
000000
,
001100
110000
001100
110000
,
100000
001000
010000
000100
001000
000100
010000
000100
,
111100
111100
222200
333300
,
111100
111100
222200
333300
,
111100
111100
222200
333300
,
111100
111100
222200
333300
,
100100
011000
200200
311300
,
011000
100100
022000
133100
,
100100
011000
100100
011000
,
100100
001000
010000
001000
100000
000100
100000
000000
,
200000
001000
301000
000000
000200
010000
010300
000000
,
020000
001000
031000
000000
002000
100000
103000
000000
,
001100
101000
110000
001100
,
100100
000000
000000
000000
011000
000000
000000
000000
100000
000000
000000
000100
100000
000000
000000
000100
,
200000
001000
301000
000000
000200
010000
010300
000000
,
020000
001000
031000
000000
002000
100000
103000
000000
,
000100
001000
000100
001000
000100
100000
010000
100000
,
200100
301000
021000
030100
,
100000
010000
100000
000000
001000
000100
001000
000000
,
100000
010000
100000
000100
100000
010000
100000
000000
,
000100
001000
000100
000000
100000
010000
100000
000000
,
000100
001000
000100
100000
000100
001000
000100
000000
,
100000
010000
100000
010000
001000
000100
002000
000000
,
003100
100000
010000
001000
010000
100000
020000
000000
,
130000
000100
100000
010000
001000
000100
002000
000000
,
003100
010000
011000
000000
001000
010000
011000
000000
,
100000
000000
000000
100000
001000
000000
000000
000000
010000
000000
000000
010000
001000
000000
000000
000000
,
001000
000000
000000
001000
100000
000000
000000
000000
200000
000000
000000
000000
300100
000000
000000
000000
,
000100
000000
000000
000100
100000
000000
000000
000000
100000
000000
000000
100000
010000
000000
000000
000000
,
010000
000000
000000
000000
000000
000000
000000
000000
000000
010000
000000
000000
100000
000000
000000
000000
000000
000000
000000
000000
000000
000000
000000
000000
100000
000000
000000
000000
000000
000000
000000
000000
000000
000000
000000
000000
001000
000000
000000
000000
010000
000000
000000
000000
001000
000000
000000
000000
,
010000
000000
000000
010000
000100
000000
000000
000000
000100
000000
000000
000100
100000
000000
000000
000000
,
100000
000000
000000
100000
000100
000000
000000
000000
000100
000000
000000
000100
100000
000000
000000
000000
,
001000
000000
000000
001000
010000
000000
000000
010000
001000
000000
000000
001000
010000
000000
000000
010000
,
002000
000000
013000
100100
,
000100
000000
000000
000100
100000
000000
000000
100000
001000
000000
000000
001000
010000
000000
000000
010000
,
000100
000000
000000
000100
001000
000000
000000
001000
000100
000000
000000
000100
010000
000000
000000
010000
,
000100
000000
000000
000100
100000
000000
000000
100000
001000
000000
000000
001000
010000
000000
000000
010000
,
001000
010100
111000
111100
,
001000
000000
000000
001000
100000
000000
000000
100000
000100
000000
000000
000100
010000
000000
000000
010000
,
001000
000000
000000
001000
100000
000000
000000
100000
000100
000000
000000
000100
010000
000000
000000
010000
,
000100
000000
000000
010000
001000
000000
000000
000100
001000
000000
000000
100000
001000
000000
000000
010000
,
000100
000000
000000
001000
010000
000000
000000
100000
000100
000000
000000
010000
001000
000000
000000
000000
,
100000
001000
010000
000100
,
100000
000100
010000
001000
,
100000
001000
010000
000100
,
100000
000100
010000
000100
,
010000
001000
100000
000100
,
010000
000100
100000
001000
,
100000
001000
010000
000100
,
100000
001000
010000
000100
,
100000
000000
000100
000000
010000
001000
100000
000000
,
001000
010000
010000
001000
,
000100
000000
100000
000000
001000
010000
000100
000000
,
010000
000000
000000
000000
001100
000000
000000
000000
010000
000000
000000
000000
001100
000000
000000
000100
,
100000
000000
100000
000000
001000
010000
000100
000000
,
010000
001000
001000
010000
,
000100
000000
100000
000000
001000
010000
000100
000000
,
111100
111100
222200
333300
,
100000
001000
100000
001000
100000
001000
100000
010000
,
001000
000100
010000
001000
100000
000100
010000
000000
,
001000
100000
001000
100000
000100
010000
000100
010000
,
001000
100000
010000
001000
000100
010000
001000
000000
,
001000
100000
001000
100000
000100
010000
000100
010000
,
001000
100000
010000
001000
000100
010000
001000
000000
,
001000
100000
010000
001000
000100
010000
001000
100000
,
010000
001000
000100
100000
000100
100000
000100
000000
,
100000
000100
100000
001000
010000
000100
100000
001000
,
010000
001000
001000
000000
001000
010000
010000
000000
,
000100
100000
000100
010000
001000
100000
000100
010000
,
001000
010000
010000
000000
010000
001000
001000
000000
,
000100
100000
000100
010000
001000
100000
000100
010000
,
001000
010000
010000
000000
010000
001000
001000
000000
,
000100
100000
001000
100000
001000
010000
000100
010000
,
001000
100000
001000
010000
011000
000000
011000
000000
,
100100
000000
011000
000000
,
100100
000000
011000
000000
,
001100
101000
110000
001100
,
100100
011010
100101
000000
;
