#TITLE:ROM-eo & Juli8;
#SUBTITLE:;
#ARTIST:Nina;
#TITLETRANSLIT:;
#SUBTITLETRANSLIT:;
#ARTISTTRANSLIT:;
#GENRE:;
#CREDIT:;
#MUSIC:ROM-eo & Juli8.ogg;
#BANNER:ROM-eo & Juli8.png;
#BACKGROUND:ROM-eo & Juli8-bg.png;
#CDTITLE:;
#SAMPLESTART:35.620;
#SAMPLELENGTH:9.960;
#SELECTABLE:YES;
#OFFSET:-0.058;
#BPMS:0.000=135.000;
#STOPS:;
#BGCHANGES:;
#FGCHANGES:;

//--------------- dance-single - M. Puls ----------------
#NOTES:
     dance-single:
     M. Puls:
     Beginner:
     1:
     0.082296,0.137932,0.056796,0,0,71,64,7,0,0,0,0.082296,0.137932,0.056796,0,0,71,64,7,0,0,0:
0000
0000
0000
0000
,
0000
0000
0000
0000
,
0000
0000
0000
0000
,
0000
0000
0000
0000
,
1000
0000
0000
0000
,
0000
0000
0000
0000
,
0001
0000
0000
0000
,
0000
0000
0000
0000
,
1000
0000
0000
0000
,
0100
0000
0000
0000
,
0010
0000
0000
0000
,
0010
0000
0000
0000
,
0001
0000
0000
0000
,
0100
0000
0000
0000
,
0010
0000
0000
0000
,
1000
0000
0000
0000
,
0010
0000
0000
0000
,
0100
0000
0000
0000
,
0001
0000
0000
0000
,
1000
0000
0000
0000
,
1001
0000
0000
0000
,
1000
0000
0000
0000
,
0001
0000
0000
0000
,
1000
0000
0000
0000
,
1001
0000
0000
0000
,
0001
0000
0000
0000
,
1000
0000
0001
0000
,
1000
0000
0000
0000
,
0100
0000
0000
0000
,
0010
0000
0000
0000
,
1001
0000
0000
0000
,
1001
0000
0000
0000
,
0000
0000
0000
0000
,
1000
0000
0000
0000
,
1000
0000
1000
0000
,
1000
0000
0000
0000
,
0001
0000
0000
0000
,
0010
0000
0000
0000
,
0100
0000
0000
0000
,
1000
0000
0000
0000
,
1000
0000
0000
0000
,
0010
0000
0000
0000
,
0100
0000
0000
0000
,
0001
0000
0000
0000
,
1000
0000
0000
0000
,
0100
0000
0000
0000
,
0010
0000
0000
0000
,
1001
0000
0000
0000
,
1000
0000
0000
0000
,
0010
0000
0000
0000
,
0100
0000
0000
0000
,
0001
0000
0000
0000
,
0001
0000
0000
0000
,
1000
0000
0000
0000
,
0100
0000
0000
0000
,
1000
0000
0000
0000
,
0100
0000
0000
0000
,
1001
0000
0000
0000
,
0001
0000
0000
0000
,
0001
0000
0000
0000
,
1000
0000
0000
0000
,
1000
0000
0000
0000
,
0010
0000
0000
0000
,
0100
0000
0000
0000
,
0010
0000
0000
0000
,
0100
0000
0000
0000
,
0001
0000
0000
0000
,
1000
0000
0000
0000
,
1001
0000
0000
0000
;

//--------------- dance-single - M. Puls ----------------
#NOTES:
     dance-single:
     M. Puls:
     Easy:
     3:
     0.144887,0.220691,0.081137,0.1785,0,125,115,10,22,0,0,0.144887,0.220691,0.081137,0.1785,0,125,115,10,22,0,0:
0000
0000
0000
0000
,
0000
0000
0000
0000
,
0000
0000
0000
0000
,
0000
0000
0000
0000
,
1000
0000
1000
0000
,
0010
0000
0010
0000
,
0100
0000
0100
0000
,
0001
0000
0001
0000
,
0100
0000
0010
0000
,
0100
0000
0001
0000
,
0001
0000
1000
0000
,
1000
0000
0000
0000
,
2000
0000
0000
3000
,
0020
0000
0000
0030
,
0200
0000
0000
0300
,
0002
0000
0000
0003
,
2000
0000
0000
3000
,
0020
0000
0000
0030
,
0200
0000
0000
0300
,
0002
0000
0000
0003
,
1000
0000
1000
0000
,
0010
0000
1000
0000
,
0100
0000
1000
0000
,
0100
0000
1000
0000
,
0001
0010
0001
0000
,
0001
0010
0001
0000
,
2002
0000
3003
0000
,
0010
0000
0010
0000
,
2002
0000
0000
0000
,
3003
0000
0000
0000
,
0010
0000
0000
0000
,
0011
0000
0000
0000
,
1100
0000
0000
0000
,
0101
0000
0000
0000
,
1010
0000
0000
0000
,
0001
1000
1000
0000
,
1000
0001
0001
0000
,
1000
1000
1000
0000
,
0001
0001
0001
0000
,
0001
0000
0010
0000
,
1000
0000
0010
0000
,
0001
0000
0100
0000
,
1000
0000
0000
0000
,
0010
0010
1000
0000
,
0100
0100
0001
0000
,
0010
0010
1000
0000
,
0001
0001
0001
0000
,
1000
0200
0000
0300
,
0001
2000
0000
3000
,
0100
0020
0000
0030
,
0100
0002
0000
0003
,
0010
0002
0000
0003
,
0100
0020
0000
0030
,
2002
0000
0000
3003
,
0000
0000
0100
0000
,
2002
0000
0000
0000
,
3003
0000
0000
0000
,
0010
0000
1000
0000
,
0001
0000
0100
0000
,
0001
0000
1000
0000
,
0001
0000
0010
0000
,
0001
0000
1000
0000
,
0100
0000
1000
0000
,
0010
0000
1000
0000
,
1000
0000
0001
0010
,
0001
0000
1000
0000
,
0001
0000
1000
0000
,
1001
0000
0000
0000
,
1001
0000
0000
0000
;

//--------------- dance-single - M. Puls ----------------
#NOTES:
     dance-single:
     M. Puls:
     Medium:
     8:
     0.359319,0.413796,0.340774,0.129818,0,310,268,42,16,0,0,0.359319,0.413796,0.340774,0.129818,0,310,268,42,16,0,0:
0000
0000
0000
0000
,
0000
0000
0000
0000
,
0000
0000
0000
0000
,
0000
0000
0000
0000
,
0010
0100
0100
0001
,
0010
0010
1000
0010
,
0010
1000
0100
0100
,
0010
1000
0001
0200
0000
0000
0300
0000
,
0100
0100
0010
0100
,
0100
0010
0001
0001
,
0100
1000
1000
0010
,
0100
0001
1000
0020
0000
0000
0030
0000
,
0100
0000
0100
0200
0000
0300
0010
0000
,
0010
0000
0010
0020
0000
0030
1000
0000
,
1000
0000
1000
2000
0000
3000
0010
0000
,
0010
0000
0010
0020
0000
0030
0100
0000
,
0001
0000
1000
0002
0000
0003
0010
0000
,
0100
0000
0010
0200
0000
0300
1000
0000
,
0010
0000
0100
0020
0000
0030
0001
0000
,
1000
0000
0001
2000
0000
3000
0000
0000
,
1000
0000
0001
0100
0000
0010
1000
0010
,
1000
0000
0001
0100
0000
0010
1000
0000
,
0001
0000
1000
0010
0000
0100
0001
0000
,
1000
0010
1000
0010
0000
0100
0001
0000
,
1000
0000
0001
0100
0000
0010
1000
0000
,
0001
0100
0001
0100
0000
0010
1000
0000
,
0001
1000
0001
1000
,
1001
1001
0100
0010
,
2002
0000
0000
0000
,
3003
0000
0000
0000
,
0010
0110
0100
0110
,
0001
1000
0100
0010
,
0101
0001
0100
1000
,
1010
1000
0100
0001
,
0101
1000
0110
0001
,
1000
0000
1000
0001
0100
0000
0000
0000
,
0001
0000
0001
1000
0100
0000
0000
0000
,
1000
0001
0100
0000
1000
0000
0000
0000
,
0001
0000
1000
0100
0010
0000
0000
0000
,
1000
0000
1000
0001
0010
0000
0000
0000
,
0001
1000
0010
0000
0001
0000
0000
0000
,
1000
0000
0001
0010
0100
0000
0000
0000
,
1100
0011
1100
0000
,
0010
0010
1100
0000
,
0100
0100
0011
0000
,
0010
0010
1100
0000
,
0001
0001
1100
0000
,
1000
0000
0001
0100
0000
0010
1000
0010
,
1000
0000
0001
0100
0000
0010
1000
0000
,
0001
0000
1000
0010
0000
0100
0001
0000
,
1000
0010
1000
0010
0000
0100
0001
0000
,
1000
0000
0001
0100
0000
0010
1000
0000
,
0001
0100
0001
0100
0000
0010
1000
0000
,
1001
0100
0010
0100
,
0110
0010
1100
0010
,
1001
0010
0100
0110
,
0010
2002
3003
0000
,
1000
0000
0001
0110
0000
0010
1000
0010
,
1000
0000
0001
0110
0000
0010
1000
0000
,
0001
0000
1000
0110
0000
0100
0001
0000
,
1000
0010
1000
0010
0000
0110
0001
0000
,
1000
0000
0001
0110
0000
0010
1000
0000
,
0001
0100
0001
0100
0000
0110
1000
0000
,
1001
0100
0110
0100
,
1010
0001
1100
0010
,
0110
1001
1001
0010
,
0100
1001
2002
3003
,
0110
1001
0110
0110
,
1001
0000
0000
0000
;

//--------------- dance-single - R. McKanna ----------------
#NOTES:
     dance-single:
     R. McKanna:
     Hard:
     10:
     0.420751,0.551729,0.154159,0.064909,0.073023,363,344,19,8,0,0,0.420751,0.551729,0.154159,0.064909,0.073023,363,344,19,8,0,0:
0000
0000
0000
0000
,
0000
0000
0000
0000
,
0000
0000
0000
0000
,
0000
0000
0000
0000
,
1000
0010
0100
0000
1000
0000
0100
0000
,
0001
0010
0100
0000
0001
0000
0010
0000
,
1000
0010
0100
0001
0010
0000
0100
0000
,
1000
0000
0000
0001
0000
0000
0020
0000
0000
0000
0000
0000
0030
0000
0000
0000
,
0001
0100
0010
0000
0001
0000
0010
0000
,
1000
0100
0010
0000
1000
0000
0100
0000
,
0001
0100
0010
1000
0100
0000
0010
0000
,
0001
0000
0000
1000
0000
0000
0200
0000
0000
0000
0000
0000
0300
0000
0000
0000
,
1001
0000
0010
0100
0010
0000
1000
0000
,
0001
0000
0010
0100
1000
0010
0100
0000
,
1001
0000
0001
0010
1000
0000
0010
0000
,
0100
0000
1000
0010
0100
0001
0010
0000
,
1001
0000
0100
0010
0100
0000
0001
0000
,
1000
0000
0100
0010
0001
0100
0010
0000
,
1001
0000
1000
0100
0001
0000
0100
0000
,
0010
0000
0001
0100
0010
1000
0100
0000
,
1000
0000
0010
0100
0000
0010
0100
0000
,
0001
0000
0010
0100
0000
0110
0110
0000
,
0001
0000
0010
0100
0000
0010
0100
0000
,
1000
0100
0010
0100
0000
1001
1001
0000
,
0001
0000
0100
0010
0000
0100
0010
0000
,
1000
0000
0100
0010
0000
0110
0110
0000
,
1000
0000
1000
0000
0010
0100
0000
0010
,
0000
0020
0000
0000
0000
1000
1030
0000
,
0001
0000
0001
0000
0100
0010
0000
0010
,
0000
0020
0000
0000
0000
1000
1030
0000
,
1000
0001
1000
0001
,
1000
0000
0100
0000
0010
0001
0000
0001
0100
0000
0010
0000
1000
0100
0000
0100
,
0010
0000
0001
0000
0100
0010
0000
0010
1000
0000
0100
0000
0010
0000
0100
0000
,
1000
0000
0010
0000
0100
0001
0000
0001
0010
0000
0100
0000
1000
0010
0000
0010
,
0100
0000
0001
0000
0010
0100
0000
0100
1000
0000
0010
0000
0100
0000
0001
0000
,
1000
0010
0100
0000
0010
0100
0001
0000
,
0100
0001
1000
0000
1000
0100
0010
0100
,
0001
0100
1000
0000
0100
1000
0001
0000
,
1000
0001
0010
0000
0001
0010
0100
0010
,
1000
0010
0001
0000
0010
0001
1000
0000
,
0001
1000
0100
0000
1000
0100
0010
0100
,
0001
0100
1000
0000
0100
1000
0010
0000
,
1000
0010
0100
0000
0010
0000
0100
0000
,
1001
0000
0001
0001
0100
0010
0000
0000
,
0001
0000
1000
1000
0010
0100
0000
0000
,
1000
0000
0001
0001
0010
0100
0000
1000
,
0000
0010
0000
0100
0000
0000
1001
0000
,
1000
0000
0100
1000
0000
0010
0010
0000
,
0100
0010
0100
0001
0000
0010
0010
0000
,
0001
0000
0100
0001
0000
0010
0010
0000
,
0100
0010
0100
1000
0000
0010
0010
0000
,
1000
0000
0010
1000
0000
0100
0100
0000
,
0010
0100
0010
0001
0000
0100
0100
0000
,
0001
0000
0001
0000
1000
0000
1000
0100
,
0000
0200
0000
0000
0000
0000
0300
0000
,
1000
0000
1000
0000
0001
0000
0001
0100
,
0000
0200
0000
0000
0300
0000
1001
0000
,
0001
0000
0010
0100
0000
0010
0100
0000
,
1000
0000
0010
0100
0000
0110
0110
0000
,
1000
0000
0010
0100
0000
0010
0100
0000
,
0001
0100
0010
0100
0000
1001
1001
0000
,
1000
0000
0100
0010
0000
0100
0010
0000
,
0001
0000
0100
0010
0000
0110
0110
0000
,
0001
0000
0001
0000
0100
0010
0000
0100
,
0000
0200
0000
0000
0000
0001
0301
0000
,
1000
0000
1000
0000
0010
0100
0000
0100
,
0000
0200
0000
0000
0000
0001
0301
0000
,
1000
0000
0100
0000
0010
0001
0000
0001
0100
0000
0010
0000
1000
0001
0000
0001
,
1000
0000
0000
0000
;

//--------------- dance-single - K. Ward ----------------
#NOTES:
     dance-single:
     K. Ward:
     Challenge:
     13:
     0.545933,0.636821,0.097364,0.33266,0.271807,471,459,12,41,64,10,0.545933,0.636821,0.097364,0.33266,0.271807,471,459,12,41,64,10:
0000
0000
0000
0000
,
0000
0000
0000
0000
,
0000
0000
0000
0000
,
0000
0000
0000
0000
,
0001
0010
0100
1000
0001
0100
0010
0100
,
0001
0100
0010
1000
0100
1000
0010
0100
,
0001
0010
0001
0100
0010
1000
0010
1000
,
0200
0000
0000
2000
0000
0000
0020
0000
0000
0000
3330
0000
0000
0000
0000
0000
,
0001
0010
0001
0100
0001
0010
0001
0100
,
0010
1000
0100
1000
0010
0100
0001
0010
,
0001
0010
0001
0100
0010
1000
0100
1000
,
0020
0000
0000
0200
0000
0000
0002
0000
0000
0000
0333
0000
0000
0000
0000
0000
,
1000
0010
0100
0001
0010
0001
0100
0010
,
1000
0100
0001
0100
1000
0010
0001
0010
,
1000
0010
0100
0001
0010
0001
0100
0001
,
1000
0100
0001
0100
1000
0010
0100
0001
,
0010
0001
0100
0010
1000
0100
1000
0010
,
1000
0100
0001
0100
1000
0010
0001
0010
,
1000
0100
1000
0010
0100
0001
0010
0001
,
2000
0000
0200
0020
0000
0000
3330
0000
,
1000
0100
1000
0000
0010
0000
0100
0000
0001
0010
0001
0000
0100
0000
0010
0000
,
1000
0020
0100
0230
0000
0310
0110
0000
,
1000
0100
1000
0000
0010
0000
0100
0000
0001
0010
0001
0000
0100
0000
0020
0000
,
0000
2030
0M0M
3010
0000
1100
1100
0000
,
0001
0010
0001
0000
0100
0000
0010
0000
1000
0100
1000
0000
0010
0000
0100
0000
,
0001
0010
0001
0000
0100
0000
0010
0000
1000
0010
0100
0000
0001
0010
0001
0010
,
0001
0010
1000
0100
0001
0010
1000
0100
,
0001
0010
0001
0100
0010
1000
0002
0000
,
1003
0100
0001
0010
1000
0100
0001
0010
,
1000
0100
1000
0010
0100
0001
0001
0010
,
0001
0000
2000
0000
0200
0000
0001
3300
,
1000
0000
0010
0000
0100
0010
0000
0010
0100
0000
0001
0000
0010
0001
0000
0001
,
0100
0000
0010
0000
1000
0001
0000
0001
0100
0000
0010
0000
1000
0100
0000
0100
,
1000
0000
0010
0000
0100
0001
0000
0001
0010
0000
0001
0000
0100
0010
0000
0010
,
0100
0000
0010
0000
1000
0100
0000
0100
1000
0000
0010
0000
2000
0000
0000
0000
,
3001
1000
0100
0010
0001
0010
0100
1000
,
0100
1000
0010
0100
0001
0010
0001
0010
,
0100
1000
0010
0100
0001
0010
0001
1000
,
0001
0010
0100
1000
2200
0000
0010
3300
,
1000
0000
0000
0001
0000
0000
0020
0000
0000
0000
0000
0000
0002
0000
0000
0000
0000
0000
1000
0000
0033
0000
0000
0000
,
1000
0000
0000
0100
0000
0000
0002
0000
0000
0000
0000
0000
0020
0000
0000
0000
0000
0000
1000
0000
0033
0000
0000
0000
,
1000
0001
0200
0000
0310
1000
0001
0010
,
0002
0000
0000
0200
0000
0000
0010
0000
0000
0000
0303
0000
0000
0000
0000
0000
,
1000
0100
1000
0000
0010
0000
0100
0000
0001
0010
0001
0000
0100
0000
0010
0000
,
1000
0100
1000
0000
0010
0000
0100
0000
0001
0010
0001
0000
0010
0000
0001
0000
,
0100
0010
1000
0000
0010
0100
0001
0000
1000
0100
1000
0000
0010
0100
0001
0000
,
1000
0100
1000
0010
0100
0001
0002
0000
,
1003
0000
0MM0
0000
M00M
0000
M1M0
0000
M00M
0M00
0000
00M0
0000
M00M
0000
0M00
,
0010
000M
0M00
000M
MM00
0000
M0M1
0000
0M00
000M
M0M0
0000
00MM
0M00
0000
M000
,
0001
M000
00M0
0M0M
M000
0000
M010
000M
0M00
0000
M0M0
0000
0M00
M00M
0000
00M0
,
0100
000M
M000
00M0
0000
0M00
1000
00M0
000M
M000
00M0
0M00
00M0
M000
000M
0000
,
0010
1000
0010
0100
0001
0010
0001
0100
,
0010
1000
0100
0020
0000
0031
0010
0001
,
0200
0000
0320
0000
2030
0000
3100
1100
,
0000
0110
0000
0MM0
0000
0001
0001
0100
,
0020
0000
1030
M0M0
0200
0000
1300
MM10
,
0000
0110
0000
0011
0000
1100
0000
0001
,
0001
0010
0001
0000
0100
0000
0010
0000
1000
0100
1000
0000
0010
0000
0100
0000
,
0001
0100
0020
0000
0100
0000
0130
0000
0010
0000
0100
0000
0110
0000
0000
0000
,
0001
0010
0001
0000
0100
0000
0010
0000
1000
0100
1000
0000
0010
0000
0200
0000
,
0000
0302
M0M0
0103
0000
0011
0011
0000
,
1000
0100
1000
0000
0010
0000
0100
0000
0001
0010
0001
0000
0100
0000
0010
0000
,
1000
0100
1000
0000
0010
0000
0100
0000
0001
0100
0010
0000
1000
0100
1000
0100
,
1000
0100
0001
0010
1000
0100
0001
0010
,
1000
0100
1000
0010
0100
0001
2000
0001
,
3001
0010
1000
0100
0001
0010
1000
0100
,
0001
0010
0001
0100
0010
1000
1000
0100
,
1000
0002
0200
0020
,
2000
3333
0000
0000
;

//--------------- dance-double - M. Emirzian ----------------
#NOTES:
     dance-double:
     M. Emirzian:
     Easy:
     3:
     0.221387,0.248278,0.008114,0.073023,0,191,190,1,9,0,0,0.221387,0.248278,0.008114,0.073023,0,191,190,1,9,0,0:
00000000
00000000
00000000
00000000
,
00000000
00000000
00000000
00000000
,
00000000
00000000
00000000
00000000
,
00000000
00000000
00000000
00000000
,
00001000
00000000
00200000
00000000
,
00010000
00010000
00310000
00000000
,
01000000
00000000
00200000
00000000
,
10000000
10000000
10300000
00000000
,
01000000
00000000
00020000
00000000
,
00001000
00001000
00031000
00000000
,
00000010
00000000
00000002
00000000
,
00000100
00000100
00000103
00000000
,
00001000
00010000
00000010
00000000
,
00010000
00001000
00000100
00000000
,
00001000
01000000
00010000
00000000
,
10000000
01000000
00010000
00000000
,
00001000
00100000
00010000
00000000
,
01000000
00100000
00010000
00000000
,
00001000
00010000
00000100
00000000
,
00000010
00000001
00000100
00000100
,
00000010
00000000
00001000
00000000
,
00000001
00001000
00000100
00000000
,
00010000
00001000
00000010
00001000
,
00010000
00001000
00000000
00000000
,
01000000
00100000
10000000
01000000
,
00010000
00001000
00100000
00000000
,
00001000
00010000
00000010
00000100
,
00000001
00000010
00000010
00000000
,
00000100
00000000
00010000
00000000
,
00002000
00000000
00000000
00003000
,
00001000
00010000
00001000
00011000
,
01000000
10000000
00010000
00000000
,
01000000
00100000
10000000
00000000
,
01000000
00010000
00001000
00000000
,
00010000
00000010
00000100
00000000
,
00000100
00000000
00000001
00000100
,
00000010
00000000
00000100
00001000
,
00010000
00000000
00001000
00000000
,
01000000
00010000
10000000
00000000
,
01000000
00000000
00100000
00001000
,
00010000
00000000
00001000
00000010
,
00000001
00000000
00000100
00000000
,
00000010
00000100
00001000
00000000
,
00010000
00001000
00100000
00000000
,
01000000
10000000
00100000
00000000
,
00010000
00000000
00001000
00000000
,
00001000
00000000
00010000
00000000
,
00001000
00010000
00000100
00000010
,
00000001
00001000
00000100
00000000
,
00000010
00001000
00010000
00100000
,
10000000
01000000
00000000
00100000
,
00010000
01000000
00001000
00010000
,
00100000
00010000
00001000
00010000
,
00000100
00001000
00001000
00000000
,
00000010
00000000
00000100
00000000
,
00000001
00000100
00000010
00020000
,
00001000
00000000
00001000
00000000
,
00031000
00010000
01000000
10000000
,
00010000
10000000
01000000
00000000
,
01000000
00100000
00001000
00020000
,
00001000
00000000
00001000
00000000
,
00031000
00000010
00000001
00000010
,
00000100
00001000
00000010
00000200
,
00000001
00000000
00000001
00000000
,
00000301
00000100
00000010
00020000
,
00001000
00000000
00001000
00000000
,
00031000
00010000
01000000
10000000
,
00010000
00000000
10000000
00000000
,
00010000
00000000
00000000
00000000
;

//--------------- dance-double - M. Emirzian ----------------
#NOTES:
     dance-double:
     M. Emirzian:
     Medium:
     5:
     0.306001,0.358624,0.024341,0.081137,0,264,261,3,10,0,0,0.306001,0.358624,0.024341,0.081137,0,264,261,3,10,0,0:
00000000
00000000
00000000
00000000
,
00000000
00000000
00000000
00000000
,
00000000
00000000
00000000
00000000
,
00000000
00000000
00000000
00000000
,
10000000
00000000
00010000
00000000
01000000
00001000
00010000
00000000
,
00000010
00000100
00000200
00000300
,
00000001
00000000
00000010
00000000
00000100
00000000
00010000
00001000
,
00100000
01000000
02000000
03000000
,
10000000
00000000
10000000
00000000
01000000
00000000
00010000
00001000
,
00000010
00000001
00000002
00000003
,
00000100
00000000
00000001
00000000
00000010
00000000
00001000
00010000
,
01000000
10000000
20000000
30000000
,
00100000
00000000
01000000
00000000
00001000
00000000
00010000
00001000
,
00010000
00000100
00002000
00003000
,
00000010
00000000
00000100
00000000
00000001
00000000
00001000
00000100
,
00001000
00000010
00020000
00030000
,
00001000
00000000
01000000
00000000
00100000
00000000
10000000
00010000
,
10000000
01000000
00200000
00300000
,
00001000
00000000
00010000
00000000
00000100
00000000
00001000
00000001
,
00001000
00000010
00000200
00000300
,
00000001
00000100
00001000
00010000
,
01000000
10000000
00010000
00000000
01000000
00000000
00100000
00000000
,
10000000
00100000
00010000
00001000
,
00000010
00000001
00001000
00000000
00000100
00000000
00000010
00000000
,
00000001
00000000
00000100
00000010
00000100
00000000
00001000
00000100
,
00001000
00000000
00010000
00001000
00010000
00000000
00001000
00000000
,
01000000
00010000
01000000
00000000
00100000
00000000
10000000
00010000
,
10000000
01000000
00100000
00001000
,
00010000
00000000
00000100
00001000
00000100
00000000
00000010
00000001
,
00000010
00000100
00000100
00010000
,
00010010
00000000
00000100
00000000
,
00010000
00000000
00001000
00000000
,
00010000
00000000
01000000
00000000
,
10000000
00000000
00010000
00000000
,
01000000
00000000
00001000
00010000
,
00000100
00000000
00001000
00000000
00000000
00000000
00000010
00000100
,
00000010
00001000
00000100
00000000
,
00010000
00001000
00000000
00010000
,
00000000
00000000
00001000
01000000
,
00000000
00100000
10000000
01000000
,
00000000
00100000
00000000
00001000
,
00000000
00010000
00000100
00001000
,
00000010
00000100
00000001
00000010
00000000
00000000
00000000
00000000
,
00000100
00001000
00000010
00000100
,
00001000
00000000
00010000
00000000
00001000
00000000
01000000
00010000
,
10000000
00100000
00100000
01000000
,
00010000
10000000
01000000
00000000
00010000
00000000
00001000
00000000
,
00010000
00000000
00000100
00000000
00001000
00000010
00000100
00000000
,
00000001
00000001
00000010
00000100
,
00010000
00000000
00001000
00000000
01000000
00100000
10000000
00000000
,
01000000
00000000
01000000
00000000
00100000
00010000
01000000
00000000
,
00001000
00010000
00000100
00000100
,
00001000
00000010
00000100
00000001
,
00001000
00000100
00000010
00000000
00000001
00000000
00000100
00001000
,
00010000
00000000
00001000
00000000
00100000
00010000
01000000
00000000
,
00100000
00000000
00100000
00000000
,
10000000
01100000
10000000
10000000
,
01000000
00000000
00100000
00010000
00100000
00000000
01000000
00000000
,
00100000
00001000
00010000
00000000
00001000
00000000
00000100
00000001
,
00000010
00000000
00000100
00000000
00001000
00000000
00000010
00000100
,
00000000
00000200
00000000
00000000
00000300
00000000
00000000
00000000
,
00000100
00000001
00000100
00000010
,
00001000
00000100
00010000
00000000
00001000
00000000
00010000
00000000
,
01000000
10000000
00100000
00000000
01000000
00000000
00100000
10000000
,
01000000
00010000
00020000
00030000
,
00001000
00010000
00000100
00000000
00000010
00000000
00000001
00000100
,
00000010
00001000
00000100
00010000
,
00001000
00010000
01000000
00000000
10000000
00000000
00100000
00000000
,
01010000
00000000
00000000
00000000
;

//--------------- dance-double - M. Emirzian ----------------
#NOTES:
     dance-double:
     M. Emirzian:
     Hard:
     7:
     0.435819,0.579315,0.154159,0.081137,0.056796,376,357,19,10,0,0,0.435819,0.579315,0.154159,0.081137,0.056796,376,357,19,10,0,0:
00000000
00000000
00000000
00000000
,
00000000
00000000
00000000
00000000
,
00000000
00000000
00000000
00000000
,
00000000
00000000
00000000
00000000
,
10000000
00100000
01000000
00000000
00001000
00010000
00000100
00000000
,
00002000
00000000
00003010
00000000
00000100
00000001
00000010
00000000
,
00000001
00000100
00000010
00000000
00001010
00000000
00001100
00000000
,
00010000
00001000
02000000
00000000
03100000
00000000
10100000
00000000
,
10000000
01000000
00010000
00000000
00001000
00010000
01000000
00000000
,
00020000
00000000
00031000
00000000
00000010
00000100
00001000
00000000
,
00000001
00000100
00000010
00000000
00011000
00000000
01001000
00000000
,
00100000
01000000
10000000
00000000
00100000
00000000
01010000
00000000
,
10000000
00100000
01000000
00000000
00001000
00000000
00010000
00000000
,
00001000
00000100
00000001
00000000
00000010
00000000
00000100
00000000
,
00010000
00001000
01000000
00000000
00100000
00000000
10000000
00000000
,
01000000
00100000
00010000
00000000
01000000
00000000
00100000
00000000
,
01000000
00001000
00010000
00000000
00000100
00000000
00000010
00000000
,
00000001
00000100
00001000
00000000
00000100
00000000
00000001
00000000
,
00000010
00000100
00001000
00000000
00000010
00000000
00010000
00000000
,
00001000
00000100
00000001
00000000
00000110
00000000
00001001
00000000
,
00000100
00001000
00000001
00000000
00000100
00000000
00000010
00001000
,
00000100
00010000
00001000
00000000
01000000
00010000
10000000
00000000
,
01000000
00100000
00010000
00000000
01000000
00100000
00010000
00001000
,
00010000
00000000
00000100
00000000
00000010
00000001
00000100
00000000
,
00000010
00001000
00000010
00000100
00001000
00010000
00100000
00000000
,
10000000
01000000
00010000
01000000
10000000
00000000
01000000
00000000
,
00010000
00001000
00100000
00000000
00001000
00010000
00001000
00000000
,
00010000
00001000
00000010
00000000
00000001
00000000
00000101
00000000
,
00000010
00001000
00000100
00000000
00010000
00001000
00000100
00000000
,
00001000
00000000
00010000
00000000
00100000
00000000
10000000
00010000
,
01000000
10010000
01100000
11000000
,
10000000
00000000
01000000
00000000
00100000
00001000
00000000
00010000
00000100
00000000
00010000
00000000
00001000
00010000
00000000
00000100
,
00001000
00000000
00000010
00000000
00000100
00000001
00000000
00000010
00000100
00000000
00001000
00000000
00000001
00000100
00000000
00000010
,
00010000
00000000
00001000
00000000
01000000
00001000
00000000
00010000
00001000
00000000
00100000
00000000
01000000
10000000
00000000
00010000
,
01000000
00000000
00100000
00000000
10000000
01000000
00000000
00100000
00010000
00000000
00000000
00000000
10010000
00000000
00000000
00000000
,
01000000
10000000
00100000
00000000
01000000
00010000
00000000
00000000
,
00200000
00000000
00301000
00000000
00010000
00000100
00001000
00000000
,
00000000
00000010
00001000
00000000
00000100
00000000
00000010
00000000
,
00000000
00000001
00000000
00000100
00000010
00000000
00001010
00000000
,
00000000
00010000
00001000
01000000
,
00000000
00000000
00010000
00000000
01000000
00000000
00100000
10000000
,
01000000
00100000
00010000
01000000
,
00100000
00000000
00000000
10000000
00000000
00000000
00000000
00000000
,
00010000
00000000
00000100
00000000
00001000
00000000
00000010
00001000
,
00000100
00000000
00000010
00000000
00000001
00000100
00001000
00000000
,
00010000
00001000
00000100
00000001
00000100
00000000
00001000
00010000
,
01000000
20000000
00000000
30100000
,
01000000
00010000
10000000
01000000
00100000
00000000
00001000
00010000
,
00000100
00001000
00000010
00000000
00000100
00000001
00000010
00000000
,
00000100
00001000
00000100
00000000
00000001
00000100
00001000
00000100
,
00000010
00001000
00010000
00000000
00001000
00010000
00100000
00000000
,
10000000
01000000
00010000
00000000
01000000
00000000
00100000
00010000
,
01000000
00100000
00010000
00000000
00001000
00010000
00000100
00000000
,
00000020
00000000
00000031
00000000
00000100
00000010
00001000
00000000
,
00000001
00000100
00002000
00003000
,
00020000
00000000
01030000
00000000
10000000
00100000
10000000
00000000
,
10010000
01010000
00101000
00010100
,
00010000
00001000
00000010
00000000
00000001
00000000
00000100
00000010
,
00001000
00000100
00000010
00000000
00000100
00001000
00000010
00000000
,
00010000
00001000
01000000
00100000
10000000
01000000
00100000
00010000
,
01000000
00001000
00010000
00000000
00000100
00001000
00000002
00000000
,
00000013
00000000
00000100
00001000
00000010
00000000
00010000
00001000
,
01000000
00100000
10000000
00100000
01000000
00000000
00010000
10000000
,
01000000
00000000
01000000
00010000
00001000
00000000
00010000
00001000
,
00000100
00001000
00010000
00000000
00001000
00000010
00000001
00000000
,
00001000
00000000
00000001
00000100
00000010
00000000
00002000
00000000
,
00003100
00010000
00001000
00010000
00100000
10000000
00100000
00000000
,
01000000
00000000
00010000
00000000
00100000
00000000
00001000
00010000
,
00011000
00000000
00000000
00000000
;

//--------------- dance-double - M. Emirzian ----------------
#NOTES:
     dance-double:
     M. Emirzian:
     Challenge:
     9:
     0.547092,0.579315,0.105478,0.081137,0.133875,472,459,13,10,0,5,0.547092,0.579315,0.105478,0.081137,0.133875,472,459,13,10,0,5:
00000000
00000000
00000000
00000000
,
00000000
00000000
00000000
00000000
,
00000000
00000000
00000000
00000000
,
00000000
00000000
00000000
00000000
,
10000000
01000000
00100000
00010000
10000000
00100000
01000000
00000000
,
00010000
01000000
00001000
00010000
00000010
00001000
00000001
00000000
,
00000010
00000100
00001000
00000000
00000001
00000100
00000010
00000000
,
00001000
00001001
00001100
00000010
,
00000001
00000100
00001000
00010000
00001000
00000100
00000001
00000000
,
00000010
00001000
00010000
00100000
00010000
00001000
00010000
00000000
,
01000000
10000000
00100000
00000000
00010000
00001000
00000100
00000000
,
00001000
00011000
00110000
10000000
,
01000000
00100000
00010000
10000000
00100000
00000000
01000000
00000000
,
00010000
00100000
10000000
00100000
00010000
00000000
01000000
00000000
,
00001000
00010000
00000010
00001000
00000001
00000000
00000010
00000000
,
00000001
00000100
00001000
00010000
00001000
00000000
00000100
00000000
,
00000001
00000010
00000100
00001000
00000001
00000000
00000100
00000000
,
00001000
00010000
01000000
10000000
00100000
00010000
00100000
00000000
,
10000000
00010000
00100000
01000000
10000000
00010000
10000000
00000000
,
00100000
00010000
00001000
00000100
00001000
00000000
00010000
00001000
,
00010000
00000000
01000000
00000000
10000000
00000000
00100000
00000000
00010000
00000000
00001000
00000000
00010000
00000000
00100000
00010000
,
00100000
00000000
00010000
00000000
00001000
00000000
00000010
00000000
00000001
00000000
00000100
00000000
00001000
00000000
00010000
00001000
,
00010000
00000000
01000000
00000000
00100000
00000000
00001000
00000000
00010000
00000000
00100000
00000000
10000000
00000000
00100000
00010000
,
00100000
00000000
00010000
00000000
00001000
00000000
00000100
00001000
00000100
00000000
00000001
00000000
00000010
00000000
00001000
00000000
,
00010000
00000000
00001000
00000000
00000010
00000000
00000100
00000000
00010000
00000000
00000010
00000000
00000100
00000000
00000001
00000100
,
00000001
00000000
00000010
00000000
00000100
00000000
00010000
00000000
00001000
00000000
01000000
00000000
00100000
00000000
10000000
01000000
,
10000000
00000000
00100000
00000000
00010000
00000000
00001000
00010000
00001000
00000000
01000000
00000000
00001000
00000000
00010000
00000000
,
00000010
00000100
00000001
00000010
00001000
00010000
00001000
00000000
,
00000100
00001000
00010000
01000000
10000000
00100000
01000000
00001000
,
00010000
00000010
00010000
00001000
00100000
01000000
00010000
00001000
,
00000010
00000000
00000000
00000002
00000000
00000000
00000200
00000000
00000000
00001000
00000303
00000000
,
00001000
00000000
00010000
00000000
00001000
01000000
00000000
00100000
10000000
00000000
10000000
00000000
01000000
00100000
00000000
00001000
,
01000000
00000000
01000000
00000000
00100000
10000000
00000000
01000000
00100000
00000000
00100000
00000000
00001000
00010000
00000000
00001000
,
00000010
00000000
00000001
00000000
00000001
00000100
00000000
00001000
00000100
00000000
00000100
00000000
00000010
00001000
00000000
00000100
,
00010000
00000000
00010000
00000000
00001000
00100000
00000000
00001000
00010000
00000000
00010000
00000000
00001000
00010000
00001000
00000000
,
00000100
00000001
00000010
00000100
00010000
00001000
00000010
00000001
,
00000010
00001000
00100000
01000000
10000000
00100000
01000000
00001000
,
00010000
01000000
10000000
00100000
00010000
00000010
00000100
00000001
,
00001000
00000100
00000010
00000000
00000001
00000010
00000100
00000000
,
00010000
00000000
00000000
00001000
00000000
00000000
00000200
00000000
00000000
00000000
00000000
00000000
00002000
00000000
00000000
00000000
00000000
00000000
00010000
00000000
00003300
00000000
00000000
00000000
,
00010000
00000000
00000000
00100000
00000000
00000000
20000000
00000000
00000000
00000000
00000000
00000000
02000000
00000000
00000000
00000000
00000000
00000000
00010000
00000000
33000000
00000000
00000000
00000000
,
00010000
00001000
00000100
00000000
00001000
00000000
00010000
00000000
,
00002000
00000000
00000000
00000020
00000000
00000000
00000001
00003030
00000000
00000001
00000000
00000000
,
00000100
00000000
00001000
00000000
00010000
00000000
00001000
00000000
00000100
00000010
00000100
00000000
00000001
00000000
00000010
00000000
,
00001000
00000000
00010000
00000000
00001000
00000000
00000100
00000000
00000010
00000000
00010000
00000000
00001000
00010000
00001000
00000000
,
01000000
00100000
10000000
01000000
00100000
00001000
00010000
00100000
,
10000000
01000000
10000000
00000000
10010000
00000000
00000000
00000000
00100000
00001000
00100000
00000000
00011000
00000000
00010000
00000000
,
00001000
00000000
00010000
00000010
00001000
00000000
00000001
00000100
,
00000010
00001000
00000100
00000010
00000001
00000000
00000100
00000000
,
00000010
00010000
00001000
00000100
00001000
00010000
00100000
00010000
,
00001000
00000000
01001000
00000000
00100000
01000000
10000000
00000000
,
00010000
01000000
00100000
10000000
01000000
00100000
00001000
00010000
,
01000000
10000000
00100000
01000000
00001000
00000000
00011000
00000000
,
00001000
00100000
01000000
00000000
00100000
01000000
10000000
00000000
,
00010000
01000000
00001000
00000000
,
00010000
00000000
00000100
00000000
,
00000101
00010010
01001000
10010000
,
01000000
00000000
00100000
00000000
00010000
00000000
00001000
00000000
00010000
00000000
00000010
00000000
00000100
00000000
00000001
00000010
,
00000001
00000000
00000100
00000000
00000010
00000000
00010000
00000000
00001000
00000000
00010000
00000000
00000010
00000000
00010000
00001000
,
00010000
00000000
01000000
00000000
10000000
00000000
00100000
00000000
00010000
00000000
00001000
00000000
00010000
00000000
00100000
10000000
,
00100000
00000000
01000000
00000000
00001000
00000000
00010000
00001000
00010000
00000000
00001000
00000000
00000100
00000000
00000001
00000000
,
00000010
00000000
00000100
00000000
00001000
00000000
00000010
00000000
00000100
00000000
00000001
00000000
00000100
00000000
00000010
00010000
,
00000010
00000000
00001000
00000000
00000100
00000000
00010000
00000000
00100000
00000000
10000000
00000000
01000000
00000000
00010000
00001000
,
00010000
00000000
01000000
00000000
10000000
00000000
00100000
01000000
00100000
00000000
00010000
00000000
00001000
00000000
00010000
00000000
,
00000100
00000010
00000001
00000100
00000010
00010000
00001000
00000000
,
00000100
00000010
00010000
00001000
00010000
00000010
00010000
01000000
,
10000000
01000000
00100000
00001000
00000100
00000010
00001000
00000100
,
00000020
00000000
00000000
00000000
00000000
00000000
00000002
00000000
00000000
00000000
00000000
00000000
00001000
00000000
00000033
00000000
00000000
00000000
00000100
00000000
00000000
00000010
00000000
00000000
,
00010010
00000000
00000000
00000000
;

//--------------- lights-cabinet - ----------------
#NOTES:
     lights-cabinet:
     :
     Easy:
     1:
     0.494933,0.579315,0.527388,0.105478,0.064909,427,354,65,13,0,14,0.494933,0.579315,0.527388,0.105478,0.064909,427,354,65,13,0,14:
000000
000000
000000
000000
,
000000
000000
000000
000000
,
222200
000000
333300
000000
,
100100
011000
100100
011000
,
100000
001000
010000
000000
100000
000000
010000
000000
,
000100
001000
010000
000000
000100
000000
001000
000000
,
100000
001000
010000
000100
001000
000000
010000
000000
,
100000
000000
000000
000100
000000
000000
002000
000000
000000
000000
000000
000000
003000
000000
000000
000000
,
000100
010000
001000
000000
000100
000000
001000
000000
,
100000
010000
001000
000000
100000
000000
010000
000000
,
000100
010000
001000
100000
010000
000000
001000
000000
,
000100
000000
000000
100000
000000
000000
020000
000000
000000
000000
000000
000000
030000
000000
000000
000000
,
100100
000000
001000
010000
001000
000000
100000
000000
,
000100
000000
001000
010000
100000
001000
010000
000000
,
100100
000000
000100
001000
100000
000000
001000
000000
,
010000
000000
100000
001000
010000
000100
001000
000000
,
100100
000000
010000
001000
010000
000000
000100
000000
,
100000
000000
010000
001000
000100
010000
001000
000000
,
100100
000000
100000
010000
000100
000000
010000
000000
,
001000
000000
000100
010000
001000
100000
010000
000000
,
100000
000000
001000
010000
000000
001000
010000
000000
,
000100
000000
001000
010000
000000
011000
011000
000000
,
000100
000000
001000
010000
000000
001000
010000
000000
,
100000
010000
001000
010000
000000
100100
100100
000000
,
000100
000000
010000
001000
000000
010000
001000
000000
,
100000
000000
010000
001000
000000
011000
011000
000000
,
100000
000000
100000
000000
001000
010000
000000
001000
,
000000
002000
010000
000000
010000
100100
103100
000000
,
000100
000000
000100
000000
010000
001000
000000
001000
,
000000
002000
000000
000000
000000
100100
103100
000000
,
011000
100100
011000
000100
,
100000
000000
010000
000000
001000
000100
000000
100000
010000
000000
001000
000000
100000
010000
000000
100000
,
001000
000000
000100
000000
010000
001000
000000
000100
100000
000000
010000
000000
001000
000000
010000
000000
,
100000
000000
001000
000000
010000
000100
000000
100000
001000
000000
010000
000000
100000
001000
000000
100000
,
010000
000000
000100
000000
001000
010000
000000
000100
100000
000000
001000
000000
010000
000000
000100
000000
,
100000
001000
010000
000000
001000
010000
000100
000000
,
010000
000100
100000
000000
100000
010000
001000
010000
,
000100
010000
100000
000000
010000
100000
000100
000000
,
100000
000100
001000
000000
000100
001000
010000
001000
,
100000
001000
000100
000000
001000
000100
100000
000000
,
000100
100000
010000
000000
100000
010000
001000
010000
,
000100
010000
100000
000000
010000
100000
001000
000000
,
100000
001000
010000
000000
001000
000000
010000
000000
,
100100
000000
000100
000100
010000
001000
000000
000000
,
000100
000000
100000
100000
001000
010000
000000
000000
,
100000
000000
000100
000100
001000
010000
000000
100000
,
000000
011000
000000
011000
000000
000000
111100
000000
,
100000
000000
010000
100000
000000
011000
011000
000000
,
010000
001000
010000
000100
000000
100100
100100
000000
,
000100
000000
010000
000100
000000
011000
011000
000000
,
010000
001000
010000
100000
000000
100100
100100
000000
,
100000
000000
001000
100000
000000
010000
010000
000000
,
001000
010000
001000
000100
000000
011000
011000
000000
,
000100
000000
000100
000000
100000
000000
101000
010100
,
000000
020000
000000
000000
100100
000000
130100
011000
,
100100
000000
100100
000000
111100
000000
100100
011000
,
000000
022000
000000
000000
033000
000000
100100
000000
,
100100
000000
001000
010000
000000
001000
010000
000000
,
100100
000000
001000
010000
000000
011000
011000
000000
,
100000
000000
001000
010000
000000
001000
010000
000000
,
000100
010000
001000
010000
000000
100100
100100
000000
,
100000
000000
010000
001000
000000
010000
001000
000000
,
000100
000000
010000
001000
000000
100100
011000
000000
,
100100
000000
100100
000000
010000
001000
000000
010000
,
000000
020000
000000
000000
000000
100100
130100
000000
,
100000
001000
100000
000000
001000
100000
000100
011000
,
000000
020000
000000
000000
000000
100100
130100
000000
,
100000
000000
010000
000000
001000
000100
000000
100000
010000
000000
001000
000000
100100
000000
000000
000000
,
111100
000000
000000
000000
;
