#TITLE:Queen of Light;
#SUBTITLE:;
#ARTIST:Missing Heart;
#TITLETRANSLIT:;
#SUBTITLETRANSLIT:;
#ARTISTTRANSLIT:;
#GENRE:;
#CREDIT:;
#MUSIC:Queen of Light.ogg;
#BANNER:Queen of Light.png;
#BACKGROUND:Queen of Light-bg.png;
#CDTITLE:;
#SAMPLESTART:66.000;
#SAMPLELENGTH:14.320;
#SELECTABLE:YES;
#OFFSET:-0.554;
#BPMS:0.000=132.010;
#STOPS:;
#BGCHANGES:;
#FGCHANGES:;

//--------------- dance-single - M. Puls ----------------
#NOTES:
     dance-single:
     M. Puls:
     Beginner:
     1:
     0.071484,0.106535,0,0,0,62,62,0,0,0,0,0.071484,0.106535,0,0,0,62,62,0,0,0,0:
0000
0000
0000
0000
,
0000
0000
0000
0000
,
0000
0000
0000
0000
,
0000
0000
0000
0000
,
0010
0000
0000
0000
,
0000
0000
0000
0000
,
0010
0000
0000
0000
,
0000
0000
0000
0000
,
0001
0000
0000
0000
,
1000
0000
0000
0000
,
0001
0000
0000
0000
,
0010
0000
0000
0000
,
0001
0000
0000
0000
,
1000
0000
0000
0000
,
0001
0000
0000
0000
,
0010
0000
0000
0000
,
1000
0000
0000
0000
,
1000
0000
0000
0000
,
0001
0000
0000
0000
,
0001
0000
0000
0000
,
0001
0000
0000
0000
,
1000
0000
0000
0000
,
1000
0000
0000
0000
,
0100
0000
0000
0000
,
1000
0000
0000
0000
,
0010
0000
0000
0000
,
1000
0000
0000
0000
,
0001
0000
0000
0000
,
1000
0000
0000
0000
,
0100
0000
0000
0000
,
0001
0000
0000
0000
,
0010
0000
0000
0000
,
0001
0000
0000
0100
,
0000
0000
0000
0000
,
0001
0000
0000
0000
,
1000
0000
0001
0000
,
1000
0000
0000
0000
,
0001
0000
0000
0000
,
1000
0000
0000
0000
,
1000
0000
0000
0000
,
0100
0000
0000
0000
,
0010
0000
0000
0000
,
0001
0000
0000
0000
,
0010
0000
0000
0000
,
0100
0000
0000
0000
,
1000
0000
0000
0000
,
0001
0000
0000
0000
,
0010
0000
0000
0000
,
0001
0000
0000
0000
,
1000
0000
0000
0000
,
0001
0000
0000
0000
,
0010
0000
0000
0000
,
0001
0000
0000
0000
,
1000
0000
0000
0000
,
0001
0000
0000
0000
,
0010
0000
0000
0000
,
0001
0000
0000
0000
,
1000
0000
0000
0000
,
0001
0000
0000
0000
,
0010
0000
0000
0000
,
0010
0000
0000
0000
,
0100
0000
0000
0000
,
0010
0000
0000
0000
,
0100
0000
0000
0000
,
1000
0000
0000
0000
,
0001
0000
0000
0000
,
0100
0000
0000
0000
;

//--------------- dance-single - K. Ward ----------------
#NOTES:
     dance-single:
     K. Ward:
     Easy:
     3:
     0.175252,0.239704,0.016142,0,0,152,150,2,0,0,0,0.175252,0.239704,0.016142,0,0,152,150,2,0,0,0:
0000
0000
0000
0000
,
0000
0000
0000
0000
,
0000
0000
0000
0000
,
0000
0000
0000
0000
,
0010
0000
0000
0000
,
0100
0000
0000
0000
,
0010
0000
0000
0000
,
0100
0000
0000
0000
,
0001
1000
0000
1000
,
1000
0001
0000
0001
,
0001
1000
0000
0001
,
0010
0000
0100
0000
,
0001
1000
0000
1000
,
1000
0001
0000
0001
,
0001
1000
0000
0001
,
0010
0000
0100
0100
,
1000
0000
0000
0000
,
1000
0000
0000
0000
,
0001
0000
0000
0000
,
1000
0010
0100
0000
,
0001
0001
0000
1000
,
0010
0000
0010
0000
,
0100
0100
0000
0001
,
1000
0000
0100
0000
,
0010
0010
0000
0000
,
0010
0010
0000
0000
,
0100
0100
0000
0000
,
0100
0100
0100
0010
,
1000
0000
0001
0000
,
0100
0000
0100
0000
,
0001
0000
0001
0000
,
1000
0000
1000
0000
,
0100
1000
0010
0001
,
0100
1000
0010
0001
,
0100
1000
0010
0001
,
1000
0000
0011
0000
,
1000
0000
0010
0000
,
0001
0000
0010
0000
,
1000
0000
0010
0000
,
1000
0100
0010
0001
,
0001
0000
0100
0000
,
1000
0000
0100
0000
,
0001
0000
0010
0000
,
0100
0010
0001
1000
,
0001
0000
0000
1000
,
1000
0000
0000
0010
,
0010
0000
0000
0100
,
0010
0001
0010
0100
,
0001
0001
0000
0100
,
0100
0000
0000
0010
,
0010
0000
0000
1000
,
1000
0000
0001
0010
,
0001
1000
0000
1000
,
1000
0100
0000
0010
,
0010
0001
0000
0100
,
1000
0010
0100
0001
,
0001
1000
0000
1000
,
1000
0001
0000
0001
,
0001
1000
0000
0010
,
0100
0000
0010
0001
,
0010
0000
0000
0000
,
0100
0000
0000
0000
,
0001
0000
0000
0000
,
1000
0000
0001
0000
,
0010
0000
0100
0000
,
1000
0000
0010
0000
,
1001
0000
0000
0000
;

//--------------- dance-single - K. Ward ----------------
#NOTES:
     dance-single:
     K. Ward:
     Medium:
     6:
     0.257114,0.319605,0.161417,0.1937,0,223,203,20,24,0,0,0.257114,0.319605,0.161417,0.1937,0,223,203,20,24,0,0:
0000
0000
0000
0000
,
0000
0000
0000
0000
,
0000
0000
0000
0000
,
0000
0000
0000
0000
,
2000
0000
0000
3010
0000
0000
0100
0000
,
0002
0000
0000
0103
0000
0000
0010
0000
,
2000
0000
0000
0001
3000
0000
0100
0000
,
0110
0000
0000
0000
,
1000
0000
1000
0000
0010
0100
0010
0000
,
1000
0000
1000
0000
0001
0010
0001
0000
,
1000
0000
1000
0000
0010
0100
0010
0000
,
1100
0000
0011
0000
,
0001
0000
0001
0000
0100
0010
0100
0000
,
0010
0000
0010
0000
1000
0100
1000
0000
,
0001
0000
0001
0000
1000
0100
1000
0000
,
1100
0000
0011
0000
,
1000
0000
0100
0000
,
1000
0000
0000
0000
0010
0000
0010
0100
,
0010
0000
1000
0000
,
0001
0000
2000
0000
,
3001
0010
0100
0010
,
0001
1000
0001
1000
,
0010
0010
0100
0010
,
1000
0100
0010
0001
,
1000
1000
0001
0000
,
0100
0100
0010
0000
,
1000
1000
0001
1000
,
1000
0001
2000
0000
,
3001
0100
0010
1000
,
2000
0000
3010
0000
,
0100
0001
0010
0001
,
0020
0000
0130
0000
,
0010
0000
0001
0000
0001
0010
0001
0000
,
0100
0000
0100
0000
0010
0100
0001
0000
,
1000
1000
0001
1000
,
1001
0000
0011
0000
,
0010
0001
0001
0100
,
0010
1000
1000
0010
,
1000
0001
0001
0100
,
1001
0000
0110
0000
,
0001
1000
1000
0010
,
0100
0001
0100
0010
,
0010
0100
0100
0001
,
0011
0000
0110
0000
,
2000
0000
0000
3100
0000
0000
0010
0000
,
0020
0000
0000
0130
0000
0000
0001
0000
,
0002
0000
0000
0013
0000
0000
0001
0000
,
0110
0000
1001
0000
,
0002
0000
0000
0103
0000
0000
0100
0000
,
0020
0000
0000
0130
0000
0000
0010
0000
,
2000
0000
0000
3010
0000
0000
0100
0000
,
0001
0100
0010
0010
,
0020
0000
0000
1030
0000
0000
1000
0000
,
0002
0000
0000
0010
0003
0000
0010
0000
,
0002
0000
0000
1003
0000
0000
0100
0000
,
1100
1100
0011
0000
,
2000
0000
0000
3010
0000
0000
0100
0000
,
0002
0000
0000
0013
0000
0000
0001
0000
,
2000
0000
0000
3001
0000
0000
1000
0000
,
1100
1100
0011
0000
,
2000
0000
0000
3010
0000
0000
0010
0000
,
0200
0000
0000
0001
0300
0000
0001
0000
,
0020
0000
0000
0031
0000
0000
0001
0000
,
1000
0001
0100
0001
,
0002
0000
0000
0000
,
2003
0000
0000
3000
,
1001
0000
0000
0000
;

//--------------- dance-single - K. Ward ----------------
#NOTES:
     dance-single:
     K. Ward:
     Hard:
     11:
     0.485403,0.532675,0.403541,0.161417,0.056496,421,371,50,20,0,0,0.485403,0.532675,0.403541,0.161417,0.056496,421,371,50,20,0,0:
0000
0000
0000
0000
,
0000
0000
0000
0000
,
0000
0000
0000
0000
,
0000
0000
0000
0000
,
2010
0010
0010
3010
,
0102
0000
0100
0000
0100
0000
0103
0010
,
0210
0000
0010
0000
0010
0000
0010
0300
,
1001
0000
0000
0000
,
0001
0100
1000
0100
0001
0100
1000
0000
,
1000
0100
0001
0100
1000
0100
0001
0000
,
1000
0010
0001
0010
1000
0010
0001
0000
,
0011
0000
1100
0000
0110
0001
1001
0000
,
0001
0100
1000
0100
0001
0100
1000
0000
,
1000
0100
0001
0100
1000
0100
0001
0000
,
1000
0010
0001
0010
1000
0010
0001
0000
,
0011
0000
1100
0000
0110
0001
1001
0000
,
1000
0001
0000
0100
0000
0110
0110
0000
,
0001
0010
0000
0001
0000
0011
0011
0000
,
1000
0100
0000
1000
0000
1100
1100
0000
,
1000
0010
0001
0010
2000
0000
0001
3000
,
0001
0000
1000
0000
0001
0000
1000
0000
0001
0000
1000
0000
0001
0000
1000
0010
,
0100
0000
0010
0000
0100
0000
0010
1000
0100
0000
0010
0000
0100
0000
0010
0000
,
0001
0000
1000
0000
0001
0000
1000
0000
0001
0000
1000
0000
0001
0000
1000
0010
,
0100
0000
0010
0000
0100
0000
0001
0010
0001
0000
0010
0000
0001
0000
0100
0000
,
0010
1000
0001
1000
1000
0001
1000
0001
,
0010
0010
0001
0100
0010
1000
0100
0100
,
1000
0000
0001
0000
1000
0000
0001
0000
1000
0000
0001
0000
1000
0000
0010
0100
,
0010
0000
0100
0000
0001
0000
0010
0001
0100
0000
0010
0000
0100
0000
0000
0000
,
0011
0001
0100
0100
0000
0010
1000
0001
,
0020
0001
0130
0000
,
0001
0001
0010
0001
0000
0100
0010
1000
,
0200
1000
0310
0000
,
1100
0000
0000
1100
0000
0000
0010
0000
0100
0000
0010
0000
0100
0000
0010
0000
,
0110
0000
0000
0110
0000
0000
0001
0000
0010
0000
0001
0000
0010
0000
0001
0000
,
0011
0000
0000
0011
0000
0000
0001
0000
0010
0000
0100
0000
1000
0000
0100
0000
,
2200
0000
0000
3300
0022
0000
0000
0033
,
1000
0100
0010
0000
0010
0100
1000
0000
,
0001
0100
0001
0000
1000
0010
1000
0000
,
0001
0100
0010
1000
0010
0100
0001
0010
,
1100
0110
0011
0110
,
1000
0100
0010
0000
0010
0100
1000
0000
,
0001
0100
1000
0100
0001
0010
0001
0000
,
1000
0010
0100
0001
0100
0010
1000
0001
,
0011
0000
0110
0000
1100
0010
0110
0000
,
2000
0000
0010
3010
0000
0000
0100
0010
,
0200
0000
0001
0301
0000
0000
1000
0000
,
0020
0000
0100
0130
0000
0000
0001
0010
,
0100
1000
0001
0011
,
2000
0000
0010
3010
0000
0000
0100
0010
,
0200
0000
0001
0301
0000
0000
1000
0000
,
0020
0000
0100
0130
0000
0000
0001
0010
,
0100
0000
0010
0000
0001
1000
1100
0000
,
0001
0100
1000
0100
0001
0100
1000
0000
,
1000
0100
0001
0100
1000
0100
0001
0000
,
1000
0010
0001
0010
1000
0010
0001
0000
,
0011
1100
0110
1001
,
1000
0100
1000
0000
0010
0000
0001
0000
0010
0000
1000
0000
0001
0000
0000
0000
,
0001
0010
0001
0000
0100
0000
1000
0000
0100
0000
0001
0000
1000
0000
0000
0000
,
0100
1000
0100
0000
1000
0000
0010
0000
0001
0000
0010
0000
1000
0000
0000
0000
,
0011
0000
0110
0000
1100
1000
1001
0000
,
0102
0100
0100
0103
,
0210
0000
0010
0000
0010
0000
0310
1000
,
1020
1000
1000
1030
,
2010
0000
0100
0000
0001
0001
3001
0000
,
1000
0010
1000
0000
0010
0000
0000
0000
0010
0000
0000
0000
0010
0000
0000
0000
,
0100
0001
0100
0000
0001
0000
0000
0000
0001
0000
0000
0000
0001
0000
0000
0000
,
1001
0000
0000
0000
;

//--------------- dance-single - C. Foy ----------------
#NOTES:
     dance-single:
     C. Foy:
     Challenge:
     14:
     0.490015,0.666159,0.355117,1.250979,0.230019,425,374,44,155,86,51,0.490015,0.666159,0.355117,1.250979,0.230019,425,374,44,155,86,51:
0000
0000
0000
0000
,
0000
0000
0000
0000
,
0000
0000
0000
0000
,
0000
0000
0000
0000
,
1000
0000
0001
0100
0000
0000
0001
0010
,
0001
0000
0000
0010
0001
0100
0010
0000
0000
0000
1000
0000
0001
0000
1000
0000
,
0010
0000
0000
0010
1000
0100
0010
0000
0000
0000
0001
0000
1000
0000
0001
0000
,
2000
0000
0200
0000
0002
0000
0020
3333
,
0000
0000
0010
0010
0000
0000
2200
0010
,
0010
0000
0001
3301
0000
0000
2002
0000
,
0010
0000
0010
3013
0000
0000
2000
0010
,
0020
3000
0002
0030
0200
0003
2000
0300
,
0002
0000
0010
3013
0000
0000
0202
0010
,
0010
0000
1000
1303
0000
0000
2200
0000
,
0001
0000
0000
0000
0010
0000
3301
0000
0000
0000
0000
0000
2000
0000
0020
3000
,
0002
0030
0000
0000
0200
0003
0000
0000
2000
0300
0000
0000
0020
3000
0030
0000
,
1000
0100
0001
0100
1000
0010
0002
0000
,
0010
0003
1000
0000
0100
0000
0001
0000
0100
0000
1000
0000
0001
0000
0010
0000
,
0001
0100
0010
1000
0100
1000
0002
0000
,
1000
0003
0010
0000
0001
0000
0010
0000
1000
0000
0100
0000
0100
0000
0000
0000
,
2000
0000
0002
3000
2000
0003
0200
3000
0020
0300
0200
0030
0002
0300
0103
0001
,
0200
0000
2000
0300
0200
3000
1300
0001
2000
0000
0200
3000
2000
0300
0020
3000
,
2000
0030
0020
3000
0200
0030
0020
0300
0002
0030
0020
0003
0002
0030
1003
0001
,
2000
0000
0002
3000
0020
0003
1030
0001
2000
0000
0002
3000
0020
0003
2000
0030
,
0020
3000
0002
0030
0200
0003
2000
0300
0200
3000
0020
0300
2000
0030
0200
3000
,
2000
0300
0020
3000
0002
0030
2000
0003
0200
3000
0020
0300
0002
0030
0013
0001
,
0020
0000
2000
0030
0200
3000
0020
0300
2000
0030
0002
3000
2000
0003
0020
3000
,
0200
0030
0020
0300
0002
0030
2000
0003
0020
3000
1000
0030
1000
0000
1000
0000
,
2000
0000
0200
3000
0002
0300
0200
0003
2000
0300
0020
3000
0002
0030
0013
0001
,
0020
0000
2000
0030
0020
3000
1030
0100
1000
0000
2000
0000
0020
3000
0002
0030
,
2000
0003
0002
3000
0020
0003
2000
0030
0200
3000
0020
0300
2000
0030
3010
1000
,
0020
0000
0200
0030
2000
0300
3020
1000
0200
0030
2000
0300
0020
3000
0002
0030
,
0020
0003
0030
0010
1000
0000
1000
0000
1000
0000
0000
1000
0100
0000
0000
0000
,
2200
0000
0000
0000
0000
0000
0010
0000
0001
0000
0000
0001
3310
0000
0000
0000
,
0202
0000
0000
0000
0000
0000
1000
0000
0010
0000
0000
0010
1303
0000
0000
0000
,
0002
0003
0200
0300
,
2002
0000
0010
0020
3003
0000
0000
0000
,
0200
0000
0000
1000
1330
0000
1001
0000
,
0110
0000
0000
0000
2002
0000
0010
3003
0000
0000
0000
0000
0010
0000
0010
0000
,
1101
0000
1110
0000
,
1111
0000
0000
0000
1001
0000
0220
0000
0000
0330
0000
0000
1010
0000
0101
0000
,
1100
0000
0011
1001
0000
0000
2002
0000
,
0100
0000
0010
3013
0000
0000
0000
0000
,
11M1
0000
1M11
1M11
,
0020
0000
0030
0000
200M
0M00
3002
0000
00M0
0000
M003
0000
0M10
000M
M100
0000
,
20M0
000M
3M00
0000
0001
0000
M2M0
0000
000M
0000
M3M0
0000
2002
0000
3MM3
0000
,
2020
000M
3030
0M00
0011
0000
2020
000M
0M00
0000
303M
0000
0101
M000
0110
0000
,
2002
0MM0
0000
0000
0000
0000
0000
0000
01M0
0000
0000
0000
0000
0000
0000
0000
0M10
0000
0000
0000
0000
0000
0000
0000
3M13
0000
0000
0000
0000
0000
0000
0000
,
0220
000M
1000
133M
0000
0000
2002
0010
,
3013
0000
1010
0101
0000
0000
0110
0000
,
0020
0000
0100
0130
0000
0000
0200
0010
,
0310
2002
0010
3013
,
0010
0000
0000
1000
0000
0000
0200
0000
0000
0000
0000
0000
M00M
0000
0000
0000
0000
0000
0000
0000
00M0
0000
0000
0000
M00M
0000
0000
0000
0000
0000
0300
0000
0000
0000
0000
0000
1010
0000
0000
0000
0000
0000
0000
0000
000M
0000
0000
0000
,
0010
1000
0100
0000
0100
0000
0000
0000
11MM
0000
0000
0000
MM11
0000
0000
0000
,
0001
1000
0100
0000
1000
0010
0200
0000
M0M0
0000
000M
0000
M0M0
0000
030M
0000
,
0001
0100
0010
0000
1000
0000
0000
1000
0100
0000
0000
0000
M11M
0000
0000
0000
,
0100
1000
0001
0000
0010
0000
0000
0000
0100
0000
0000
0000
1MM1
0000
0000
0000
,
0100
1000
0010
0000
1000
0000
0M0M
0000
0010
M000
0M0M
0000
0010
0000
0M0M
0000
,
1000
0100
0010
0000
0010
0001
M200
0000
00M0
0000
000M
0000
00M0
0000
M30M
0000
,
0001
0100
0010
0000
1000
0000
0000
0100
1000
0000
0000
0000
0010
0000
0000
0000
,
0010
0100
M02M
0000
0M00
0000
0000
000M
M000
0000
0030
0000
0M10
000M
M000
0000
,
0010
1000
0001
0000
2MM2
0000
0000
0000
0010
0000
0000
0000
3M13
0000
0000
0000
,
0001
1000
0100
0000
1000
0100
0020
0000
M00M
0000
0M00
0000
M000
0000
0M3M
0000
,
0010
0001
0100
0000
0001
0000
0000
1000
1000
0000
0000
0000
0110
0000
0000
0000
,
0010
1000
0100
0000
0010
0001
0100
0000
0010
1000
0100
0000
1000
0100
1000
0000
,
0010
1000
0100
0000
0100
1000
0010
0000
1000
0001
0100
0000
0001
1000
0100
0000
,
M01M
0M00
0000
0000
0000
0000
0000
0000
0000
0000
0000
0000
0000
0000
0000
0000
0000
0000
0000
0000
0000
0000
0000
0000
0000
0000
0000
0000
0000
0000
0000
0000
;

//--------------- dance-double - M. Emirzian ----------------
#NOTES:
     dance-double:
     M. Emirzian:
     Easy:
     3:
     0.192547,0.236072,0.016142,0.048425,0,167,165,2,6,0,0,0.192547,0.236072,0.016142,0.048425,0,167,165,2,6,0,0:
00000000
00000000
00000000
00000000
,
00000000
00000000
00000000
00000000
,
00000000
00000000
00000000
00000000
,
00000000
00000000
00000000
00000000
,
00001000
00000000
00010000
00000000
,
00100000
01000000
00100000
00000000
,
10000000
00000000
01000000
00000000
,
00100000
01000000
00100000
00000000
,
00010000
01000000
00010000
01000000
,
00001000
00010000
00001000
00010000
,
00000010
00001000
00000010
00001000
,
00000000
00001000
00000000
00001000
,
00000100
00000010
00000100
00000010
,
00000001
00000100
00000001
00000100
,
00000010
00010000
00000010
00010000
,
00000000
00010000
00000000
00010000
,
00001000
00010000
00000000
00000000
,
01000000
10000000
00000000
00000000
,
00100000
01000000
00000000
00000000
,
00001000
00010000
00000000
00000000
,
00000200
00000000
00000310
00000000
,
00000002
00000000
00000103
00000000
,
00000020
00000000
00001030
00000000
,
00010010
00000000
00011000
00000000
,
00200000
00000000
00310000
00000000
,
02000000
00000000
03100000
00000000
,
10000000
01000000
00010000
00000000
,
00001000
00000010
00000001
00000100
,
00000000
00000010
00000000
00000010
,
00000000
00010000
00000000
00010000
,
00000000
00001000
00000000
00001000
,
00000000
01000000
00000000
01000000
,
00000000
00010000
00000000
00010000
,
00000000
10000000
00000000
10000000
,
00000000
01000000
00000000
01000000
,
00010000
00001000
00000010
00000000
,
00000001
00000100
00000010
00000000
,
00000100
00000010
00001000
00000000
,
00000100
00010000
00001000
00000000
,
00010000
00001000
00100000
00000000
,
01000000
10000000
00010000
00000000
,
01000000
00010000
10000000
00000000
,
01000000
00010000
00001000
00000000
,
00010000
00001000
00000100
00000000
,
00000001
00000100
00000001
00000100
,
00000010
00010000
00000010
00010000
,
00001000
00010000
00001000
00010000
,
00000000
00010000
00000000
00010000
,
00001000
00010000
00001000
00010000
,
00001000
00100000
01000000
00100000
,
01000000
10000000
01000000
10000000
,
00000000
10000000
00000000
10000000
,
10000000
00000000
01000000
00000000
,
00100000
00010000
00100000
00000000
,
00001000
00000000
00010000
00000000
,
00000100
00000010
00000100
00000000
,
00000001
00000000
00000100
00000000
,
00000010
00001000
00000010
00000000
,
00010000
00000000
00001000
00000000
,
01000000
00010000
01000000
00000000
,
00100000
00000000
00000000
10000000
,
01000000
00000000
00000000
01000000
,
00010000
00000000
00000000
00010000
,
00001000
00000000
00000010
00000001
,
00000010
00000000
00000200
00000000
,
00000300
00000000
00000000
00000000
;

//--------------- dance-double - M. Emirzian ----------------
#NOTES:
     dance-double:
     M. Emirzian:
     Medium:
     6:
     0.357422,0.393453,0.072637,0.072637,0,310,301,9,9,0,0,0.357422,0.393453,0.072637,0.072637,0,310,301,9,9,0,0:
00000000
00000000
00000000
00000000
,
00000000
00000000
00000000
00000000
,
00000000
00000000
00000000
00000000
,
00000000
00000000
00000000
00000000
,
00010000
00001000
00010000
00100000
,
10000000
00000000
01000000
00010000
01000000
00000000
10000000
01000000
,
00010000
00000000
00001000
00010000
00000000
00000000
00001000
00000010
,
00000001
00000000
00000100
00000000
00000001
00000010
00001000
00000000
,
00010000
00000000
01100000
00000000
10010000
00000000
01000000
00010000
,
00001000
00000010
00000001
00000010
00000100
00001000
00000010
00000000
,
00000100
00000000
00001000
00010000
01000000
00000000
10000000
00000000
,
00010000
10000000
01000000
00000000
00100000
00010000
10000000
00000000
,
01000000
00000000
00101000
00000000
00011000
00000000
00001000
00000010
,
00000001
00000100
00000010
00001000
00000100
00000010
00001000
00000000
,
00010000
00000000
01000000
00100000
00010000
00000000
01000000
00000000
,
00010000
01000000
10000000
00000000
01000000
00010000
10000000
00000000
,
00100000
01000000
00000000
02000000
00000000
00001000
00000000
03000000
,
00001000
00010000
00000000
00020000
00000000
00000100
00000000
00030000
,
00000100
00001000
00000000
00002000
00000000
00000010
00000000
00003000
,
00000010
00000100
00000000
00000200
00000000
00000001
00000000
00000300
,
00000100
00000010
00001000
00000000
00001000
00000010
00000100
00000000
,
00000100
00001000
00010000
00000000
00001000
00000000
00010000
00000000
,
00001000
01000000
00100000
00000000
00100000
10000000
01000000
00000000
,
01000000
10000000
00010000
00000000
00100000
00000000
00001000
00000000
,
00010000
00000100
00000010
00000000
00000010
00000100
00001000
00000000
,
00001000
00000001
00000100
00000000
00000010
00000000
00000010
00000000
,
00000100
00000100
00001000
00010000
,
00001000
00001000
00010000
00010000
,
01000000
10000000
00010000
00000000
00010000
01000000
00100000
00000000
,
00100000
00010000
00001000
00000000
00010000
00000000
00000100
00000000
,
00001000
00000010
00000100
00000000
00000100
00001000
00010000
00000000
,
00010000
00000010
00001000
00000000
00000100
00000000
00000001
00000000
,
00000100
00001000
00000010
00000000
00000010
00010000
00001000
00000000
,
00001000
00010000
01000000
00000000
10000000
00000000
10000000
00000000
,
01000000
01000000
00010000
00010000
,
00001000
00000000
00001000
00000000
,
00011000
00000000
00001000
00010000
00000100
00000000
00001000
00000000
,
00000010
00000100
00000001
00000000
00001001
00000000
00000100
00000000
,
00000010
00001000
00000100
00000000
00010000
00000000
00001000
00000000
,
01000000
00100000
10000000
00000000
10000000
01000000
00010000
00001000
,
00000100
00000000
00000001
00000100
00000010
00000000
00001000
00000000
,
00000100
00010000
00001000
00000000
01001000
00000000
00001000
00000000
,
01000000
00100000
10000000
00000000
00010000
00000000
10000000
00000000
,
01000000
00010000
00001000
00000000
00010000
00001000
00000010
00000000
,
00000001
00000000
00001000
00000100
00000000
00000000
00000010
00000000
,
00000001
00000100
00000010
00000100
00000000
00000000
00001000
00000000
,
00010000
00000000
00001000
00100000
00010000
00000000
01000000
00100000
,
10000000
00000000
01000000
00000000
00010000
01000000
10000000
00000000
,
10000000
01000000
00010000
00001000
00000010
00000001
00000100
00000000
,
00000010
00000000
00001000
00000100
00000010
00000000
00000001
00000000
,
00000100
00000010
00000100
00001000
00010000
00000000
00001000
01000000
,
00100000
00000000
10000000
00000000
01000000
00010000
00001000
00000000
,
00010000
00000000
00010000
00000100
00000000
00000000
00000100
00000000
,
00001000
00000000
00000010
00000100
00000000
00000001
00000100
00000000
,
00001000
00000000
00010000
01000000
00000000
00000000
10000000
00010000
,
01000000
00100000
10000000
00000000
01000000
00100000
00001000
00000000
,
00010000
00000000
00000100
00001000
00000000
00000000
00000010
00000100
,
00000001
00000100
00001000
00010000
00000000
01000000
10000000
00100000
,
01000000
00000000
00010000
10000000
00000000
00000000
01000000
00000000
,
00100000
00001000
00010000
00000000
00011000
00000000
00010010
00000000
,
00000200
00000000
00000300
00000100
,
00000002
00000000
00000003
00000001
,
00000200
00000000
00000300
00001000
,
00002000
00000000
00013000
01000000
,
10000000
00000000
00020000
00000000
,
00030000
00000000
00000000
00000000
;

//--------------- dance-double - M. Emirzian ----------------
#NOTES:
     dance-double:
     M. Emirzian:
     Hard:
     8:
     0.47272,0.477591,0.09685,0.088779,0.129133,410,398,12,11,0,0,0.47272,0.477591,0.09685,0.088779,0.129133,410,398,12,11,0,0:
00000000
00000000
00000000
00000000
,
00000000
00000000
00000000
00000000
,
00000000
00000000
00000000
00000000
,
00000000
00000000
00000000
00000000
,
00001000
00000000
00010000
00200000
00000000
00000000
10300000
00000000
,
01000000
10000000
00010000
20000000
00000000
30100000
01000000
00000000
,
00100000
00000000
00010000
00002000
00000000
00000000
00013000
00001000
,
00000100
00000001
00000010
00000100
,
00001000
00000100
00001000
00000001
00000100
00000000
00000001
00000100
,
00001000
00010000
01000000
00100000
00010000
10000000
00100000
00000000
,
10000000
00010000
01000000
00100000
10000000
00000000
01000000
00010000
,
00001000
00010000
00000000
00000000
00101000
00000000
00000000
00000000
00001000
00010000
00000000
00000000
00010010
00000000
00000000
00000000
,
00001000
00010000
00000100
00010000
00001000
00000000
01000000
00100000
,
00010000
00001000
00000010
00000100
00001000
00000001
00000010
00000000
,
00000100
00001000
00000010
00001000
00000100
00000000
00000010
00000001
,
00000100
00000010
00000000
00000000
00001001
00000000
00000000
00000000
00000010
00000100
00000000
00000000
00001000
00000000
00000100
00000000
,
00000020
00000000
00000001
00000000
00000000
00000000
00000100
00000030
00000000
00000000
00010000
00000000
00010000
00000000
00000000
00000000
,
00002000
00000000
00000100
00000000
00000000
00000000
00010000
00003000
00000000
00000000
01000000
00000000
01000000
00000000
10000000
00000000
,
20000000
00000000
00100000
00000000
00000000
00000000
01000000
30000000
00000000
00000000
00100000
00000000
00100000
00000000
00000000
00000000
,
00002000
00000000
00010000
00000000
00000000
00000000
00000100
00003000
00000000
00000000
00010000
00000000
00010000
00000000
00000000
00000000
,
00011000
00000100
00000010
00000100
00001000
00000010
00000100
00000000
,
00000101
00000010
00001000
00000100
00000001
00000100
00001000
00000000
,
00010100
00001000
00010000
00100000
01000000
00010000
10000000
00000000
,
11000000
00100000
01000000
10000000
01000000
00010000
00100000
00000000
,
01000000
10000000
00010000
00000000
10000000
01000000
00010000
00000000
,
00001000
00000100
00000010
00010000
00001000
00000010
00000001
00000010
,
00000100
00001000
00000010
00000000
00000100
00000001
00001000
00000000
,
00000010
00010000
00001000
00010000
00100000
01000000
00010000
00000000
,
10000000
01000000
00000000
00000000
00100000
00010000
00000000
00000000
10000000
00000000
01000000
00000000
00100000
00000000
00000000
00000000
,
01000000
10000000
00000000
00000000
00010000
01000000
00000000
00000000
00001000
00000000
00010000
00000000
00000100
00000000
00000000
00000000
,
00010000
00000010
00000000
00000000
00001000
00000100
00000000
00000000
00000010
00000000
00000001
00000000
00000100
00000000
00000000
00000000
,
00000010
00001000
00000000
00000000
00000001
00000100
00000000
00000000
00000010
00000000
00001000
00000000
00000100
00000000
00000000
00000000
,
00010000
00000000
00000000
00001000
00000000
00000000
00000100
00000000
00001000
00000000
00000000
00010000
00000000
00000000
01000000
00000000
,
00100000
00000000
00000000
00010000
00000000
00000000
00100000
00000000
01000000
00000000
00000000
10000000
00000000
00000000
00100000
00000000
,
01000000
00000000
00000000
00001000
00000000
00000000
00010000
00000000
00000100
00000000
00000000
00001000
00000000
00000000
00000010
00000000
,
00000100
00000001
00000020
00000000
,
00000130
00001000
00000001
00000100
00001000
00010000
01000000
00100000
,
00010000
00100000
00010000
00000000
01000000
00000000
00100000
00000000
10000000
00000000
01000000
00000000
00100000
00000000
00000000
00000000
,
00010000
01000000
00100000
10000000
00010000
10000000
01000000
00010000
,
00001000
00010000
00000000
00000000
00000010
00000000
00000100
00000000
00000001
00000010
00000000
00000000
00000110
00000000
00000000
00000000
,
00001000
00000010
00000100
00001000
00010000
00001000
00000100
00000010
,
00001000
00000010
00001000
00000000
00000100
00000000
00000010
00000000
00000001
00000000
00000010
00000000
00000100
00000000
00000000
00000000
,
00001000
00000001
00000100
00000010
00010000
00001000
01000000
00010000
,
10000000
00010000
00000000
00000000
00100000
00000000
01000000
00000000
10000000
00010000
00000000
00000000
01100000
00000000
00000000
00000000
,
00010000
01000000
00100000
10000000
01000000
00000000
10000000
01000000
,
00100000
00010000
00100000
00001000
00010000
00000010
00001000
00000000
,
00000010
00000100
00000001
00000100
00000010
00000000
00010000
00000100
,
00010000
00001000
00000000
00000000
01001000
00000000
00000000
00000000
00010000
10000000
00000000
00000000
01100000
00000000
00000000
00000000
,
10000000
01000000
00100000
00010000
01000000
00000000
00100000
10000000
,
01000000
00010000
00001000
00000100
00000010
00001000
00000010
00000000
,
00000100
00001000
00000010
00000100
00000001
00000000
00010000
00001000
,
01000000
00100000
00000000
00000000
10010000
00000000
00000000
00000000
01000000
00100000
00000000
00000000
00010000
00000000
01000000
00000000
,
10000000
01000000
00010000
00100000
01000000
10000000
00010000
00000000
,
10000000
01000000
00010000
00001000
00000010
00000100
00001000
00000000
,
00000001
00000100
00000010
00001000
00000001
00000010
00000100
00001000
,
00000001
00000100
00000000
00000000
00000010
00000000
00001000
00000000
00000010
00000100
00000000
00000000
00000001
00000000
00000100
00000000
,
00000010
00000100
00001000
00010000
01000000
00100000
00010000
00000000
,
10000000
01000000
00100000
00010000
10000000
01000000
00010000
00000000
,
01000000
00100000
01000000
00010000
00001000
00000100
00000010
00001000
,
00000100
00000010
00000000
00000000
00000100
00000000
00001000
00000000
00000001
00000100
00000000
00000000
00000010
00000000
00001000
00000000
,
00000100
00000000
00010000
00002000
00000000
00000000
00003100
00000000
,
00001000
00010000
01000000
00100000
00000000
00010000
01000000
00000000
,
00100000
00000000
10000000
02000000
00000000
00000000
03010000
00001000
,
01000000
00001000
00010000
00001000
,
00000100
00000000
00000001
00000000
,
00000020
00000000
00000000
00000030
;

//--------------- dance-double - M. Emirzian ----------------
#NOTES:
     dance-double:
     M. Emirzian:
     Challenge:
     9:
     0.567264,0.55719,0.169487,0.056496,0.145275,492,471,21,7,6,0,0.567264,0.55719,0.169487,0.056496,0.145275,492,471,21,7,6,0:
00000000
00000000
00000000
00000000
,
00000000
00000000
00000000
00000000
,
00000000
00000000
00000000
00000000
,
00000000
00000000
00000000
00000000
,
10000000
00100000
00010000
00001000
00000010
00000100
00001000
00000000
,
00000001
00000100
00001000
00000100
00000001
00000010
00000100
00000000
,
00001000
00000001
00000010
00001000
00010000
00100000
01000000
00010000
,
10010000
00000000
00000000
00000000
11000000
00000000
00000000
00000000
10000000
01000000
00000000
00000000
00010000
01000000
00000000
00000000
,
10000000
00000000
00100000
00000000
00010000
00000000
00100000
01000000
00100000
00000000
00010000
00000000
00001000
00000000
00000010
00000000
,
00000100
00000000
00001000
00000000
00000001
00000000
00000100
00000000
00000010
00001000
00000010
00000000
00000100
00000000
00001000
00000000
,
00010000
00000000
01000000
00000000
00010000
00000000
00001000
00010000
00001000
00000000
00100000
00000000
01000000
00000000
10000000
00000000
,
00100000
01000000
00100000
00000000
10000000
00000000
01000000
00000000
00100000
00010000
00100000
00000000
01000000
00000000
00010000
00000000
,
00001000
00000000
00000100
00000000
00000010
00000000
00001000
00000001
00001000
00000000
00000100
00000000
00000010
00000000
00000100
00000000
,
00010000
00000000
00001000
00000000
00000100
00000000
00001000
00000000
00010000
00001000
00010000
00000000
00100000
00000000
01000000
00000000
,
00010000
00000000
00100000
00000000
01000000
00000000
10000000
00010000
10000000
00000000
00100000
00000000
00010000
00000000
00001000
00000000
,
00000100
00000010
00001000
00000000
00000100
00000000
00000010
00000000
00000001
00001000
00000001
00000000
00000100
00000000
00000010
00000000
,
00001000
00000200
00000000
00001300
00000000
00000001
00000100
00000000
,
00001000
00000200
00000000
00000301
00000000
00000010
00001000
00010000
,
00100000
00020000
00000000
00031000
00000000
00010000
01000000
00000000
,
00100000
00020000
00000000
01030000
00000000
10010000
00000000
10000000
,
01000000
00000000
00010000
00000000
01000000
00000000
10000000
00000000
01000000
00000000
00010000
00000000
00001000
00000000
00010000
00001000
,
00000100
00000001
00000010
00000100
00010000
00001000
00000010
00000001
,
00000100
00000000
00001000
00000000
00000100
00000000
00000001
00000000
00000100
00000000
00001000
00000000
00010000
00000000
00001000
00010000
,
01000000
10000000
00010000
01000000
10000000
01000000
00010000
00100000
,
01000000
10000000
01100000
00000000
00010000
00100000
01100000
00000000
,
10000000
01000000
00010000
00001000
00000100
00001000
00010000
00000010
,
00000100
00000001
00001001
00000000
00000010
00000100
00001001
00000000
,
00001000
00000010
00000001
00000010
00010000
00001000
00000100
00000001
,
00000010
00000000
00001000
00000000
00000010
00000000
00000001
00000000
00000010
00000000
00001000
00000000
00010000
00000000
00001000
00010000
,
00100000
10000000
01000000
00100000
00001000
00010000
01000000
10000000
,
00100000
00000000
00010000
00000000
00100000
00000000
10000000
00000000
00100000
00000000
00010000
00000000
00001000
00000000
00010000
00001000
,
00000010
00000001
00000100
00000010
00001000
00000100
00000010
00000001
,
00000100
00000010
00001001
00000000
00000010
00000100
00001001
00000000
,
00000100
00001000
00010000
01000000
00010000
00001000
01000000
00100000
,
10000000
00000000
00000000
01000000
00000000
00000000
00010000
00000000
00001000
00000000
00000000
00000100
00000000
00000000
00001000
00000000
,
00010000
00000000
01100000
00000000
00010000
01000000
10000000
00000000
,
00100000
01000000
00001000
00010000
00100000
00010000
00001000
00000010
,
00000001
00001000
00000001
00000000
00000100
00000000
00001000
00000000
00000100
00000000
00000001
00000000
00000010
00000000
00000100
00000000
,
00001001
0000M00M
00000110
00000000
00010100
00010000
00001000
00000100
,
00001000
00010000
00001000
00000000
00010000
00000000
01000000
00000000
00100000
00010000
00100000
00000000
10010000
00000000
00000000
00000000
,
00100000
10000000
00010000
01000000
10000000
01000000
00010000
00100000
,
00001000
00010000
00001000
00000000
00010000
00000000
01000000
00000000
00010000
00000000
00001000
00000000
00000010
00000000
00000001
00000000
,
00000110
00000MM0
00001001
00000000
00000110
00000100
00000001
00000010
,
00000100
00001000
00000100
00000000
00010000
00000000
00100000
00000000
00010000
00001000
00010000
00000000
01001000
00000000
00000000
00000000
,
00010000
00000000
01000000
00000000
10000000
00000000
00010000
10000000
00010000
00000000
00100000
00000000
01000000
00000000
10000000
00000000
,
00100000
00000000
00010000
00000000
00001000
00000000
00100000
00000000
01000000
00100000
01000000
00000000
10000000
00000000
01000000
00000000
,
00010000
00000000
00001000
00000000
00000100
00000000
00001000
00010000
00001000
00000000
00010000
00000000
00001000
00000000
00000010
00000000
,
00000001
00001000
00000001
00000000
00000100
00000000
00000010
00000000
00001000
00000001
00001000
00000000
00000100
00000000
00000010
00000000
,
00001000
00000000
00010000
00000000
01000000
00000000
00010000
00001000
00010000
00000000
00100000
00000000
10000000
00000000
01000000
00000000
,
00010000
00000000
01000000
00000000
10000000
00000000
00100000
00000000
01000000
00010000
01000000
00000000
00100000
00000000
00010000
00000000
,
00001000
00000000
00010000
00000000
01000000
00000000
00010000
00001000
00010000
00000000
00001000
00000000
00000100
00000000
00000001
00000000
,
00000010
00000100
00000010
00000000
00000001
00000000
00000100
00000000
00000010
00001000
00000010
00000000
00001000
00000000
00000100
00000000
,
00000010
00001000
00010000
00100000
10000000
00000000
01000000
00010000
,
01000000
10000000
00100000
01000000
00001000
00010000
00100000
00000000
,
10000000
00100000
00010000
00001000
00000010
00000100
00001000
00000001
,
00000100
00000010
00000100
00000000
00000001
00000000
00000010
00000000
00000100
00001000
00000100
00000000
00000010
00000000
00000001
00000000
,
00000010
00001000
00010000
00100000
00010000
00001000
01000000
00100000
,
00010000
00001000
00100000
01000000
10000000
00010000
00110000
00MM0000
,
10000000
01000000
00010000
01000000
10000000
01000000
00010000
00001000
,
00000100
00000010
00001000
00000001
00000010
00000100
00001000
00000001
,
00000110
00000000
00001000
00000002
00000000
00000103
00001000
00000000
,
00010000
00000100
00010000
00001000
00000000
00000000
01001000
00000000
,
00100000
00000000
10000000
02000000
00000000
03000000
00100000
00010000
,
01000000
00000000
00100000
00000000
00010000
00001000
00000100
00001000
,
00010000
00001000
00000100
00000001
,
00000020
00000000
00000000
00000030
;

//--------------- lights-cabinet - ----------------
#NOTES:
     lights-cabinet:
     :
     Easy:
     1:
     0.490015,0.585942,0.532675,0,0.008071,425,356,66,0,0,2,0.490015,0.585942,0.532675,0,0.008071,425,356,66,0,0,2:
000000
000000
000000
000000
,
000000
000000
000000
000000
,
000000
000000
000000
000000
,
110000
001100
101000
010100
,
101000
101000
101000
101000
,
010100
010100
010100
010100
,
101000
101000
101000
101000
,
100100
011000
110000
001100
,
000100
010000
100000
010000
000100
010000
100000
000000
,
100000
010000
000100
010000
100000
010000
000100
000000
,
100000
001000
000100
001000
100000
001000
000100
000000
,
001100
110000
011000
100100
,
000100
010000
100000
010000
000100
010000
100000
000000
,
100000
010000
000100
010000
100000
010000
000100
000000
,
100000
001000
000100
001000
100000
001000
000100
000000
,
001100
110000
011000
100100
,
100000
011000
000100
011000
100000
011000
011000
000000
,
100000
011000
000000
011000
000000
011100
001000
000000
,
000100
011000
000000
100100
000000
011000
100100
000000
,
001000
011000
000000
100100
000000
011000
100100
000000
,
000100
100000
000100
100000
000100
100000
000100
100000
,
001000
010000
001000
010000
001000
010000
001000
010000
,
000100
100000
000100
100000
000100
100000
000100
100000
,
000100
001000
000100
010000
100000
010000
000100
000100
,
100000
000100
100000
000100
100000
000100
100000
000100
,
010000
001000
010000
001000
010000
001000
010000
001000
,
100000
000100
100000
000100
100000
000100
100000
000100
,
100000
010000
100000
001000
000100
001000
100000
100000
,
000100
000100
010000
010000
000000
000100
100000
000100
,
001000
000000
000100
000000
,
100000
100000
000100
100000
000000
100000
000100
100000
,
000100
000000
001000
000000
,
000100
000100
100000
000100
100000
000100
100000
000100
,
010000
010000
001000
010000
001000
010000
001000
010000
,
001000
001000
100000
001000
100000
001000
100000
000000
,
110000
000000
001100
000000
,
100000
010000
001000
000000
001000
010000
100000
000000
,
000100
010000
000100
000000
100000
001000
100000
000000
,
000100
010000
001000
100000
001000
010000
000100
001000
,
110000
011000
001100
011000
,
100000
010000
001000
000000
001000
010000
100000
000000
,
000100
010000
000100
000000
100000
001000
100000
000000
,
000100
010000
001000
100000
001000
010000
000100
001000
,
110000
011000
001100
011000
,
100000
000000
000000
001000
000000
000000
010000
001000
,
010000
000000
000000
000100
000000
000000
100000
000000
,
001000
000000
000000
010000
000000
000000
100000
001000
,
010000
001000
010000
000100
,
100000
000000
000000
001000
000000
000000
010000
001000
,
010000
000000
000000
000100
000000
000000
100000
000000
,
001000
000000
000000
010000
000000
000000
100000
001000
,
010000
001000
010000
000100
,
000100
010000
100000
010000
000100
010000
100000
000000
,
100000
010000
000100
010000
100000
010000
000100
000000
,
100000
001000
000100
001000
100000
001000
000100
000000
,
001100
110000
011000
100100
,
100000
001000
000100
001000
100000
001000
000100
000000
,
000100
001000
100000
001000
000100
001000
100000
000000
,
000100
010000
100000
010000
000100
010000
100000
000000
,
110000
001100
011000
100100
,
010100
010000
010000
010000
,
011000
001000
001000
001000
,
011000
010000
010000
010000
,
101000
001000
001000
001000
,
100000
001000
100000
000000
001000
000000
000000
000000
001000
000000
000000
000000
001000
000000
000000
000000
,
000100
010000
000100
000000
010000
000000
000000
000000
010000
000000
000000
000000
010000
000000
000000
000000
,
111100
000000
000000
000000
;
