#TITLE:Perfect;
#SUBTITLE:;
#ARTIST:Sammi Morelli;
#TITLETRANSLIT:;
#SUBTITLETRANSLIT:;
#ARTISTTRANSLIT:;
#GENRE:;
#CREDIT:;
#MUSIC:Perfect.ogg;
#BANNER:perfect.png;
#BACKGROUND:Perfect-bg.png;
#CDTITLE:;
#SAMPLESTART:39.240;
#SAMPLELENGTH:16.800;
#SELECTABLE:YES;
#OFFSET:-0.584;
#BPMS:0.000=100.000;
#STOPS:;
#DISPLAYBPM:100.000;
#BGCHANGES:;
#FGCHANGES:;

//--------------- dance-single - K. Ward ----------------
#NOTES:
     dance-single:
     K. Ward:
     Beginner:
     1:
     0.085881,0.12324,0.040078,0,0,75,70,5,0,0,0,0.085881,0.12324,0.040078,0,0,75,70,5,0,0,0:
0000
0000
0000
0000
,
0000
0000
0000
0000
,
0010
0000
0000
0000
,
0000
0000
0000
0000
,
1000
0000
0000
0000
,
0001
0000
0000
0000
,
1000
0000
0000
0000
,
0001
0000
0000
0000
,
0010
0000
0010
0000
,
0010
0000
0000
0000
,
0001
0000
0001
0000
,
0001
0000
0000
0000
,
1000
0000
0000
0000
,
0010
0000
0010
0000
,
0100
0000
0000
0000
,
0100
0000
0100
0000
,
1001
0000
1001
0000
,
0000
0000
0001
0000
,
0000
0000
1000
0000
,
1000
0000
0010
0000
,
0000
0000
0100
0000
,
0100
0000
0001
0000
,
0001
0000
0010
0000
,
0000
0000
1001
0000
,
1001
0000
0000
0000
,
0010
0000
0100
0000
,
0001
0000
0000
0000
,
1000
0000
0001
0000
,
1000
0000
0000
0000
,
1000
0000
0000
0000
,
0001
0000
0000
0000
,
0001
0000
0000
0000
,
0010
0000
0010
0000
,
0100
0000
0100
0000
,
0001
0000
1000
0000
,
1001
0000
0000
1000
,
0000
0000
0000
0001
,
0000
0000
0000
0010
,
0000
0000
0000
0010
,
0000
0001
0000
1000
,
0000
0000
0000
0100
,
0000
0100
0000
1000
,
0000
0000
0000
0001
,
0000
0001
0000
0010
,
0000
0000
0000
0001
,
0000
0000
0000
1000
,
0000
1000
0000
1000
,
0000
0000
0000
0010
,
0000
0100
0000
0001
,
0000
0001
0000
1000
,
0000
1000
0000
0001
,
0000
0001
0000
0000
;

//--------------- dance-single - R. McKanna ----------------
#NOTES:
     dance-single:
     R. McKanna:
     Easy:
     3:
     0.183213,0.308099,0.088171,0.024047,0,160,149,11,3,0,0,0.183213,0.308099,0.088171,0.024047,0,160,149,11,3,0,0:
0000
0000
0000
0000
,
0000
0000
0000
0000
,
0020
0000
0000
0000
,
0000
0000
0000
0030
,
1000
0000
1000
0000
,
0100
0000
0100
0000
,
0010
0000
0010
0000
,
0001
0001
0001
0000
,
1000
0000
0001
0000
,
0100
0100
0010
0000
,
1000
0000
0001
0000
,
0100
0100
0010
1000
,
0001
0000
1000
0000
,
0010
0010
0100
0000
,
0001
0000
1000
0000
,
0010
0010
0100
0001
,
1000
0001
1000
0001
1000
0000
0100
0000
,
0001
0000
1000
0100
,
0001
0000
1000
0100
,
0001
0001
0010
1000
,
1000
0000
0001
0100
,
1000
0000
0001
0100
,
1000
0000
0001
0100
,
1000
1000
0010
0001
,
0001
0000
0001
0000
,
0010
0000
0010
0000
,
0100
0000
0100
0000
,
1000
1000
1000
0000
,
0100
0000
0100
0001
,
1000
0000
0001
0100
,
1000
0000
0100
0000
,
0001
0001
0010
0100
,
1000
0000
0001
0010
,
0100
0000
0010
1001
,
0110
1001
0110
1001
,
0110
2002
0003
3100
,
0100
0000
0001
0000
,
0001
1000
0001
0000
1000
0001
1000
0000
,
0010
0001
1000
0100
,
0010
1001
0110
0001
,
0001
0010
0000
0010
,
0010
0100
0000
0100
,
0100
1000
0000
1000
,
0100
1001
0100
0100
,
0001
0010
0000
0100
,
0001
0010
0000
0100
,
0001
0010
0010
1000
,
0100
0100
0000
0010
,
0001
0100
0000
0010
,
0001
0100
0000
0010
,
0001
0100
0100
1000
,
0010
1001
0000
0000
;

//--------------- dance-single - R. McKanna ----------------
#NOTES:
     dance-single:
     R. McKanna:
     Medium:
     6:
     0.28169,0.288962,0.120234,0.080156,0.03607,246,231,15,10,0,0,0.28169,0.288962,0.120234,0.080156,0.03607,246,231,15,10,0,0:
0000
0000
0000
0000
,
0000
0000
0000
0000
,
2000
0000
0001
0000
,
0001
0000
0000
0000
0001
0001
0001
0001
,
3001
0000
0000
0000
0020
0000
0000
0130
0000
0000
0000
0000
1000
0000
0000
0000
,
0001
0000
0000
0000
0020
0000
0000
0130
0000
0000
0000
0000
1000
0000
0000
0000
,
1000
0000
0000
0000
0200
0000
0000
0310
0000
0000
0000
0000
0001
0000
0000
0000
,
1000
0000
0000
0000
0200
0000
0000
0310
0000
0000
0000
0000
0001
0000
0000
0000
,
0001
0000
0100
0000
0010
0000
1000
0100
,
0010
0001
0100
0000
,
0001
0000
0100
0000
0010
0000
1000
0001
,
0010
0100
0100
1001
,
0100
0000
0001
0000
0010
0000
0100
0010
,
0001
0100
1000
0000
,
0001
0000
0010
0000
0100
0000
1000
0100
,
0010
0001
0100
1001
,
0100
0100
0100
0100
0100
0000
0100
0010
,
0100
0000
1001
0000
0010
0000
0100
0010
,
0100
0000
1001
0000
1000
0100
0010
0000
,
0001
0000
0100
1000
0010
0000
0100
0000
,
1001
0000
0000
0000
0010
0000
0010
0100
,
0010
0000
1001
0000
0100
0000
0010
0100
,
0010
0000
1001
0000
0001
0010
0100
0000
,
1000
0000
0010
0001
0100
0000
0010
0000
,
0110
0000
0000
0000
2000
0000
0000
3001
0000
0000
0000
0000
0100
0000
0000
0000
,
0010
0000
0000
0000
2000
0000
0000
3001
0000
0000
0000
0000
0100
0000
0000
0000
,
0100
0000
0000
0000
0002
0000
0000
1003
0000
0000
0000
0000
0010
0000
0000
0000
,
0100
0000
0000
0000
0002
0000
0000
1003
0000
0000
0000
0000
0000
0000
0000
0000
,
0100
0100
0100
0000
0010
0000
0001
0000
,
0100
0100
0100
0000
0010
0000
1000
0000
,
0100
0100
0100
0000
1000
0000
0001
0000
,
0100
0100
0100
0000
0010
0000
0010
0000
,
1000
1000
1000
0000
0100
0000
1000
0000
,
0001
0001
0001
0000
0100
0000
1000
0000
,
0010
0100
0010
0100
0010
0100
0010
0100
,
0001
0000
1001
0000
0000
0000
1000
1000
,
0001
0001
0000
0000
0100
0000
0000
0000
,
0100
0010
1000
0000
0001
0010
0001
0000
,
1000
0000
1000
0000
0100
0010
0100
0000
,
0100
1001
0100
1000
,
0100
0000
0010
0000
0001
0010
0100
0000
,
1000
0000
0100
0000
0001
0010
0100
0000
,
0001
0000
0010
0000
1000
0100
0010
0000
,
1000
0100
0010
0100
1000
0000
0100
0000
,
0100
0010
0100
0000
1001
0000
0010
0000
,
0100
0010
0100
0000
1001
0000
1000
0100
,
0010
0000
0001
0000
0100
1000
0010
0000
,
0100
1001
0000
0010
,
0010
0100
0010
0000
1001
0000
0100
0000
,
0010
0100
0010
0000
1001
0000
0001
0010
,
0100
0000
0000
0000
1000
0000
0000
0000
0010
0000
0001
0000
0100
0000
0000
0010
,
0000
0200
0000
0000
0300
0000
0000
0000
;

//--------------- dance-single - R. McKanna ----------------
#NOTES:
     dance-single:
     R. McKanna:
     Hard:
     9:
     0.415665,0.433443,0.208405,0.024047,0.3086,363,337,26,3,0,0,0.415665,0.433443,0.208405,0.024047,0.3086,363,337,26,3,0,0:
0000
0000
0000
0000
,
0000
0000
0000
0000
,
2000
0000
0001
0000
,
3001
0000
0002
0000
1000
1000
1000
1000
,
1003
0000
0000
0000
0100
0000
0000
0100
0000
0000
0000
0000
1000
0000
1000
0000
,
0010
0000
0000
0000
0100
0000
0000
0100
0000
0000
0001
0000
0100
0000
0001
0000
,
1000
0000
0000
0000
0001
0000
0000
0001
0000
0000
0000
0000
0100
0000
0100
0000
,
0010
0000
0000
0000
1000
0000
0000
1000
0000
0000
0010
0000
0100
0000
0010
0000
,
0100
0000
0001
0000
0010
0000
0000
0001
0000
0010
0001
0000
0010
0000
0000
0000
,
0100
0000
1000
0000
0010
0000
0000
1000
0000
0010
1000
0000
0010
0000
0100
0000
,
0001
0000
0010
0000
0100
0000
0000
0010
0000
0100
0010
0000
0100
0000
0000
0000
,
1000
0000
0010
0000
0100
0000
0000
0010
0000
0100
0010
0000
0100
0000
0001
0000
,
0010
0000
0100
0000
1000
0000
0000
0100
0000
1000
0100
0000
1000
0000
0000
0000
,
0010
0000
0100
0000
0001
0000
0000
0100
0000
0001
0100
0000
0001
0000
0010
0000
,
0100
0000
1000
0000
0010
0000
0000
1000
0000
0010
1000
0000
0010
0000
0000
0000
,
0100
0000
0001
0000
0010
0000
0000
0001
0000
0010
0001
0000
0010
0000
0100
0000
,
1000
0000
1001
0000
1000
0000
1001
0000
1000
0000
0000
0000
0100
1000
0000
0100
,
0000
0000
0001
0000
1001
0000
0000
0000
0001
0000
0000
0000
0010
0001
0000
0010
,
0000
0000
1000
0000
1001
0000
0000
0000
1000
0100
0000
0010
0001
0000
0100
0000
,
0010
0000
1000
0000
0010
0000
0100
0000
0001
0010
0000
0100
1000
0000
0001
0000
,
0110
0000
0000
0000
1001
0000
0000
0000
0001
0000
0000
0000
0010
0001
0000
0010
,
0000
0000
1000
0000
1001
0000
0000
0000
1000
0000
0000
0000
0100
1000
0000
0100
,
0000
0000
0001
0000
1001
0000
0000
0000
0001
0010
0000
0100
1000
0000
0010
0000
,
0100
0000
0001
0000
0100
0000
0010
0000
1000
0100
0000
0010
0001
0000
1000
0000
,
0001
0000
0000
0000
0010
0000
0000
0010
0000
0000
0000
0000
0001
0000
0001
0000
,
0100
0000
0000
0000
0010
0000
0000
0010
0000
0000
1000
0000
0010
0000
1000
0000
,
0001
0000
0000
0000
1000
0000
0000
1000
0000
0000
0000
0000
0010
0000
0010
0000
,
0100
0000
0001
0000
0100
0000
0001
0100
0000
0000
0000
0000
0000
0000
0000
0000
,
0010
0000
1000
0000
0100
0000
1000
0010
0000
1000
0100
0000
1000
0000
0010
0000
,
0100
0000
0001
0000
0010
0000
0001
0100
0000
0001
0010
0000
0001
0000
0100
0000
,
0010
0000
1000
0000
0100
0000
1000
0010
0000
1000
0100
0000
1000
0000
0010
0000
,
0100
0000
0001
0000
0010
0000
0001
0100
0000
0001
0010
0000
0001
0000
0100
0000
,
0010
0000
0000
0000
0000
0000
1000
0000
0000
0001
0000
0000
0000
0000
0001
0000
,
0100
0000
0000
0010
0000
0010
1000
0000
,
1001
0100
0101
0100
0110
0100
0101
0100
,
1001
0000
0000
0000
0010
0000
0000
0000
1001
0000
0000
0000
0001
0010
0100
0000
,
0001
0010
0100
0000
1000
0000
0000
0000
0101
0000
0100
0000
0001
0000
0000
0000
,
1000
0100
0010
0100
1000
0000
0000
0000
0001
0100
0010
0100
0001
0000
0000
0000
,
1100
0000
0110
0000
0011
0001
0100
0010
,
1000
0010
0100
0000
1001
0000
1000
1000
,
0100
0000
0100
0010
0000
0000
0000
0000
1000
0000
1000
0000
0100
0000
0100
0000
,
0010
0000
0010
0001
0000
0000
0000
0001
0010
0000
0010
0000
0001
0000
0001
0000
,
0010
0000
0010
0100
0000
0000
0000
0000
0001
0000
0001
0000
0010
0000
0010
0000
,
0100
0000
0100
1000
0000
0000
0000
0000
1001
0000
0000
0000
0001
0000
0000
0000
,
0100
0001
0000
0100
0000
0000
1000
0000
1001
0000
0000
0000
1000
0000
0000
0000
,
0010
1000
0000
0010
0000
0000
0001
0000
1001
0000
0000
0000
0001
0100
0000
0010
,
1000
0000
0100
0000
0010
0000
0001
0000
0010
0000
0100
0000
1000
0010
0000
0100
,
0001
1000
0110
0000
1001
0000
1000
0000
,
0010
1000
0000
0010
0000
0000
0001
0000
1001
0000
0000
0000
0001
0000
0000
0000
,
0100
0001
0000
0100
0000
0000
1000
0000
1001
0000
0000
0000
1000
0010
0000
0100
,
0001
0000
0010
0000
0100
0000
1000
0000
0100
0000
0010
0000
0001
0100
0000
0010
,
1000
0000
0001
2000
0000
0000
0000
0000
3000
0000
0000
0000
0000
0000
0000
0000
;

//--------------- dance-double - R. McKanna ----------------
#NOTES:
     dance-double:
     R. McKanna:
     Easy:
     3:
     0.186649,0.308099,0.112218,0.024047,0,163,149,14,3,0,0,0.186649,0.308099,0.112218,0.024047,0,163,149,14,3,0,0:
00000000
00000000
00000000
00000000
,
00000000
00000000
00000000
00000000
,
00200000
00000000
00000000
00000000
,
00000000
00000000
00000000
00300000
,
10000000
00000000
10000000
00000000
,
01000000
00000000
01000000
00000000
,
00100000
00000000
00100000
00000000
,
00001000
00001000
00001000
00000000
,
00010000
00000000
00001000
00000000
,
00000010
00000010
00000100
00000000
,
00001000
00000000
00000001
00000000
,
00000010
00000010
00000100
00001000
,
00000001
00000000
00000001
00000000
,
00000100
00000100
00000010
00000000
,
00001000
00000000
00000001
00000000
,
00000100
00000100
00000010
00001000
,
00000001
00001000
00000001
00001000
00000001
00000000
00000010
00000000
,
00001000
00000000
00010000
01000000
,
10000000
00000000
10000000
01000000
,
00010000
00010000
00100000
10000000
,
10000000
00000000
10000000
01000000
,
00010000
00000000
00001000
00000010
,
00000001
00000000
00001000
00000010
,
00000001
00000010
00000100
00001000
,
00010000
00000000
00100000
00000000
,
10000000
00000000
00100000
00000000
,
01000000
00000000
01000000
00000000
,
00010000
00010000
00010000
00000000
,
01000000
00000000
01000000
00010000
,
10000000
00000000
00010000
01000000
,
10000000
00000000
01000000
00000000
,
00010000
01000000
00100000
10000000
,
00010000
00000000
00010000
00100000
,
01000000
00000000
00100000
10010000
,
00110000
00011000
00001100
00001001
,
00000110
00002002
00003000
00000103
,
00000100
00000000
00001000
00000000
,
00010000
00001000
00010000
00000000
00001000
00010000
00001000
00000000
,
00001100
00011000
00110000
00010000
,
00100000
10010000
01100000
00010000
,
00010000
00001000
00000000
00001000
,
00001000
00000100
00000000
00000100
,
00000100
00000001
00000000
00001000
,
00000010
00001001
00000100
00000100
,
00001000
00100000
00000000
01000000
,
10000000
00010000
00000000
01000000
,
00010000
00100000
00100000
01000000
,
10000000
10000000
00000000
00100000
,
00010000
00001000
00000000
00100000
,
00010000
00001000
00000000
00100000
,
00010000
00001000
00001000
00000100
,
00000010
00001001
00000000
00000000
;

//--------------- dance-double - R. McKanna ----------------
#NOTES:
     dance-double:
     R. McKanna:
     Medium:
     5:
     0.2794,0.288962,0.104203,0.080156,0.03607,244,231,13,10,0,0,0.2794,0.288962,0.104203,0.080156,0.03607,244,231,13,10,0,0:
00000000
00000000
00000000
00000000
,
00000000
00000000
00000000
00000000
,
00000000
00002000
00010000
00000000
,
00010000
00000000
00000000
00000000
00010000
00010000
00010000
00010000
,
00013000
00000000
00000000
00000000
00000200
00000000
00000000
00000310
00000000
00000000
00000000
00000000
00000001
00000000
00000000
00000000
,
00001000
00000000
00000000
00000000
00000200
00000000
00000000
00000310
00000000
00000000
00000000
00000000
00000001
00000000
00000000
00000000
,
00000001
00000000
00000000
00000000
00000020
00000000
00000000
00000130
00000000
00000000
00000000
00000000
00001000
00000000
00000000
00000000
,
00000001
00000000
00000000
00000000
00000020
00000000
00000000
00000130
00000000
00000000
00000000
00000000
00010000
00000000
00000000
00000000
,
00001000
00000000
01000000
00000000
00100000
00000000
10000000
01000000
,
00100000
00010000
01000000
00000000
,
00010000
00000000
01000000
00000000
00100000
00000000
10000000
00010000
,
00100000
01000000
01000000
10010000
,
01000000
00000000
00010000
00000000
00001000
00000000
00000100
00000001
,
00000010
00000100
00001000
00000000
,
00001000
00000000
00000100
00000000
00000010
00000000
00000001
00000010
,
00000100
00001000
00000010
00001001
,
00000010
00000010
00000010
00000010
00000010
00000000
00000010
00000100
,
00000010
00000000
00001001
00000000
00000100
00000000
00000010
00000100
,
00001000
00000000
00011000
00000000
00010000
01000000
00100000
00000000
,
00010000
00000000
01000000
00100000
10000000
00000000
00010000
00000000
,
10010000
00000000
00000000
00000000
00100000
00000000
00100000
01000000
,
00100000
00000000
10010000
00000000
01000000
00000000
00100000
01000000
,
00010000
00000000
00011000
00000000
00001000
00000100
00000010
00000000
,
00000001
00000000
00000010
00001000
00000100
00000000
00000010
00000000
,
00000110
00000000
00000000
00000000
00002000
00000000
00000000
00013000
00000000
00000000
00000000
00000000
01000000
00000000
00000000
00000000
,
00100000
00000000
00000000
00000000
00002000
00000000
00000000
00013000
00000000
00000000
00000000
00000000
00000100
00000000
00000000
00000000
,
00000010
00000000
00000000
00000000
00002000
00000000
00000000
00013000
00000000
00000000
00000000
00000000
00100000
00000000
00000000
00000000
,
01000000
00000000
00000000
00000000
00002000
00000000
00000000
00013000
00000000
00000000
00000000
00000000
00000000
00000000
00000000
00000000
,
01000000
01000000
01000000
00000000
00100000
00000000
00001000
00000000
,
00010000
00010000
00010000
00000000
00000010
00000000
00000100
00000000
,
00000001
00000001
00000001
00000000
00000010
00000000
00000100
00000000
,
00010000
00010000
00010000
00000000
00001000
00000000
00100000
00000000
,
01000000
01000000
01000000
00000000
10000000
00000000
00100000
00000000
,
00010000
00010000
00010000
00000000
00001000
00000000
00010000
00000000
,
00001000
00010000
00001000
00010000
00001000
00010000
00001000
00010000
,
00001000
00000000
00101000
00000000
00000000
00000000
00010000
00010000
,
00100000
00100000
00000000
00000000
00010000
00000000
00000000
00000000
,
00010000
00001000
00000100
00000000
00001000
00010000
01000000
00000000
,
10000000
00000000
10000000
00000000
01000000
00100000
01000000
00000000
,
01000000
10010000
01000000
00010000
,
00001000
00000000
00000100
00000000
00000010
00001000
00000100
00000000
,
00000010
00000000
00000001
00000000
00001000
00000100
00000010
00000000
,
00000001
00000000
00001000
00000000
00000001
00000010
00000100
00000000
,
00000001
00000010
00000100
00000010
00000001
00000000
00000010
00000000
,
00000010
00000100
00000010
00000000
00000100
00000000
00010000
00000000
,
00001000
00010000
01000000
00000000
10010000
00000000
10000000
01000000
,
00100000
00000000
00010000
00000000
01000000
00100000
10000000
00000000
,
01000000
10010000
00000000
00100000
,
00100000
01000000
00100000
00000000
00100000
00000000
00001000
00000000
,
00010000
00001000
00000100
00000000
00001001
00000000
00000010
00000100
,
00001000
00000000
00000001
00000000
00000010
00001000
00000100
00000000
,
00000010
00000000
00000000
00000200
00000000
00000000
00000000
00000000
00000300
00000000
00000000
00000000
00000000
00000000
00000000
00000000
;

//--------------- dance-double - R. McKanna ----------------
#NOTES:
     dance-double:
     R. McKanna:
     Hard:
     8:
     0.411085,0.433443,0.168327,0.024047,0.3086,359,338,21,3,0,0,0.411085,0.433443,0.168327,0.024047,0.3086,359,338,21,3,0,0:
00000000
00000000
00000000
00000000
,
00000000
00000000
00000000
00000000
,
00000200
00000000
00001000
00000000
,
00001300
00000000
00020000
00000000
00001000
00001000
00001000
00001000
,
00031000
00000000
00000000
00000000
00000100
00000000
00000000
00000100
00000000
00000000
00000000
00000000
00000001
00000000
00000001
00000000
,
00000010
00000000
00000000
00000000
00000100
00000000
00000000
00000100
00000000
00000000
00001000
00000000
00001000
00000000
00000010
00000000
,
00010000
00000000
00000000
00000000
00010000
00000000
00000000
00010000
00000000
00000000
00000000
00000000
00001000
00000000
00001000
00000000
,
00100000
00000000
00000000
00000000
01000000
00000000
00000000
01000000
00000000
00000000
10000000
00000000
00100000
00000000
01000000
00000000
,
00010000
00000000
00100000
00000000
00001000
00000000
00000000
00010000
00000000
00001000
00010000
00000000
00000100
00000000
00000000
00000000
,
00000100
00000000
00001000
00000000
00000010
00000000
00000000
00001000
00000000
00000010
00001000
00000000
00000010
00000000
00000100
00000000
,
00000001
00000000
00000010
00000000
00000100
00000000
00000000
00000010
00000000
00000100
00000010
00000000
00000100
00000000
00000000
00000000
,
00010000
00000000
00001000
00000000
01000000
00000000
00000000
00001000
00000000
01000000
00001000
00000000
01000000
00000000
00010000
00000000
,
00100000
00000000
01000000
00000000
10000000
00000000
00000000
01000000
00000000
10000000
01000000
00000000
10000000
00000000
00000000
00000000
,
00100000
00000000
01000000
00000000
00010000
00000000
00000000
01000000
00000000
00010000
01000000
00000000
00010000
00000000
00100000
00000000
,
00001000
00000000
00010000
00000000
00000010
00000000
00000000
00010000
00000000
00000010
00010000
00000000
00000010
00000000
00000000
00000000
,
00000100
00000000
00000001
00000000
00000010
00000000
00000000
00000001
00000000
00000010
00000001
00000000
00000010
00000000
00000100
00000000
,
00010000
00000000
00001000
00000000
01000000
00000000
00100000
00000000
10000000
00000000
00000000
00000000
01000000
10000000
00000000
01000000
,
00000000
00000000
00010000
00000000
10010000
00000000
00000000
00000000
00010000
00000000
00000000
00000000
00100000
00010000
00000000
00100000
,
00000000
00000000
10000000
00000000
10010000
00000000
00000000
00000000
10000000
01000000
00000000
00100000
00010000
00000000
01000000
00000000
,
00001000
00000000
00010000
00000000
00000100
00000000
00001000
00000000
00000001
00000010
00000000
00000100
00001000
00000000
00000001
00000000
,
00000110
00000000
00000000
00000000
00001001
00000000
00000000
00000000
00001000
00000000
00000000
00000000
00000100
00001000
00000000
00000100
,
00000000
00000000
00000001
00000000
00001001
00000000
00000000
00000000
00000001
00000000
00000000
00000000
00000010
00000001
00000000
00000010
,
00000000
00000000
00001000
00000000
00001001
00000000
00000000
00000000
00001000
00000100
00000000
00000010
00000001
00000000
00000100
00000000
,
00000010
00000000
00010000
00000000
00001000
00000000
00100000
00000000
00010000
00100000
00000000
01000000
10000000
00000000
00010000
00000000
,
10000000
00000000
00000000
00000000
00100000
00000000
00000000
00100000
00000000
00000000
00000000
00000000
00010000
00000000
00010000
00000000
,
00001000
00000000
00000000
00000000
00010000
00000000
00000000
00010000
00000000
00000000
00001000
00000000
01000000
00000000
00001000
00000000
,
00010000
00000000
00000000
00000000
00001000
00000000
00000000
00001000
00000000
00000000
00000000
00000000
00010000
00000000
00000100
00000000
,
00010000
00000000
00001000
00000000
00010000
00000000
00000100
00001000
00000000
00000000
00000000
00000000
00000001
00000000
00000000
00000000
,
00000100
00000000
00000001
00000000
00000010
00000000
00000001
00000100
00000000
00000001
00000010
00000000
00000001
00000000
00000100
00000000
,
00000010
00000000
00001000
00000000
00000100
00000000
00001000
00000010
00000000
00001000
00000100
00000000
00010000
00000000
00001000
00000000
,
00100000
00000000
00010000
00000000
01000000
00000000
00010000
00100000
00000000
00010000
01000000
00000000
00100000
00000000
10000000
00000000
,
01000000
00000000
10000000
00000000
00100000
00000000
10000000
01000000
00000000
10000000
00100000
00000000
10000000
00000000
01000000
00000000
,
00100000
00000000
00000000
00000000
00000000
00000000
00010000
00000000
00000000
10000000
00000000
00000000
00000000
00000000
00010000
00000000
,
01000000
00000000
00000000
00100000
00000000
00100000
10000000
00000000
,
10010000
01000000
00010000
00100000
00001000
00010000
00000100
00001000
,
00001001
00000000
00000000
00000000
00000100
00000000
00000000
00000000
00001001
00000000
00000000
00000000
00001000
00000100
00000010
00000000
,
00001000
00000100
00000010
00000000
00000001
00000000
00000000
00000000
00001010
00000000
00000010
00000000
00001000
00000000
00000000
00000000
,
00000001
00000010
00000100
00000010
00000001
00000000
00000000
00000000
00001000
00000010
00000100
00000010
00001000
00000000
00000000
00000000
,
00001100
00000000
00011000
00000000
00110000
00010000
01000000
00100000
,
10000000
00100000
01000000
00000000
10010000
00000000
10000000
10000000
,
01000000
00000000
01000000
00100000
00000000
00000000
00000000
00000000
00100000
00000000
00100000
00000000
00001000
00000000
00001000
00000000
,
00010000
00000000
00010000
00001000
00000000
00000000
00000000
00001000
00010000
00000000
00010000
00000000
00000100
00000000
00000100
00000000
,
00001000
00000000
00001000
00000001
00000000
00000000
00000000
00000000
00000001
00000000
00000001
00000000
00000010
00000000
00000010
00000000
,
00000100
00000000
00000100
00001000
00000000
00000000
00000000
00000000
00001001
00000000
00000000
00000000
00000001
00000000
00000000
00000000
,
00000010
00000001
00000000
00000010
00000000
00000000
00001000
00000000
00001001
00000000
00000000
00000000
00001000
00000000
00000000
00000000
,
00000100
00001000
00000000
00000100
00000000
00000000
00000001
00000000
00001001
00000000
00000000
00000000
00000001
00000010
00000000
00000100
,
00001000
00000000
00000010
00000000
00010000
00000000
00001000
00000000
00100000
00000000
00010000
00000000
10000000
01000000
00000000
00100000
,
00010000
10000000
01100000
00000000
10010000
00000000
10000000
00000000
,
01000000
10000000
00000000
01000000
00000000
00000000
00010000
00000000
10010000
00000000
00000000
00000000
00010000
00000000
00000000
00000000
,
00100000
00010000
00000000
00100000
00000000
00000000
10000000
00000000
10010000
00000000
00000000
00000000
10000000
01000000
00000000
00100000
,
00010000
00000000
01000000
00000000
00001000
00000000
00010000
00000000
00000100
00000000
00001000
00000000
00000001
00000010
00000000
00000100
,
00001000
00000000
00000001
00000020
00000000
00000000
00000000
00000000
00000030
00000000
00000000
00000000
00000000
00000000
00000000
00000000
;

//--------------- dance-double - M. Emirzian ----------------
#NOTES:
     dance-double:
     M. Emirzian:
     Challenge:
     9:
     0.571396,0.533387,0.20039,0.024047,0.541052,499,474,25,3,3,0,0.571396,0.533387,0.20039,0.024047,0.541052,499,474,25,3,3,0:
00000000
00000000
00000000
00000000
,
00000000
00000000
00000000
00000000
,
00000000
00000000
00000000
00000000
,
00000000
00000000
00000000
00000000
,
00010000
00000000
00001000
01000000
00001000
00000000
00010000
00100000
00000000
01000000
00000000
00001000
01000000
00000000
00100000
00000000
,
10000000
00000000
01000000
00100000
00001000
00000000
00100000
01000000
00000000
10000000
00000000
00010000
01000000
00100000
10000000
00000000
,
01000000
00000000
00100000
00001000
00010000
00000000
00000100
00000010
00000000
00000100
00000000
00010000
00000100
00000000
00001000
00000000
,
00000010
00000000
00000100
00000001
00000010
00000000
00000100
00001000
00000000
00000001
00000100
00000000
00001010
00000000
00000101
00000000
,
00000010
00000000
00010000
00000000
00001000
00000000
01000000
00000000
00001000
00100000
00001000
00000000
00010000
00000000
00100000
00000000
,
01000000
00001000
01000000
00000000
00010000
00000000
00100000
00000000
01000000
10000000
00100000
01000000
00010000
00000000
00100000
00000000
,
01000000
00000000
10000000
00000000
00100000
00000000
01000000
00000000
00001000
00010000
00000010
00000000
00001000
00000000
00000100
00000000
,
00000010
00000001
00000100
00000000
00000010
00001000
00000001
00000000
00000010
00000000
00001100
00000000
00000011
00000000
00001001
00000000
,
00000010
00000000
00001000
00000000
00000100
00000000
00010000
00000000
00001000
01000000
00100000
00000000
01000000
00000000
00010000
00000000
,
00100000
00001000
00100000
00000000
00010000
00000000
01000000
00000000
00100000
10000000
01000000
00100000
00010000
00000000
01000000
00000000
,
00001000
00000000
00010000
00000000
00000010
00000000
00001000
00000000
00000100
00010000
00000100
00000000
00001000
00000000
00000010
00000000
,
00000100
00000001
00000010
00000000
00000100
00000000
00001000
00000000
00000001
00000100
00000010
00000000
00010000
00001000
01000000
00100000
,
10000000
00000000
01010000
00000000
10100000
00000000
10010000
00000000
00100000
10000000
01000000
00000000
00100000
00000000
01000000
00100000
,
00001000
00100000
00010000
00000000
01000000
00000000
00100000
00000000
00010000
00001000
01000000
00000000
00001000
00000000
00100000
00001000
,
00010000
00000100
00000010
00000000
00000001
00000000
00000100
00000000
00000010
00010000
00000010
00000000
00001000
00000000
00000100
00000010
,
00000001
00000100
00000010
00000000
00001000
00000000
00000100
00000000
00000010
00000001
00000100
00000000
00000010
00010000
00001000
00000000
,
00100000
01000000
10000000
00100000
01000000
00000000
00010000
00000000
00100000
01000000
10000000
00000000
00100000
00000000
01000000
00001000
,
01000000
00010000
00100000
00000000
01000000
00000000
00100000
00000000
00001000
01000000
00001000
00000000
00010000
00000000
00100000
01000000
,
00001000
01000000
00010000
00000000
00100000
00000000
01000000
00000000
10000000
01000000
00010000
00000000
00001000
00010000
00000010
00000000
,
00001000
00000000
00001100
00000000
00000011
00000000
00000110
00000000
00000100
00000000
00001000
00000001
00000000
00000100
00000010
00010000
,
00000100
00000000
00001000
00000000
00000010
00000000
00000100
00000001
00000000
00000010
00000000
00000100
00010000
00000000
00001000
00000000
,
00100000
00000000
00001000
01000000
00001000
00000000
00010000
00100000
00000000
10000000
00000000
01000000
00100000
00001000
00100000
00000000
,
00010000
00000000
01000000
00000000
00100000
00000000
00010000
00001000
00000000
00100000
00000000
00001000
00010000
00000000
00000100
00000000
,
00000010
00000000
00000001
00000100
00000010
00000000
00001000
00000002
00000000
0000M000
00000000
00000000
00000000
00000000
00000000
00000000
,
00000013
00000000
00000100
00000000
00001000
00000000
00000001
00000100
00000000
00000010
00010000
00000000
00001000
00000000
01000000
00000000
,
00001000
00000000
00010000
00000000
00100000
00000000
10000000
00100000
00000000
01000000
00001000
00000000
01000000
00000000
00100000
00000000
,
10000000
00000000
00010000
00000000
00100000
00000000
01000000
00010000
00000000
00001000
00100000
00000000
00001000
00000000
00010000
00000000
,
00000010
00000000
00001000
00000000
00000100
00000000
00000010
00000001
00000000
00000100
00000010
00000000
00010000
00000000
00000100
00000000
,
00001000
00000010
00000100
00000000
00000001
00000000
00000010
00000000
00000100
00000000
00001000
00000010
00010000
00001000
01000000
00000000
,
00100000
10000000
00010000
00000000
00100000
00000000
01000000
00000000
10000000
00000000
00100000
01000000
00010000
00100000
01000000
00000000
,
10000000
01010000
00100000
00101000
00010000
00011000
00000100
00010010
,
00001010
00000000
00000001
00000000
00000220
00000000
00000000
00000000
00000000
00000000
00000330
00000000
00001MM0
00000001
00000100
00000000
,
00000010
00001000
00000100
00010000
00000000
00100000
00000000
10000000
00010000
00000000
00100000
00000000
01000000
00000000
10000000
00000000
,
00010000
01000000
00001000
00010000
00000010
00000000
00001000
00000000
00000100
00000010
00000001
00001000
00000011
00000000
00000000
00000000
,
00011000
00000000
00000000
00000000
11000000
00000000
00100000
00000000
01000000
00010000
00100000
00000000
01000000
00000000
10000000
00000000
,
10100000
00000000
01000000
00000000
00011000
00000000
00000010
00000000
00000001
00000100
00000010
00001000
00000100
00000000
00000010
00000000
,
00000100
00000000
00010000
00000100
00000000
00010000
00000000
00100000
10000000
00000000
00010000
00000000
01000000
00000000
00001000
00000000
,
00100000
00001000
00010000
01000000
00000000
10000000
00000000
00010000
00000000
01000000
00001000
00010000
00000010
00000000
00001000
00000000
,
00000100
00010000
00000100
00000010
00000000
00000001
00000000
00000100
00000010
00000000
00000100
00000000
00001000
00000000
01000000
00000000
,
00100000
10000000
01000000
00100000
00000000
00000000
00010000
00000000
00010000
00000000
00010000
00000000
01000000
00100000
10000000
00000000
,
00010000
00000000
00100000
00001000
00100000
00010000
01000000
00000000
00100000
00000000
00010000
00000000
00001000
00010000
00000010
00000000
,
00001000
00000000
00000100
00010000
00000100
00001000
00000001
00000000
00000010
00000000
00000100
00000000
00010000
00000010
00010000
00000000
,
00001000
00000000
00000010
00000001
00000010
00000100
00010000
00000000
00001000
00000000
01000000
00000000
00100000
01000000
00001000
00000000
,
00100000
00010000
01000000
00000000
00100000
10000000
01000000
00100000
00010000
00000000
01000000
00000000
00001000
01000000
00001000
00000000
,
00010000
00000000
00100000
10000000
00010000
00100000
01000000
00000000
00100000
00000000
00001000
00000000
00010000
00000010
00001000
00000000
,
00000100
00000000
00000010
00000001
00000100
00000010
00001000
00000000
00000100
00000000
00010000
00000000
00000010
00010000
00000010
00000000
,
00001000
00000100
00010000
00000000
00001000
00000000
01100000
00000000
10010000
00000000
11000000
00000000
01000000
00000000
10000000
00100000
,
00000000
00010000
00001000
00000010
00000000
00000000
00000000
00000000
00000000
00000000
00000000
00000000
00000000
00000000
00000000
00000000
;

//--------------- dance-couple - BASIC ----------------
#NOTES:
     dance-couple:
     BASIC:
     Easy:
     3:
     0.148861,0.225939,0.064125,0.024047,0,130,122,8,3,0,0,0.146571,0.246479,0.064125,0.024047,0,128,120,8,3,0,0:
00000000
00000000
00000000
00000000
,
00000000
00000000
00000000
00000000
,
00200020
00000000
00000000
00000000
,
00000000
00000000
00000000
00300030
,
10000001
00000000
10000001
00000000
,
01000100
00000000
01000100
00000000
,
00100010
00000000
00100010
00000000
,
00011000
00011000
00011000
00000000
,
10000001
00000000
00001000
00000000
,
10000100
00000100
00000010
00000000
,
10000001
00000000
00010000
00000000
,
01000001
01000000
00100000
10000000
,
00010001
00000000
10000001
00000000
,
00100010
00100010
01000100
00000000
,
00011000
00000000
10000001
00000000
,
00100010
00100010
01000100
00011000
,
10000001
00011000
10000001
00011000
10000001
00000000
00000100
00000000
,
00001000
00000000
10000000
01000000
,
00010000
00000000
00001000
00000100
,
00000001
00010001
00100010
10001000
,
10001000
00000000
00010000
01000000
,
10000000
00000000
00000001
00000100
,
00001000
00000000
00010000
01000000
,
10000000
10001000
00100010
00010001
,
00010001
00000000
00011000
00000000
,
00100010
00000000
00100010
00000000
,
01000100
00000000
01000100
00000000
,
10000001
10000001
10000001
00000000
,
01000100
00000000
01000100
00011000
,
10000001
00000000
00011000
01000100
,
10000001
00000000
01000100
00000000
,
00011000
00011000
00100010
01000100
,
10000001
00000000
00011000
00100010
,
01000100
00000000
00100010
10010000
,
00001001
10010000
00001001
10010000
,
00001001
20022002
00000000
30033003
,
01000100
00000000
00011000
00000000
,
10000000
00010000
10000000
00000000
00001000
00000001
00001000
00000000
,
00100010
00010001
10001000
01000100
,
00100010
10010110
01101001
00010001
,
00010001
00100010
00000000
00100010
,
00100010
01000100
00000000
01000100
,
01000100
10001000
00000000
10001000
,
01000100
10011001
01000100
01000000
,
00010000
00100000
00000000
00000100
,
00000001
00000010
00000000
01000000
,
00010000
00100000
00100010
10001000
,
01000100
01000100
00000000
00000010
,
00000001
00000100
00000000
00100000
,
00010000
01000000
00000000
00000010
,
00000001
00000100
01000100
10001000
,
00100010
10011001
00000000
00000000
;

//--------------- lights-cabinet - ----------------
#NOTES:
     lights-cabinet:
     :
     Easy:
     1:
     0.34696,0.450776,0.472919,0.016031,0.03607,303,242,59,2,0,2,0.34696,0.450776,0.472919,0.016031,0.03607,303,242,59,2,0,2:
000000
000000
000000
000000
,
000000
000000
000000
000000
,
100000
100000
000100
011000
,
000100
000000
100000
000000
000100
011000
000100
100000
,
011000
000000
000000
000000
000100
000000
000000
010000
000000
000000
000000
000000
100100
000000
000000
000000
,
000100
000000
000000
000000
001000
000000
000000
010000
000000
000000
000000
000000
100000
000000
001000
000000
,
100000
000000
000000
000000
010000
000000
000000
001000
000000
000000
000000
000000
100100
000000
000000
000000
,
011000
000000
000000
000000
010000
000000
000000
001000
000000
000000
000000
000000
000100
000000
100000
000000
,
000100
000000
010000
000000
001000
000000
100000
010000
,
001000
000000
000100
000000
010000
000000
100100
011000
,
100100
000000
010000
000000
001000
000000
100000
000100
,
001000
010000
010000
100100
,
010000
000000
000100
000000
001000
000000
010000
001000
,
000100
010000
100000
011000
,
000100
000000
001000
000000
010000
000000
100000
010000
,
001000
000100
010000
100100
,
010100
011000
110000
010100
110000
000000
010000
001000
,
010000
000000
100100
000000
001000
000000
010000
001000
,
010000
000000
100100
000000
100000
010000
001000
000000
,
000100
000000
010000
100000
001000
000000
011000
000000
,
111100
000000
000000
000000
001000
000000
001000
010000
,
001000
000000
100100
000000
010000
000000
001000
010000
,
001000
000000
100100
000000
000100
001000
010000
000000
,
110000
000000
001000
000100
011000
000000
001100
000000
,
110000
000000
000000
000000
100100
000000
000000
000100
000000
000000
000000
000000
010000
000000
000000
000000
,
001000
000000
000000
000000
100000
000000
000000
000100
000000
000000
000000
000000
010000
000000
000000
000000
,
010000
000000
000000
000000
000100
000000
000000
100000
000000
000000
000000
000000
001000
000000
000000
000000
,
010000
000000
000000
000000
000100
000000
000000
100000
000000
000000
000000
000000
200200
000000
000000
000000
,
310300
010000
010000
000000
001000
000000
000100
000000
,
010000
010000
010000
000000
001000
000000
100000
000000
,
010000
010000
010000
000000
101000
000000
100100
000000
,
011000
011000
011000
000000
101000
000000
101000
000000
,
100100
100100
100100
000000
011000
000000
100100
000000
,
010100
010100
010100
000000
010000
000000
100000
000000
,
001000
010000
001000
010000
001000
010000
001000
010000
,
000100
000000
100100
000000
000000
000000
100000
100000
,
000100
000100
000000
000000
010000
000000
000000
000000
,
010000
001000
100000
000000
000100
001000
000100
000000
,
100000
000000
100000
000000
010000
001000
010000
000000
,
010000
100100
011000
100100
,
010000
000000
001000
000000
000100
001000
010000
000000
,
100000
000000
001100
000000
110000
001000
010000
000000
,
000100
000000
001000
000000
100000
010000
001000
000000
,
100000
010000
001000
010000
100000
000000
010000
000000
,
010000
001000
010000
000000
100100
000000
001000
000000
,
010000
001000
010000
000000
100100
000000
100000
010000
,
001000
000000
000100
000000
010000
100000
001000
000000
,
010000
000000
100100
000000
010000
010000
001000
000000
,
001000
010000
001000
000000
100100
000000
010000
000000
,
001000
010000
001000
000000
100100
000000
000100
001000
,
010000
000000
000000
000000
100000
000000
000000
000000
001000
000000
100100
000000
011000
000000
000000
100100
,
000000
011000
000000
000000
000000
000000
000000
000000
;
