#TITLE:Penny Arcade Theme;
#SUBTITLE:;
#ARTIST:MC Frontalot;
#TITLETRANSLIT:;
#SUBTITLETRANSLIT:;
#ARTISTTRANSLIT:;
#GENRE:;
#CREDIT:;
#MUSIC:PA Theme.ogg;
#BANNER:Penny Arcade Theme.png;
#BACKGROUND:Penny Arcade Theme-bg.png;
#CDTITLE:;
#SAMPLESTART:89.808;
#SAMPLELENGTH:14.000;
#SELECTABLE:YES;
#OFFSET:-0.207;
#BPMS:0.000=142.003;
#STOPS:;
#BGCHANGES:;
#FGCHANGES:;

//--------------- dance-single - M. Puls ----------------
#NOTES:
     dance-single:
     M. Puls:
     Beginner:
     2:
     0.093,0.145,0,0,0:
0000
0000
0000
0000
,
0000
0000
0000
0000
,
0000
0000
0000
0000
,
0000
0000
0000
0000
,
0000
0000
0000
0000
,
0000
1000
0000
0000
,
0000
1000
0000
0000
,
0000
0001
0000
0000
,
0000
0001
0000
0000
,
1000
0000
0000
0000
,
1000
0000
0000
0000
,
0010
0000
0000
0000
,
0100
0000
0000
0000
,
0001
0000
0000
0000
,
0100
0000
0000
0000
,
0010
0000
0000
0000
,
0010
0000
0000
0000
,
1000
0000
0000
0000
,
0100
0000
0000
0000
,
0100
0100
0100
0000
,
0010
0000
0000
0000
,
0001
0001
0000
0000
,
0100
0000
0000
0000
,
0010
0000
0000
0000
,
1000
0000
0000
0000
,
0001
0000
0000
0000
,
0010
0000
0000
0000
,
0010
0000
0000
0000
,
0001
0000
0000
0000
,
0001
0000
0000
0000
,
1000
1000
1000
0000
,
0001
0000
0000
0000
,
0010
0000
0010
0000
,
0100
0000
0000
0000
,
0001
0000
0000
0000
,
0100
0000
0000
0000
,
0010
0000
0000
0000
,
1000
0000
0100
0000
,
0010
0000
0000
0000
,
0001
0000
0000
0000
,
1000
0000
0000
0000
,
0010
0000
0000
0000
,
0100
0000
0001
0000
,
0001
0000
0000
0000
,
0000
0000
0000
0000
,
1000
0000
0000
0000
,
0100
0000
0000
0000
,
0100
0000
0000
0000
,
1000
0000
0000
0000
,
0010
0000
0000
0000
,
0100
0000
0000
0000
,
0001
0000
0000
0000
,
0010
0000
0000
0000
,
0010
0000
0000
0000
,
0100
0000
0000
0000
,
1000
0000
0000
0000
,
0100
0000
0000
0000
,
0010
0000
0000
0000
,
0100
0000
0000
0000
,
0001
0000
0000
0000
,
0100
0000
0000
0100
,
0100
0000
0000
0000
,
0001
0000
0000
0010
,
0010
0000
0000
0000
,
0001
0000
0000
0100
,
0100
0000
0000
0000
,
0010
0000
0000
1000
,
1000
0000
0000
0000
,
1000
0000
0000
0001
,
0001
0000
0000
0000
,
1000
0000
0000
0000
,
0001
0000
0000
0000
,
1000
0000
0001
0000
;

//--------------- dance-single - K. Ward ----------------
#NOTES:
     dance-single:
     K. Ward:
     Easy:
     3:
     0.161,0.232,0.128,0,0:
0000
0000
0000
0000
,
0000
0000
0000
0000
,
0000
0000
0000
0000
,
0000
0000
0000
0000
,
0000
0000
0000
0000
,
1000
0000
0001
0000
,
1000
0000
0000
0000
,
0100
0000
0010
0000
,
0100
0000
0000
0000
,
0100
0000
1001
0000
,
0010
0000
1001
0000
,
0100
0000
1000
0000
,
0010
0000
0001
0000
,
0011
0000
0000
0000
,
0100
0000
1100
0000
,
0010
0000
0010
0000
,
0100
0000
0100
0000
,
1000
0000
0001
0000
,
1000
0000
0001
0000
,
0100
0100
0100
0000
,
0010
0100
1001
0000
,
0100
0000
0000
0000
,
1000
0000
0000
0000
,
0001
0000
0000
0000
,
0100
0010
0100
1000
,
0100
0000
1010
0000
,
0100
0000
1001
0000
,
0010
0000
0100
0000
,
1000
0000
0001
0000
,
0100
0100
0100
0000
,
0010
0010
0010
0000
,
1000
0000
0000
0000
,
0001
0000
0000
0000
,
0100
0010
0100
1000
,
0100
0010
0100
0000
,
0010
0001
0010
0100
,
0010
0000
0101
0000
,
1000
0000
0000
0000
,
0100
0000
0000
0000
,
1000
0000
0000
0000
,
0001
0000
0000
0000
,
0100
0000
1000
0000
,
0001
0000
0010
0000
,
0100
0000
0010
0000
,
0001
0000
1000
0001
,
0100
0000
1000
0000
,
0010
0000
0001
0000
,
0100
0010
0100
1000
,
0100
0000
0010
0000
,
1001
0000
0000
0000
,
0100
0000
0000
0000
,
1001
0000
0000
0000
,
0001
0000
0000
0000
,
0010
0000
0100
0000
,
0001
0000
0000
0000
,
1000
0000
0001
0000
,
1000
0000
0000
0000
,
0010
0010
0010
0010
,
0010
0000
0000
0000
,
0100
0000
1000
0000
,
0010
0000
0001
0000
,
1001
0000
0000
0000
,
0000
0000
0000
1000
,
1100
0000
0000
0000
,
0000
0000
0000
0010
,
0011
0000
0000
0000
,
0000
0000
0000
1000
,
1001
0000
0000
0000
,
0000
0000
0000
0001
,
1001
0000
0000
0000
,
0010
0000
0100
0000
,
0001
0000
1000
0000
,
0100
0010
1001
0000
;

//--------------- dance-single - K. Ward ----------------
#NOTES:
     dance-single:
     K. Ward:
     Medium:
     5:
     0.252,0.291,0.168,0.056,0:
0000
0000
0000
0000
,
0000
0000
0000
0000
,
0000
0000
0000
0000
,
0000
0000
0000
0000
,
0000
0000
0000
0000
,
1000
0000
0001
0000
0200
0000
0000
0310
,
0000
0000
0000
0000
0100
0100
0000
0000
,
0001
0000
1000
0000
0200
0000
0000
0310
,
0000
0100
1001
0000
,
0011
0011
0011
0000
,
0100
1000
0100
0000
,
1001
1001
1001
0000
,
0100
0010
0100
0000
,
0011
0000
0000
0000
,
0100
0010
0100
0000
1000
0000
0000
0000
,
0001
0001
0100
0100
,
1000
1000
0100
0001
,
0002
0000
1003
0000
,
0200
0000
0310
0000
,
0001
1000
0010
0100
,
0001
1000
0001
0000
,
0020
0000
0000
0130
0000
0000
0000
0000
,
0200
0000
0000
1300
0000
0000
0000
0000
,
0010
0001
0100
1000
,
0010
0001
0100
1000
,
1001
0000
0100
0000
,
1001
0000
0010
0000
,
1000
0001
1000
0001
,
2000
0000
0000
3001
0000
0000
0000
0000
,
0100
0010
0100
1000
,
0100
0100
0100
0000
,
0001
0000
0000
0000
,
1000
0000
0000
0000
,
0100
0100
0100
0000
,
0000
1000
0001
1000
0001
0000
0000
0000
,
0100
0010
0100
0010
,
0100
0100
0100
0000
,
0001
0010
0100
0000
,
0100
0010
0001
0000
,
0100
0010
1000
0100
,
0010
0100
1001
0000
,
1000
0100
1000
0010
,
0100
1000
0100
0010
,
0101
0000
1100
0000
,
0010
0100
0010
0100
,
1001
0000
0100
0000
,
1000
0000
0001
0000
,
0100
0010
0010
0100
,
1000
0000
0001
0000
,
1001
1000
1000
1000
,
1000
0000
0001
0000
,
0110
0010
0010
0010
,
0010
0000
0100
0000
,
1000
0000
0001
0000
,
0100
0010
0100
0000
,
1000
0000
0001
0000
,
0010
0100
1000
0100
,
0010
0000
0001
0000
,
1000
0000
0001
0000
,
0100
1000
0100
0010
,
0001
1000
0001
0100
,
1001
0000
0000
0000
,
0000
0000
0000
0100
,
0110
0000
0000
0000
,
0000
0000
0000
0001
,
1001
0000
0000
0000
,
0000
0000
0000
0100
,
1001
0000
1000
0000
,
0001
0000
1000
0001
1000
0000
0010
0000
,
0001
0001
0001
0001
,
0001
0001
0001
0100
,
1001
0000
0100
0000
,
0010
0001
0100
1000
;

//--------------- dance-single - K. Ward ----------------
#NOTES:
     dance-single:
     K. Ward:
     Hard:
     10:
     0.421,0.437,0.256,0.112,0.004:
0000
0000
0000
0000
,
0000
0000
0000
0000
,
0000
0000
0000
0000
,
0000
0000
0000
0000
,
0000
0000
0000
0000
,
0100
0000
1001
0000
0100
1000
0100
0010
,
0000
0100
0001
0000
0010
0010
0000
0000
,
0100
0000
0010
0000
0100
1000
0100
0001
,
0000
0010
0100
0000
0011
0000
0000
0000
,
0100
1000
0100
0010
,
0100
0010
1001
0000
,
0100
0000
1000
0000
0100
0010
0001
0010
,
0000
0100
0010
0000
1001
0000
0000
0000
,
0100
0010
0101
0000
,
0000
0010
0100
0001
0010
0000
1001
0000
,
1000
0100
1000
0010
0100
0001
0010
0100
,
0020
0001
0100
0031
,
1000
1000
0001
0001
,
0100
1000
0100
0001
,
0011
0000
0000
1100
0000
0000
0000
0000
,
0100
0010
0100
0000
1001
0000
0000
0000
,
0100
0001
0010
0001
0100
1000
0100
0010
,
1000
0001
1000
0001
,
0010
0100
0100
0000
0010
0001
0001
0000
,
0100
1000
0010
0001
,
1001
1000
1001
0001
,
1001
0100
1001
0010
,
0200
0010
1300
0000
,
0100
0001
0010
0011
0000
0000
0000
0000
,
0100
0000
1000
0000
0100
0000
0010
0100
,
0010
0001
0010
0100
0010
0000
0000
0000
,
1000
0010
0100
0001
,
1001
0000
0000
0000
1000
0100
0010
0000
,
0001
0100
0010
1000
0010
0100
0010
1000
,
0100
0010
0100
1000
0200
0000
0010
0000
,
1300
0010
0100
0001
0000
0010
0100
1000
,
0100
0010
1001
1001
,
0001
0000
0001
0000
1000
0000
1000
0100
,
0000
0010
0100
0001
0010
0000
0001
0000
,
0020
0100
0001
0130
,
0001
0000
0010
0101
0000
0000
0000
0000
,
1000
0100
0001
0100
,
1000
0000
0001
0000
1000
0000
0100
0100
,
0100
0010
0001
1000
,
0002
0010
0013
0000
,
0100
0010
0100
1000
0100
0010
0100
0001
,
0010
0000
0000
0000
0100
0000
0000
0000
0010
0000
0000
0000
0001
0000
1000
0001
,
1000
0100
0010
0011
,
0100
0000
1010
0000
0100
0001
0010
0100
,
0020
0100
0001
0130
,
0200
0000
0010
0000
1000
0000
0310
0010
,
0020
0000
0001
0000
0100
0000
0031
0010
,
0000
0100
0010
0000
1001
0000
0000
0000
,
1000
0100
0010
0000
0001
0010
0100
2000
,
0000
3001
0011
1100
,
0020
0000
0000
0130
0002
0000
0000
0013
,
0100
0010
0101
0000
,
0100
1010
0010
0101
,
0010
1100
0010
0011
,
2000
3100
0002
0013
,
0100
0010
1000
0100
0010
0000
1001
0000
,
0100
0000
0100
0000
0010
0100
0001
0010
,
0000
0100
0010
0000
0001
0001
0000
0000
,
0010
0100
0010
0100
1000
0010
0001
0010
,
0100
0000
0001
0000
1000
1000
0000
0000
,
0110
0100
0100
0100
,
1000
0001
0100
0010
,
0101
0010
0100
1000
,
0100
0010
0001
0000
0100
0010
1000
0100
,
0020
0000
0130
0000
1000
0010
0100
1000
,
0000
0100
0010
0000
1000
0100
0010
0001
,
0010
0000
0100
0000
0010
0100
1000
0000
,
0100
0010
0001
0010
0100
0000
1001
0000
;

//--------------- dance-double - M. Emirzian ----------------
#NOTES:
     dance-double:
     M. Emirzian:
     Easy:
     2:
     0.096,0.146,0,0.008,0:
00000000
00000000
00000000
00000000
,
00000000
00000000
00000000
00000000
,
00000000
00000000
00000000
00000000
,
00000000
00000000
00000000
00000000
,
00000000
00000000
00000000
00000000
,
10000000
00000000
00000000
00000000
,
01000000
00000000
00100000
00000000
,
00001000
00000000
00000000
00000000
,
00010000
00000000
00000000
00000000
,
00000100
00000000
00000010
00000000
,
00000001
00000000
00000000
00000000
,
00000100
00000000
00000000
00000000
,
00001000
00000000
00000010
00000000
,
00010000
00000000
00001000
00000000
,
01000000
00000000
00000000
00000000
,
00100000
00000000
00000000
00000000
,
10000000
00000000
00000000
00000000
,
00001000
00000000
00000000
00000000
,
00000001
00000000
00000100
00000000
,
00001000
00000000
00000000
00000000
,
00010000
00000000
00000000
00000000
,
10000000
00000000
00000000
00000000
,
00010000
00000000
00000000
00000000
,
00000010
00000000
00000000
00000000
,
00010000
00000000
00000000
00000000
,
01000000
00000000
00000000
00000000
,
00010000
00000000
00001000
00000000
,
00000100
00000000
00000000
00000000
,
00000001
00000000
00000000
00000000
,
00010000
00000000
00000000
00000000
,
00100000
00000000
00000000
00000000
,
10000000
00000000
00000000
00000000
,
00001000
00000000
00000000
00000000
,
00000001
00000000
00000010
00000000
,
00001000
00000000
00000000
00000000
,
00010000
00000000
00000000
00000000
,
00100000
00000000
00000000
00000000
,
10000000
00000000
00000000
00000000
,
00001000
00000000
00000000
00000000
,
00010000
00000000
00001000
00000000
,
00000010
00000000
00000000
00000000
,
00000001
00000000
00000000
00000000
,
00001000
00000000
00000000
00000000
,
00010000
00000000
00000000
00000000
,
10000000
00000000
01000000
00000000
,
00010000
00000000
00000000
00000000
,
00001000
00000000
00000000
00000000
,
00000001
00000000
00000000
00000000
,
00000100
00000000
00001000
00000000
,
00010000
00000000
00000000
00000000
,
10000000
00000000
00000000
00000000
,
00001000
00000000
00000100
00000000
,
00000001
00000000
00000000
00000000
,
00010000
00000000
00000000
00000000
,
01000000
00000000
00000000
00000000
,
00100000
00000000
00000000
00000000
,
00000001
00000000
00000000
00000000
,
00001000
00000000
00000000
00000000
,
01000000
00000000
00000000
00000000
,
00001000
00000000
00010000
00000000
,
00000010
00000000
00000000
00000000
,
00000001
00000000
00000000
00000000
,
00000100
00000000
00000000
00000000
,
00010000
00000000
00000000
00000000
,
10000000
00000000
00000000
00000000
,
00010000
00000000
00000000
00000000
,
00001000
00000000
00000000
00000000
,
00000001
00000000
00000000
00000000
,
00000100
00000000
00001000
00000000
,
00010000
00000000
00000000
00000000
,
00001000
00000000
00010000
00000000
,
01000000
00000000
00000000
00000000
,
01000000
00000000
00200000
00300000
;

//--------------- dance-double - M. Emirzian ----------------
#NOTES:
     dance-double:
     M. Emirzian:
     Medium:
     3:
     0.164,0.175,0,0.008,0:
00000000
00000000
00000000
00000000
,
00000000
00000000
00000000
00000000
,
00000000
00000000
00000000
00000000
,
00000000
00000000
00000000
00000000
,
00000000
00000000
00000000
00000000
,
00000000
10000000
00000000
01000000
,
00000000
00010000
00001000
00010000
,
00000000
00000100
00000000
00000010
,
00000000
00000001
00001000
00000001
,
00000000
00000100
00000000
00000000
,
00001000
00000000
01000000
00010000
,
01000000
00000000
00100000
00000000
,
10000000
00000000
01000000
00000000
,
00100000
00000000
00001000
00000000
,
00010000
00000000
00000000
00000000
,
00000100
00000000
00000010
00000000
,
00000001
00000000
00000000
00000000
,
00010000
00000000
00001000
00000000
,
01000000
00000000
00000000
00000000
,
00010000
00000000
00100000
00000000
,
10000000
00000000
00000000
00000000
,
00001000
00000000
00000010
00000000
,
00000001
00000000
00000000
00000000
,
00001000
00000000
00000100
00000000
,
00010000
00000000
00000000
00000000
,
00001000
00000000
00000000
00000000
,
01000000
00000000
00100000
00000000
,
10000000
00000000
01000000
00000000
,
00010000
00000000
00001000
00000000
,
00010000
00000000
00001000
00000000
,
00000010
00000000
00000001
00000000
,
00001000
00000000
00000010
00000000
,
00000100
00000000
00000001
00000000
,
00000100
00000000
00000000
00000000
,
00000010
00000000
00010000
00000000
,
00001000
01000000
00001000
00000000
,
00010000
00000000
00100000
00000000
,
10000000
01000000
10000000
00000000
,
00100000
00000000
01000000
00001000
,
00010000
00000010
00000000
00000000
,
00001000
00000000
00000000
00000000
,
00000100
00000000
00000010
00000000
,
00000001
00000000
00001000
00000000
,
00000010
00000000
00010000
00000000
,
00001000
01000000
00100000
00000000
,
10000000
00000000
01000000
00000000
,
00100000
00000000
00000000
00000000
,
00001000
00000000
00000100
00000000
,
00000001
00000000
00001000
00000000
,
00000000
00000100
00000000
00010000
,
00000000
00001000
00010000
00001000
,
00000000
00100000
00000000
01000000
,
00000000
10000000
00010000
10000000
,
00000000
00100000
00000000
00010000
,
00000000
00001000
00010000
00001000
,
00000000
00000010
00000000
00000001
,
00000000
00001000
00000100
00000010
,
00000000
00000001
00000000
00000100
,
00000000
00001000
00010000
00001000
,
00000000
01000000
00000000
00100000
,
00000000
10000000
00100000
01000000
,
00000000
00001000
00000000
00010000
,
00000100
00000010
00000000
00000000
,
00000000
00000001
00001000
00000000
,
00000100
00000000
00000100
00010000
,
00000000
00001000
00000000
01000000
,
00000000
01000000
00100000
10000000
,
00000000
01000000
00000000
00100000
,
00000000
00001000
00010000
00000100
,
00000000
00000010
00000000
00000001
,
00000000
00000100
00000010
00010000
,
00000000
00001000
00000000
00010000
,
00000000
01000000
20000000
30000000
;

//--------------- dance-double - M. Emirzian ----------------
#NOTES:
     dance-double:
     M. Emirzian:
     Hard:
     5:
     0.286,0.322,0,0.008,0:
00000000
00000000
00000000
00000000
,
00000000
00000000
00000000
00000000
,
00000000
00000000
00000000
00000000
,
00000000
00000000
00000000
00000000
,
00000000
00000000
00000000
00000000
,
00010000
10000000
01000000
10000000
,
00100000
00000000
01000000
00000000
00001000
00010000
00000010
00000000
,
00001000
00000100
00001000
00000001
,
00000010
00000000
00000100
00000000
00001000
00000010
00010000
00000000
,
00001000
01000000
00010000
10000000
,
00010000
00000000
00100000
00000000
01000000
10000000
00010000
00000000
,
01000000
00001000
00010000
00000010
,
00001000
00000000
00000100
00000000
00000010
00000001
00001000
00000000
,
00000010
00010000
00000000
00001000
,
00000000
01000000
00000000
00100000
,
10000000
00000000
00100000
01000000
,
00000000
00001000
00000000
00010000
,
00000000
00000010
00001000
00000100
,
00000000
00000010
00000000
00000001
,
00001000
00000010
00010000
00000000
,
00001000
01000000
00010000
00000000
,
00100000
01000000
10000000
00010000
,
00100000
00001000
00010000
00000000
,
00001000
01000000
00001000
00000000
,
00010000
00000010
00001000
00000000
,
00000100
00000010
00000001
00000000
,
00001000
00000100
00010000
00001000
,
01000000
00000000
00100000
00000000
,
01000000
00001000
00010000
00000000
,
00000100
00000010
00000001
00000010
,
00000100
00000000
00010000
00001000
,
00100000
00000000
01000000
00000000
,
10000000
01000000
00100000
00001000
,
00000000
00010000
00000000
00000100
,
00000000
00001000
00000010
00000100
,
00000001
00000010
00000100
00000000
,
00010000
00001000
01000000
00010000
,
00000000
00100000
00000000
01000000
,
00000000
10000000
00010000
00100000
,
00000000
00001000
00000000
00010000
,
00000000
00000010
00000100
00000001
,
00000000
00001000
00000000
00000100
,
00000000
00010000
00001000
01000000
,
00000000
00100000
00000000
10000000
,
00000000
00010000
00100000
00001000
,
00010000
00000010
00000000
00001000
,
00000000
00000100
00000000
00000010
,
00000001
00000100
00000010
00000000
,
00010000
00000000
00001000
00000000
01000000
00010000
00100000
01000000
,
10000000
00100000
01000000
00001000
,
00100000
00000000
00001000
00000000
00010000
00000010
00001000
00000000
,
00000100
00000010
00000001
00000010
,
00000100
00000000
00010000
00000000
00001000
01000000
00010000
00000000
,
00100000
01000000
10000000
00100000
,
01000000
00000000
00001000
00000000
00010000
00000010
00001000
00000000
,
00000100
00000010
00000001
00000010
,
00000001
00000000
00001000
00000000
00000010
00010000
00001000
00000000
,
01000000
00010000
01000000
00100000
,
10000000
00000000
00010000
00000000
00100000
01000000
10000000
00000000
,
01000000
00100000
00001000
00010000
,
00000010
00000000
00001000
00000000
00000100
00000010
00000001
00000000
,
00001000
00000100
00001000
00000001
,
00000100
00000000
00000010
00000000
00010000
00001000
01000000
00000000
,
00100000
10000000
00010000
00100000
,
01000000
00000000
10000000
00000000
00100000
01000000
00001000
00000000
,
00010000
00000010
00001000
00000100
,
00000010
00000000
00000001
00000000
00000100
00000010
00010000
00000000
,
00001000
01000000
00001000
00010000
,
01000000
00000000
10000000
00000000
00010000
01000000
00100000
00000000
,
10000000
01000000
00100000
00001000
,
00010000
00000000
00000010
00000000
00001000
00000100
00000010
00000000
,
00000001
00000100
00000010
00010000
,
00001000
00000000
01000000
00000000
00100000
10000000
02000000
00000000
,
03000000
00000000
00000000
00000000
;

//--------------- lights-cabinet - ----------------
#NOTES:
     lights-cabinet:
     :
     Easy:
     1:
     0.428,0.495,0.176,0.232,0:
000000
000000
000000
000000
,
000000
000000
000000
000000
,
000000
000000
000000
000000
,
000000
000000
000000
000000
,
000000
000000
000000
000000
,
000100
000000
100000
000000
010000
100000
001000
010000
,
000000
010000
000100
001000
000100
000000
000100
000000
,
100000
000000
010000
000000
100000
010000
100000
001000
,
000000
001000
010000
000100
001000
000000
001100
000000
,
100000
001000
010000
000100
,
010000
000000
001000
000000
100000
000000
000100
001000
,
001000
000100
100000
001000
,
100000
000000
010000
000000
001000
000100
010000
001000
,
100000
001000
011000
000000
,
000100
001000
001100
000000
,
100000
010000
100000
001000
010000
000100
001000
000100
,
020000
001000
031000
000000
,
100000
001000
100000
010000
,
001000
000100
020000
000000
,
031000
100000
000100
001000
,
000100
000000
010000
000100
000200
000000
000000
000000
,
100300
001000
010000
001000
,
100000
001000
010000
001000
,
100000
010000
100000
000100
,
001000
000000
000100
000000
000100
001000
000100
010000
,
001000
100000
001000
100000
,
010000
100000
001000
100000
,
020000
000000
000000
000000
031000
000000
000000
000100
,
000100
010000
010000
001000
,
100000
001000
010000
000100
,
001000
000000
000100
001000
001100
000000
000000
000000
,
100000
001000
010000
000100
,
010000
001000
100000
001000
,
001000
010000
001000
100000
001000
010000
001000
100000
,
001000
010000
001000
010000
002000
000000
010000
000000
,
013000
001000
010000
000100
010000
001000
010000
000100
,
010000
001000
010000
001000
200000
000000
001000
000000
,
310000
000100
001000
000100
,
100000
001000
010000
001000
,
100000
010000
100000
001000
010000
000100
001000
000100
,
100000
001000
010000
000100
,
100000
100000
001000
001000
,
010000
010000
000100
000200
,
100000
010300
002000
000100
,
003200
010000
100300
000000
,
100000
010000
100000
010000
100000
001000
010000
001000
,
010000
000100
001000
000100
002000
000000
000000
003100
,
010000
001000
100000
001100
,
100000
000100
020000
001000
,
031000
000000
100000
000000
010000
100000
010000
200000
,
000000
001000
310000
000100
001100
000000
110000
000000
,
002000
000000
000000
013000
000200
000000
000000
001300
,
000100
010000
000000
001000
110000
110000
000000
000000
,
000100
000000
010000
000000
001000
100000
010000
200000
,
000000
001000
310000
000100
001100
000000
110000
000000
,
002000
000000
000000
013000
000200
000000
000000
001300
,
000100
001000
000000
001100
001100
000000
000000
000000
,
100000
001000
002000
000000
013000
000100
000200
000000
,
001300
000100
200000
010000
320000
000000
130000
000000
,
002000
010000
013000
000000
000200
001000
001300
000000
,
000100
100000
010000
100000
010000
000000
110000
000000
,
001100
000100
000100
000100
,
001000
000100
000100
001100
,
011000
001000
001000
001000
,
010000
001000
001000
011000
,
110000
010000
010000
010000
,
100000
010000
010000
110000
,
100100
000100
000100
000100
,
010000
000000
000100
000000
001000
010000
100000
001000
,
200000
310000
002000
013000
,
000200
000000
001300
000000
000100
010000
001000
100000
,
200000
310000
002000
013000
,
200000
000000
301000
000000
010000
001000
011000
000000
;
