#TITLE:Pandemonium;
#SUBTITLE:;
#ARTIST:ZiGZaG;
#TITLETRANSLIT:;
#SUBTITLETRANSLIT:;
#ARTISTTRANSLIT:;
#GENRE:;
#CREDIT:;
#MUSIC:Pandemonium.ogg;
#BANNER:Pandemonium.png;
#BACKGROUND:Pandemonium-bg.png;
#CDTITLE:;
#SAMPLESTART:23.290;
#SAMPLELENGTH:13.020;
#SELECTABLE:YES;
#OFFSET:-0.013;
#BPMS:0.000=330.000;
#STOPS:124.000=0.363;
#BGCHANGES:;
#FGCHANGES:;

//--------------- dance-single - M. Puls ----------------
#NOTES:
     dance-single:
     M. Puls:
     Beginner:
     1:
     0.081554,0.258173,0.093726,0,0,67,56,11,0,0,0,0.081554,0.258173,0.093726,0,0,67,56,11,0,0,0:
0000
0000
0000
0000
,
0000
0000
0000
0000
,
0000
0000
0000
0000
,
0000
0000
0000
0000
,
0000
0000
0000
0000
,
0000
0000
0000
0000
,
0000
0000
0000
0000
,
0000
0000
0000
0000
,
1000
0000
0000
0000
,
0000
0000
0000
0000
,
0000
0000
0000
0000
,
0000
0000
0000
0000
,
1000
0000
0000
0000
,
0000
0000
0000
0000
,
0000
0000
0000
0000
,
0000
0000
0000
0000
,
0001
0000
0000
0000
,
0000
0000
0000
0000
,
0000
0000
0000
0000
,
0000
0000
0000
0000
,
0001
0000
0000
0000
,
0000
0000
0000
0000
,
0000
0000
0000
0000
,
0000
0000
0000
0000
,
0110
0000
0000
0000
,
0000
0000
0000
0000
,
0000
0000
0000
0000
,
0000
0000
0000
0000
,
0110
0000
0000
0000
,
0000
0000
0000
0000
,
0000
0000
0000
0000
,
0000
0000
1000
0000
,
0000
0000
0000
0000
,
0000
0000
0000
0000
,
0000
0000
0000
0000
,
0000
0000
0001
0000
,
0000
0000
0000
0000
,
0000
0000
0000
0000
,
0000
0000
0000
0000
,
0000
0000
0100
0000
,
0000
0000
0000
0000
,
0000
0000
0000
0000
,
0000
0000
0000
0000
,
0000
0000
0001
0000
,
0000
0000
0000
0000
,
0000
0000
0000
0000
,
0000
0000
1000
0000
,
0000
0000
1001
0000
,
0000
0000
0000
0000
,
0000
0000
0000
0000
,
0001
0000
0000
0000
,
0000
0000
1000
0000
,
0000
0000
0000
0000
,
0000
0000
0000
0000
,
0010
0000
0000
0000
,
0000
0000
1000
0000
,
0000
0000
0000
0000
,
0000
0000
0000
0000
,
0000
0000
0000
0000
,
0000
0000
0001
0000
,
0000
0000
0000
0000
,
0000
0000
0000
0000
,
0000
0000
0000
0000
,
0000
0000
1000
0000
,
0000
0000
0000
0000
,
0000
0000
0000
0000
,
0000
0000
0000
0000
,
0000
0000
0001
0000
,
0000
0000
0000
0000
,
0000
0000
0000
0000
,
0000
0000
0000
0000
,
0000
0000
0001
0000
,
0000
0000
0000
0000
,
0000
0000
1000
0000
,
0000
0000
0000
0000
,
0000
0000
0010
0000
,
0000
0000
0000
0000
,
0000
0000
0100
0000
,
0000
0000
0000
0000
,
0000
0000
0001
0000
,
0000
0000
0000
0000
,
0000
0000
1000
0000
,
0000
0000
0000
0000
,
0000
0000
0100
0000
,
0000
0000
0000
0000
,
0000
0000
1000
0000
,
0000
0000
0000
0000
,
0000
0000
1001
0000
,
0000
0000
0000
0000
,
0000
0000
1001
0000
,
0000
0000
0000
0000
,
0000
0000
1001
0000
,
0000
0000
0000
0000
,
0000
0000
1001
0000
,
0000
0000
0000
0000
,
0000
0000
0001
0000
,
0000
0000
0000
0000
,
0000
0000
0000
0000
,
0000
0000
0000
0000
,
0000
0000
1000
0000
,
0000
0000
0000
0000
,
0000
0000
0000
0000
,
0000
0000
0001
0000
,
0000
0000
0010
0000
,
0000
0000
0000
0000
,
0000
0000
0000
0000
,
0000
0000
0001
0000
,
0000
0000
1000
0000
,
0000
0000
0000
0000
,
0000
0000
0001
0000
,
0000
0000
0000
0000
,
0000
0000
1001
0000
,
0000
0000
0000
0000
,
0000
0000
0000
0000
,
0000
0000
0000
0000
,
0000
0000
0100
0000
,
0000
0000
0000
0000
,
0000
0000
0000
0000
,
0000
0000
0000
0000
,
0000
0000
0010
0000
,
0000
0000
0000
0000
,
0000
0000
0000
0000
,
0000
0000
0000
0000
,
0000
0000
1000
0000
,
0000
0000
0000
0000
,
0000
0000
1000
0000
,
0000
0000
0001
0000
,
0000
0000
1000
0000
,
0000
0000
0000
0000
,
0000
0000
0000
0000
,
0000
0000
0000
0000
,
0000
0000
0001
0000
,
0000
0000
0000
0000
,
0000
0000
0000
0000
,
0000
0000
0001
0000
,
0000
0000
1000
0000
,
0000
0000
0000
0000
,
0000
0000
0000
0000
,
0000
0000
0000
0000
,
0000
0000
0010
0000
,
0000
0000
0000
0000
,
0000
0000
0010
0000
,
0000
0000
0010
0000
,
0000
0000
1001
0000
,
0000
0000
0000
0000
,
0000
0000
0000
0000
,
0000
0000
0000
0000
,
0000
0000
1001
0000
,
0000
0000
0000
0000
,
0000
0000
0001
0000
,
0000
0000
1000
0000
,
0000
0000
1001
0000
;

//--------------- dance-single - K. Ward ----------------
#NOTES:
     dance-single:
     K. Ward:
     Easy:
     6:
     0.312827,0.459259,0.093726,0.315261,0,257,246,11,37,0,0,0.312827,0.459259,0.093726,0.315261,0,257,246,11,37,0,0:
0000
0000
0000
0000
,
0000
0000
0000
0000
,
0000
0000
0000
0000
,
0000
0000
0000
0000
,
0000
0000
0000
0000
,
0000
0000
0000
0000
,
0000
0000
0000
0000
,
0000
0000
0000
0000
,
0001
0000
0100
0000
,
0010
0000
1000
0000
,
0010
0000
0100
0000
,
0001
0000
0001
0000
,
1000
1000
1000
0000
,
0001
0001
0001
0000
,
1000
0000
0010
0000
,
0100
0000
0001
0000
,
0010
0000
0001
0000
,
0100
0000
0010
0000
,
1000
0100
1000
0000
,
0010
0000
0010
0000
,
0100
0000
0001
0000
,
0010
0000
0001
0000
,
0100
0010
0100
0000
,
0010
0000
0100
0000
,
0110
0000
0000
0000
,
0000
0000
0000
0000
,
1001
0000
0000
0000
,
0000
0000
0000
0000
,
0011
0000
0000
0000
,
1100
0000
0000
0000
,
0001
0000
1100
0000
,
1001
0000
1000
0000
,
0001
0000
0001
0000
,
0100
0000
0010
0000
,
1000
0000
0010
0100
,
0010
0000
1000
0000
,
0010
0000
0100
0000
,
0001
0000
0010
0001
,
0010
0000
0001
0000
,
0001
0000
0001
0000
,
1000
0000
0010
0000
,
1000
0000
0010
0000
,
0100
0000
0001
0010
,
0001
0000
1000
0000
,
1000
0000
0001
0000
,
0001
0000
1000
0100
,
1000
0100
1000
0000
,
0010
0000
0020
0000
,
0000
0000
0130
0000
,
0000
0000
0002
0000
,
0000
0000
0103
0000
,
0000
0000
0020
0000
,
0000
0000
0130
0000
,
0000
0000
0001
0000
,
0010
0000
0001
0000
,
0001
0000
1000
0000
,
0010
0000
0100
0000
,
0001
0000
1000
0000
,
0010
0000
0100
0000
,
0001
0010
0001
0000
,
1000
0000
0100
0000
,
1000
0000
0100
0000
,
1000
0000
0020
0000
,
0000
0000
0130
0000
,
0001
0000
0010
0000
,
0001
0000
1000
0000
,
0100
0000
1000
0000
,
0010
0100
0010
0000
,
1000
0000
0001
0000
,
0010
0000
0001
0000
,
1000
0000
0020
0000
,
1000
0030
1000
0000
,
0002
0000
0013
0000
,
0002
0000
1003
0000
,
0002
0000
0013
0000
,
0002
0000
1003
0000
,
0020
0000
0130
0000
,
0002
0000
0013
0000
,
0001
0000
0200
0000
,
0000
0000
0302
0000
,
1003
0000
0200
0000
,
1300
0000
0002
0000
,
1003
0000
0200
0000
,
1300
0000
0001
0000
,
0010
0000
0001
0000
,
0100
0000
0010
0000
,
1000
0000
0010
0000
,
0100
0000
0002
0000
,
0000
0000
0003
0000
,
0010
0000
0002
0000
,
0000
0000
0003
0000
,
0100
0000
0002
0000
,
0000
0000
0003
0000
,
0010
0000
0002
0000
,
0000
0000
0003
0000
,
1001
0000
2000
0000
,
0000
0000
0002
3000
,
0000
0000
0200
0003
,
0000
0000
0020
0300
,
0000
0000
2000
0030
,
0000
0000
0200
3000
,
0000
0000
2000
0000
,
0300
0000
3001
0000
,
0001
0000
0200
0000
,
0000
0000
0020
0000
,
0300
0000
2000
0000
,
0030
0000
0200
0000
,
3000
0000
2000
0000
,
0300
0000
3020
0000
,
0000
0030
0200
0000
,
0000
0000
0302
0000
,
0000
0000
1003
0000
,
1000
0000
1000
0000
,
0010
0000
0100
0000
,
0001
0000
0100
0010
,
0100
0000
0001
0000
,
0100
0000
0010
0000
,
1000
0000
0100
1000
,
0100
0000
1000
0000
,
0000
0000
1000
0000
,
0001
0000
0100
0000
,
0001
0000
0100
0000
,
0010
0000
1000
0100
,
1000
0000
0001
0000
,
0001
0000
1000
0000
,
1000
0000
0001
0000
,
1000
0000
0010
0000
,
0100
0000
0001
0000
,
0001
0000
0001
0000
,
0000
0000
0010
0000
,
0010
0000
0010
0000
,
0000
0000
0100
0000
,
0100
0000
0100
0000
,
0000
0000
1000
0000
,
0000
0000
1100
0000
,
0000
0000
0001
0000
,
1000
0000
0001
0000
,
0000
0000
0010
0000
,
0100
0000
0010
0000
,
0000
0000
0100
0000
,
1000
0000
0100
0000
,
0000
0000
1000
0000
,
0000
0000
0001
0000
,
1000
0000
1001
0000
,
0000
0000
0000
0000
,
0000
0000
0010
0000
,
0000
0000
1000
0000
,
0001
0000
1100
0000
,
0000
0000
0000
0000
,
0000
0000
0001
0000
,
0010
0000
0001
0000
,
1000
0000
2002
0000
,
0000
0000
0000
0000
,
0000
0000
0000
0000
,
3003
0000
0000
0000
;

//--------------- dance-single - K. Ward ----------------
#NOTES:
     dance-single:
     K. Ward:
     Medium:
     14:
     0.687732,0.852909,0.391946,0.29822,0.008521,565,519,46,35,22,0,0.687732,0.852909,0.391946,0.29822,0.008521,565,519,46,35,22,0:
0000
0000
0000
0000
,
0000
0000
0000
0000
,
0000
0000
0000
0000
,
0000
0000
0000
0000
,
0000
0000
0000
0000
,
0000
0000
0000
0000
,
0000
0000
0000
0000
,
0000
0000
0000
0000
,
1000
0010
0100
0001
,
0100
0010
1000
0100
,
1000
0010
0100
0001
,
0010
0001
0100
0001
,
0001
0100
0010
1000
,
0100
1000
0010
0100
,
0001
0010
0001
0100
,
0010
0000
1000
0000
0100
1000
0100
0000
,
1000
0010
0100
0001
,
0100
0010
1000
0100
,
1000
0010
0100
0001
,
0010
0001
0100
0001
,
0001
0100
0010
1000
,
0100
1000
0010
0100
,
0001
0010
0001
0000
0100
0010
0100
0000
,
0010
1000
0100
0000
1100
0000
0000
0000
,
1001
0000
0000
M00M
0000
0000
0011
0000
,
0000
00MM
0000
0000
1000
0000
0100
0000
,
1100
0000
0000
MM00
0000
0000
1010
0000
,
0000
M0M0
0000
0000
0001
0000
0010
0000
,
0011
0000
0000
00MM
0000
0000
0101
0000
,
0101
0000
0000
0M0M
0000
0000
1000
0000
,
0010
0100
0001
1000
,
1001
0000
1000
0001
,
0001
0100
0100
0001
,
0001
0010
0010
0001
,
0100
0010
1000
0100
,
1000
0100
1000
0000
0001
0000
0100
0000
,
0100
0010
0010
0100
,
0001
0001
1000
1000
,
0001
0100
0010
1000
,
0100
1000
0100
0000
1000
0000
0010
0000
,
0100
0001
0100
0001
,
0010
0001
1000
1000
,
0010
0100
0001
0010
,
0011
0000
0001
1000
,
1100
0000
0010
0100
,
0110
0000
1000
0001
,
0011
0001
0110
0100
,
0010
0100
0001
0000
0200
0000
0000
0000
,
0310
2000
0000
3100
,
1000
0001
0020
0000
,
0031
0200
0000
0310
,
1000
0100
2000
0000
,
3010
0200
0000
0310
,
1000
0001
0100
0010
,
1000
0000
0001
0000
1000
0001
1000
0001
,
1000
0000
0001
0010
,
0002
0100
0103
0010
,
2000
0100
3100
1000
,
0010
0100
0002
0010
,
0023
000M
0031
0100
,
0020
1000
1030
0100
,
2000
0010
3010
0100
,
0001
0010
0001
1000
,
1100
0000
0010
0100
,
0002
0100
0103
0010
,
2000
0001
3001
0100
,
0010
0100
0002
0010
,
0023
000M
0031
0100
,
0010
1000
1010
0010
,
0100
0001
0011
0010
,
0001
1000
0100
1000
,
1100
0000
0001
0010
,
0001
0100
0001
0010
,
0001
0100
0010
1000
,
0010
0100
0010
1000
,
0010
0100
0010
0000
1000
0000
0100
0000
,
1000
0010
1000
0100
,
1000
0010
0100
0001
,
0010
0001
0100
0010
,
1000
0100
1000
0000
0001
0000
0010
0000
,
0001
0100
0001
0010
,
0001
0100
0010
1000
,
0010
0100
0010
1000
,
0010
0100
0010
0000
1000
0000
0010
0000
,
0100
0001
0010
0001
,
0100
0010
1000
0010
,
0100
0001
0010
0001
,
0100
0010
1000
0000
0100
0000
1000
0000
,
1100
0000
0001
0010
,
0011
0000
1000
0100
,
1100
0010
0110
0110
,
0110
0000
0001
1000
,
1100
0000
0001
0010
,
0011
0000
1000
0010
,
0100
0000
0010
0000
1000
0100
1000
0100
,
2000
0000
3010
0100
,
0002
0000
0013
0001
,
0200
0000
0310
1000
,
0100
1000
1100
0000
,
0110
0000
1000
0100
,
0020
0000
0130
0010
,
0002
0000
0103
0010
,
1000
0100
1100
0000
,
0110
0000
0001
0010
,
0200
0000
0310
0100
,
2000
0000
3010
1000
,
0100
1000
1100
0000
,
0011
0000
0001
0000
,
1000
0000
1100
0000
,
0010
0000
0110
0000
,
0001
0000
0022
0000
,
0033
0000
0000
0000
0000
00MM
0000
0000
1000
0000
0000
0000
0001
0000
0000
0000
,
0100
0010
1000
0010
,
0100
0001
0010
0001
,
0010
0100
1000
0001
,
0100
0010
0100
0000
0001
0000
1000
0000
,
0010
0100
0001
0100
,
0010
1000
0100
1000
,
0100
0010
0001
0100
,
0010
0100
0010
0000
1000
0000
0010
0000
,
0100
0001
0100
0010
,
1000
1000
0010
0100
,
0001
0010
0001
0010
,
0011
0000
1000
0100
,
0010
0001
0010
0100
,
1000
0010
0100
0001
,
0010
0100
1000
0001
,
1001
0000
1000
0100
,
2000
0000
3010
0100
,
0020
0000
0130
0001
,
0010
0001
1000
0010
,
0100
0001
0100
0000
0010
0000
0100
0000
,
0002
0000
0013
0001
,
2000
0000
3010
0100
,
0001
1000
0100
1000
,
1100
0000
0000
0000
MM00
0000
0001
0000
0000
0010
0000
0000
,
0002
0000
0103
0010
,
0200
0000
0310
1000
,
0100
1000
0001
0100
,
0010
0100
0010
0000
1000
0000
0010
0000
,
2000
0000
3100
1000
,
0002
0000
0013
0001
,
0100
0010
0110
0110
,
0110
0000
1000
0100
,
1000
0000
0000
M000
0010
0000
0100
0000
,
0001
0000
0000
000M
0100
0000
0010
0000
,
1000
0010
0110
0000
,
1100
0000
1000
0100
,
1000
0000
0000
M000
0010
0000
0100
0000
,
0010
0000
0000
00M0
1000
0000
0001
0000
,
1000
0010
0110
0000
,
0011
0000
2002
0000
,
0000
0000
0000
0000
,
0000
0000
0000
0000
,
3003
0000
0000
0000
;

//--------------- dance-single - K. Ward ----------------
#NOTES:
     dance-single:
     K. Ward:
     Hard:
     17:
     1.021252,1.115343,0.673125,0.076685,0,839,760,79,9,28,0,1.021252,1.115343,0.673125,0.076685,0,839,760,79,9,28,0:
0000
0000
0000
0000
,
0000
0000
0000
0000
,
0000
0000
0000
0000
,
0000
0000
0000
0000
,
0000
0000
0000
0000
,
0000
0000
0000
0000
,
0000
0000
0000
0000
,
0000
0000
0000
0000
,
1000
0010
0100
0001
1000
0100
1000
0000
,
0010
0100
0001
0100
0001
0010
0001
0000
,
0100
0010
1000
0010
0100
0001
0010
0001
,
1000
0010
0100
0001
,
1000
0100
1000
0010
1000
0100
1000
0000
,
0001
0010
0001
0100
0001
1000
0001
0000
,
0100
0010
1000
0000
0010
0100
0001
0000
,
0100
0001
0011
0000
,
1010
0000
1001
0000
1000
0001
1000
0000
,
1001
0000
0101
0000
0001
1000
0001
0000
,
0001
0100
0010
0000
0100
0010
1000
0000
,
0001
0101
0110
0000
,
1100
0000
1100
0000
1000
0100
0010
0000
,
0011
0000
0011
0000
1000
0100
0010
0000
,
0001
1000
0001
0000
0100
0010
0100
0000
,
0001
0010
0001
0100
0010
1000
0100
0000
,
1100
0000
0000
MM00
0000
0000
0011
0000
,
0000
00MM
0000
0000
0100
0000
0010
0000
,
1100
0000
0000
MM00
0000
0000
0110
0000
,
0000
0MM0
0000
0000
0100
0010
1000
0100
,
1000
0000
0000
MM00
0000
0000
0101
0000
,
0101
0000
0000
0M0M
0000
0000
0001
0000
,
1000
0001
0100
0010
,
0220
0330
0000
0000
0MM0
0000
0000
0000
0100
0000
0010
0000
0100
0000
0000
0000
,
0001
0010
0001
0100
0000
0010
1000
0000
,
0010
0000
1010
0000
1000
0100
1000
0000
,
0010
0100
0001
0010
0000
0001
0010
0000
,
0011
0000
0011
0000
0001
0100
0010
0000
,
0100
0010
1000
0100
0000
1000
0010
0000
,
1000
0000
1010
0000
1000
0010
1000
0000
,
0001
0010
0001
0100
0000
0001
0010
0000
,
0021
0000
0000
0000
0031
1000
0100
0000
,
1000
0100
1000
0010
0000
0100
0001
0000
,
0100
0000
0101
0000
0001
0100
0010
0000
,
0100
0010
1000
0100
0000
1000
0010
0000
,
1010
0000
1010
0000
1000
0010
1000
0010
,
1000
0000
1001
0000
0001
0100
0001
0100
,
0001
0000
1001
0000
1000
0010
0100
0000
,
0001
0100
0010
0000
1000
0010
0100
0001
,
0100
0010
1000
0000
1100
0000
1000
0100
,
1000
0000
0010
0100
0001
0000
0010
0001
,
0100
0000
0010
0100
0010
0000
1000
0100
,
1000
0000
0010
0100
0001
0010
0001
0000
,
0011
0000
0000
0000
0001
0000
1000
0100
,
1000
0000
0001
0010
0001
0000
0100
0010
,
1000
0000
0010
0000
1000
0000
0100
1000
,
0010
0000
0100
0010
0100
0001
0010
0000
,
0002
1000
1003
0010
,
0100
0010
1000
0010
,
0100
0000
0001
0010
0001
0000
0100
0000
,
0010
1000
1000
0100
,
1000
0100
1000
0000
0010
0000
0100
0000
,
0001
0010
0001
0100
,
0010
0000
1000
0100
1000
0000
0010
0000
,
0100
0010
1000
0001
,
0100
0001
0100
0001
0100
0000
0010
0000
,
1000
0010
0100
0001
,
0010
0000
0001
0100
0010
0000
1000
0000
,
0010
0100
0001
0010
,
0001
0100
0010
0000
1000
0100
0000
1000
,
0010
0000
0100
0001
0000
0010
0001
0100
,
0010
0000
1000
0000
0010
0100
0000
0001
,
0010
0000
0001
0100
0000
0010
1000
0000
,
1002
0000
0000
0000
0103
0010
1000
0100
,
1000
0010
0100
0001
0100
0010
1000
0100
,
1000
0001
0100
0010
1000
0100
1000
0001
,
0010
0001
0100
0010
1000
0100
1000
0010
,
0100
0001
0010
0000
0001
0100
0010
1000
,
0001
0100
0010
1000
0100
1000
0010
0100
,
0001
0010
0001
0100
0010
1000
0001
0100
,
0010
1000
0100
0000
1000
0000
1010
0000
,
1001
0000
1001
0000
0001
0010
0001
0010
,
0001
0100
0010
1000
0010
0100
0001
0010
,
0001
0010
0001
0100
0010
1000
0100
1000
,
0100
1000
0010
0100
0001
0010
0001
0100
,
0010
0100
0010
0000
1000
0000
0010
0000
,
0100
0001
0101
0010
,
0100
1010
0100
0001
,
0101
0100
0001
0011
,
0001
0010
0001
0000
1000
0010
0000
0100
,
0010
0000
1000
0000
1100
0000
0000
MM00
,
0101
0000
0000
0M0M
0010
0001
0000
0100
,
0010
1000
0110
0110
,
0110
0000
0000
0MM0
0001
0100
0000
0010
,
0100
0000
0001
0000
0011
0000
0000
00MM
,
1010
0000
0000
0000
0100
1000
0010
0000
,
0100
0001
0010
0000
0001
0100
0010
1000
,
0010
1000
0100
0000
0010
0000
0001
0000
,
0100
0010
1000
0001
,
0010
0001
0100
0010
,
1000
0000
0001
0000
1001
0000
0000
1100
,
0000
0110
0010
1000
,
0001
0010
0001
0100
,
0010
1000
0001
0010
,
0001
0000
0100
0000
0001
0010
0000
0001
,
0100
0110
0010
1000
,
0010
0100
0001
1000
,
0100
1000
0010
0100
,
0001
0000
1000
0000
1001
0000
0000
0011
,
0000
0110
0100
0001
,
1000
0100
1000
0010
,
0100
0000
0001
0000
1000
0100
0000
1000
,
0010
0000
0100
0001
0010
0001
0010
0001
,
0100
0010
1000
0000
1100
0000
0100
0000
,
1000
0100
1000
0010
0000
0100
0001
0000
,
0010
0000
0011
0000
0001
0100
0010
0000
,
1000
0010
1000
0100
0000
1000
0100
0000
,
1100
0000
1100
0000
1000
0010
0100
0000
,
0010
0100
0001
0010
0000
0001
0100
0000
,
0001
0000
0011
0000
0001
0100
0010
0000
,
1000
0100
1000
0010
0000
1000
0100
0000
,
1100
0000
1100
0000
1000
0010
0100
0000
,
0001
0010
0001
0100
0000
0010
1000
0000
,
0010
0000
1010
0000
1000
0010
0100
0000
,
0010
0100
0001
0010
0000
0001
0100
0000
,
0101
0000
0101
0000
0001
0100
0001
0100
,
0001
0000
1001
0000
1000
0010
1000
0010
,
1000
0000
1001
0000
0001
1000
0100
0000
,
1000
0010
0100
0000
0100
0010
1000
0100
,
1000
0001
0200
0000
0301
0000
1000
0000
,
1100
0000
0000
0110
0000
0001
0010
0001
,
1000
0010
0100
0010
1000
0000
0010
0000
,
0110
0000
0000
0011
0000
0100
0010
1000
,
0001
0100
0001
0010
0001
0000
0100
0000
,
0110
0000
0000
1100
0000
1000
0010
0100
,
0001
0010
0001
0100
0010
0100
0001
0000
,
0010
0001
0100
0000
0010
1000
0100
1000
,
0001
0100
0002
0000
0013
0000
00M1
0000
,
0011
0000
0000
0110
0000
1000
0100
1000
,
0001
0100
0010
1000
0M10
0000
01M0
0000
,
0110
0000
0000
1100
0000
0010
0100
0001
,
0010
0001
0100
0010
1M00
0000
0M10
0000
,
0110
0000
0000
0011
0000
00M1
0100
0010
,
1000
0100
1000
0010
0100
0010
1000
0000
,
0010
0100
0001
0000
0010
0001
0100
0010
,
1000
0001
0020
0000
0031
0010
0001
0000
,
0100
0010
1000
0000
0100
1000
0010
0000
,
0100
0010
0100
0000
0001
0010
0001
0000
,
0100
0010
1000
0000
1100
0000
0000
0110
,
0000
0000
1100
0000
0001
0010
0001
0000
,
1000
0100
1000
0000
0010
0100
0001
0000
,
0010
0001
0100
0000
0010
1000
0010
1000
,
0001
0100
0001
0100
0001
0010
0001
0010
,
0001
0100
0001
0100
0020
0000
0000
0000
,
0000
0000
0000
0000
,
0000
0000
0000
0000
,
0030
0000
0000
0000
;

//--------------- dance-single - K. Ward ----------------
#NOTES:
     dance-single:
     K. Ward:
     Challenge:
     18:
     1.177056,1.180951,0.928742,0.357864,0.025562,967,858,109,42,37,0,1.177056,1.180951,0.928742,0.357864,0.025562,967,858,109,42,37,0:
0000
0000
0000
0000
,
0000
0000
0000
0000
,
0000
0000
0000
0000
,
0000
0000
0000
0000
,
0000
0000
0000
0000
,
0000
0000
0000
0000
,
0000
0000
0000
0000
,
0000
0000
0000
0000
,
1000
0010
1000
0010
1000
0001
1000
0001
,
0010
0001
0010
0001
0010
0100
0010
0100
,
0010
0100
1000
0100
1000
0100
1000
0001
,
1000
0001
0100
0001
0100
0010
0110
0000
,
0001
0100
0001
0100
0001
1000
0001
1000
,
0100
1000
0100
1000
0100
0010
0100
0010
,
0100
0010
0001
0010
0001
0010
0001
1000
,
0001
1000
0010
1000
0010
0100
0110
0000
,
0010
1000
1010
0000
1000
0010
0110
0000
,
0100
0001
0101
0000
1000
0010
1010
0000
,
0100
0010
0110
0000
0001
1000
1001
0000
,
1000
0001
1001
0000
1002
0000
0100
0000
,
0103
0001
0101
0000
0001
0100
0110
0000
,
0010
1000
1010
0000
0001
0100
0101
0000
,
0010
0100
0110
0000
1000
0001
1001
0000
,
0001
0100
0010
1000
0001
0100
0010
1000
,
2200
0000
0000
00MM
3000
0000
0020
0300
,
0000
MM00
0000
0000
0130
0000
1100
0000
,
0022
0000
0000
0000
0M03
0000
0100
0030
,
0000
0000
0MM0
0000
0010
0001
0100
0010
,
0110
0000
0000
0MM0
0000
0000
1010
0000
,
0202
0000
0000
0000
0000
0000
0000
0000
0000
M3M3
0000
0000
0000
0000
0M0M
0000
0000
0000
1100
0000
0000
0000
0000
0000
,
011M
110M
0110
0101
,
0220
0330
0000
0000
0MM0
0000
0000
0000
0020
0000
1000
0000
1000
0000
0000
0030
,
2000
0001
0000
0010
0000
3001
0020
0000
,
0100
0000
0130
0000
2000
0010
3020
0000
,
1000
0000
1030
0000
0000
0000
0200
0000
0000
0000
0010
0300
0001
0000
0000
0000
,
0011
0000
0110
0000
1000
0002
1000
0000
,
0203
0010
0000
0010
0300
1000
0010
0000
,
0110
0000
0101
0000
0001
0100
0001
0000
,
1000
0200
0000
0000
0310
0000
0011
0020
,
0000
0000
0001
0000
0130
0000
0000
0000
0200
0000
0010
0000
0010
0000
0000
0300
,
0020
1000
0000
0100
0000
0130
0200
0000
,
0010
0000
0310
0000
0002
0100
0203
0000
,
0001
0000
0301
0000
0000
0000
0002
0000
0000
0000
0100
0003
0010
0000
0000
0000
,
0100
0000
1100
0000
0010
2000
0001
0000
,
0020
3000
0100
0000
0000
0000
0100
0000
0030
0000
1000
0000
0100
0000
0000
0000
,
0110
0000
1100
0000
1000
0010
0001
0000
,
0001
0020
0000
0000
1030
0000
1100
0200
,
0000
1000
0310
0000
1000
0010
0100
0001
,
0100
0010
1000
0000
0001
0000
0110
0000
,
0100
0010
0100
0001
1000
0000
1000
0010
,
0000
0100
0010
0000
0110
0000
0001
0000
,
0011
0000
0000
0000
0000
0000
0000
0000
00MM
0000
0000
0000
0001
0000
0000
0100
0000
0000
0010
0000
0000
1000
0000
0000
,
0010
0100
0001
0000
1100
0000
1010
0000
,
0010
0100
0010
1000
0010
0000
0100
0010
,
0000
1000
0100
0000
1000
0010
0100
0001
,
0100
001M
1000
0010
0100
0000
0110
0000
,
1000
00M0
1100
0000
0010
0000
1100
0000
,
0010
M000
0100
0001
0010
0000
0011
0000
,
0100
000M
0110
0000
1000
0000
1010
0000
,
0M01
0010
0002
0000
0100
0003
0110
0000
,
1000
1100
1000
0110
,
0100
0000
00M0
0000
0000
0000
0001
0000
0000
0010
0000
0000
0001
0000
0000
0000
0000
0000
0100
0000
0000
0000
0000
0000
,
0110
1000
1010
110M
,
1000
0010
0100
0001
0010
0000
0M01
0000
,
0011
0000
0000
0100
0000
0000
0110
0000
0000
0010
0M00
0000
,
1000
0010
0100
0000
0001
0000
0011
0000
,
0100
1100
0010
0110
,
0001
0010
0002
0000
1000
0003
0110
0000
,
0010
0000
0000
1100
00M0
0000
0100
0000
0000
1000
0000
0000
,
0110
0000
0001
0010
0001
0000
0100
0000
,
0110
1100
0011
0110
,
2001
0000
00M0
0M00
3001
0100
0010
1000
,
0100
1000
0010
0100
0001
0010
0001
0100
,
0010
1000
0100
1000
0010
1000
0001
0010
,
0100
1000
0100
1000
0001
0100
0010
0100
,
0001
0010
0001
0100
0010
0100
0010
1000
,
0100
1000
0010
0100
0001
0010
0001
0100
,
0010
1000
0100
1000
0010
0100
0001
0010
,
0001
0100
0010
0100
0001
0010
0001
0100
,
0010
1000
0002
0000
1003
0100
1000
0010
,
0100
0001
0010
0001
0100
0010
0100
0010
,
1000
0100
1000
0010
0100
0001
0010
0001
,
0100
0001
0100
0010
1000
0010
0100
0010
,
0100
0001
0010
0001
0100
0010
1000
0010
,
0100
0001
0010
0001
0100
0010
1000
0100
,
1000
0010
0100
0010
1000
0010
0100
0001
,
0010
0001
0100
0010
0100
0010
0100
0001
,
0010
0001
0100
0010
1000
0100
0000
1000
,
1100
0010
0110
000M
,
0011
0000
0000
000M
0010
0001
0000
0010
,
0110
1000
1100
0110
,
2100
0000
0000
0MM0
3001
0010
0000
0100
,
1100
0000
0000
0000
0000
0000
0010
0000
0000
0000
0000
0000
0011
0000
0000
0000
0000
0000
0000
0000
0M00
000M
0000
0000
,
1010
0000
0000
0000
0001
0010
0001
0000
,
0100
0010
1000
0000
0100
1000
0010
0100
,
0001
0010
0002
0000
1000
0003
0100
1000
,
0010
0000
0100
0001
0010
0000
0001
0100
,
0010
0000
1000
0010
0100
0001
0010
0001
,
0100
0010
1000
0000
1001
0000
0000
0011
,
0000
0000
1010
0000
1100
0000
0100
1000
,
0010
0000
0100
0001
0010
0000
0001
0100
,
0010
0000
1000
0010
0100
0001
0010
0001
,
0100
0010
1000
0000
0010
0100
0000
0010
,
0110
0000
1100
0000
0011
0000
0010
0001
,
0100
0000
0010
1000
0100
0000
1000
0010
,
0100
0000
0001
0100
0010
1000
0010
0100
,
0001
0010
0001
0000
0011
0000
0000
0110
,
0000
0000
1100
0000
0001
0000
0010
0001
,
0100
0000
0010
1000
0100
0000
1000
0010
,
0100
0000
0001
0100
0010
0100
0000
0001
,
0011
0000
1000
0010
1000
0100
2000
0000
,
0010
0000
3010
0000
0010
0100
0010
0100
,
0010
1000
0010
1000
0100
1000
0100
1000
,
0100
0010
0100
0010
0100
0010
0001
0010
,
0001
0010
0001
1000
0001
1000
0010
1000
,
0010
0100
0110
0000
1000
0010
1000
0010
,
1000
0001
1000
0001
0010
0001
0010
0001
,
0010
0100
0010
0100
0010
0100
1000
0100
,
1000
0100
1000
0001
1000
0001
0100
0001
,
0100
0010
0110
0000
0010
1000
0010
1000
,
0100
1000
0100
1000
0010
0100
0010
0100
,
0010
1000
0010
1000
0010
1000
0010
0100
,
0001
0010
0001
0100
0010
0100
0010
1000
,
0100
1000
1100
0000
0001
0100
0010
1000
,
0010
0100
0010
1000
0100
1000
0010
0100
,
0001
0010
0001
0100
0010
1000
0100
1000
,
0010
0100
0010
1000
0100
1000
0010
0100
,
0001
0010
0002
0000
0010
0000
0013
0000
,
0011
0000
0000
0110
0000
1000
0100
1000
,
0001
0100
0010
0100
0110
0000
1000
0000
,
0110
0000
0000
1100
0000
0010
0100
0001
,
1000
0010
1000
0100
1100
0000
0010
0000
,
0110
0000
0000
0011
0000
0001
0100
0010
,
1000
0100
1000
0010
0100
0010
1000
0000
,
0100
1000
0010
0000
0100
0001
0100
0010
,
1000
0100
2000
0000
0100
0000
3100
0000
,
1100
0000
0000
0110
0000
0001
0010
0001
,
1000
0010
0100
0001
0011
0000
0100
0000
,
0110
0000
0000
0011
0000
0100
0010
1000
,
0100
1000
0010
0100
0110
0000
0001
0000
,
0011
0000
0000
1100
0000
1000
0010
0100
,
0001
0010
0001
0100
0010
1000
0100
0000
,
1000
0010
0100
0000
0010
1000
0010
0100
,
0001
0010
0011
0000
0001
0100
0010
1000
,
0100
1000
0010
0100
0001
0010
0001
0100
,
0010
1000
0100
1000
0010
0100
0001
0100
,
0010
1000
0100
0000
0020
0100
0000
0100
,
1030
0000
0110
0000
1000
0100
1000
0010
,
0100
0001
0010
0001
0100
0010
0100
0001
,
1000
0010
0100
0001
0010
0001
0100
0010
,
1000
0100
1000
0010
0100
0001
0010
0001
,
0100
0010
1000
0200
2000
0000
0000
0000
,
0000
0000
0000
0000
,
0000
0000
0000
0000
,
3300
0000
0000
0000
;

//--------------- dance-double - C. Foy ----------------
#NOTES:
     dance-double:
     C. Foy:
     Easy:
     6:
     0.335954,0.647031,0.29822,0.221535,0,276,241,35,26,24,0,0.335954,0.647031,0.29822,0.221535,0,276,241,35,26,24,0:
00000000
00000000
00000000
00000000
,
00000000
00000000
00000000
00000000
,
00000000
00000000
00000000
00000000
,
00000000
00000000
00000000
00000000
,
00011000
00000000
00000000
00000000
,
00000000
00000000
00000000
00000000
,
00100000
00000000
00000100
00000000
,
00010000
00000000
00000000
00000000
,
00011000
00000000
00000000
00000000
,
00001000
00010000
00001000
00000000
,
00000000
01000000
00010000
00000000
,
00100000
00010000
01000000
00000000
,
00010000
00100000
00001000
00000000
,
00100000
00000000
00000000
00001000
,
00010000
00000100
00001000
00000000
,
00000010
00000000
00000000
00000000
,
00000100
00000000
00000001
00000000
,
00001000
00000001
00000100
00000000
,
00000000
00000010
00001000
00000000
,
00000001
00000000
00000100
00000000
,
00000010
00001000
00000001
00000000
,
00000100
00000000
00000010
00000000
,
00001000
00000100
00010000
00000000
,
00000010
00000000
00010000
00000000
,
00010010
00000000
00000000
00000000
,
00000000
00000000
00000000
00000000
,
00011000
00000000
00000000
00000000
,
00000000
00000000
00000000
00000000
,
01001000
00000000
00000000
00000000
,
00000000
00000000
00000000
00000000
,
01010000
00000000
02020000
00000000
,
M3M3MMMM
00000000
01000000
00000000
,
00000000
00000000
00100000
01000000
,
00000000
00000000
00000000
00010000
,
01000000
00000000
00001000
00000000
,
00010000
00000000
00001000
00010000
,
00001000
00000000
00010000
00000100
,
00010000
00000000
00000100
00001000
,
00000100
00000000
00000010
00000000
,
00000010
00000000
00000001
00000000
,
00000000
00000000
00000001
00000100
,
00000001
00000000
00000000
00000100
,
00000010
00000000
00000010
00010000
,
00000100
00000000
00000100
00010000
,
00001000
00000000
00010000
00000000
,
00001000
00000000
01000000
00001000
,
01000000
00000000
00010000
00000000
,
00100000
00000000
00110000
00000000
,
00000000
00000000
00010000
01000000
,
00010000
00000000
00000000
01000000
,
00100000
00000000
00100000
10000000
,
00010000
00000000
10000000
00010000
,
10000000
00000000
00010000
00000000
,
00000000
00000000
10000000
01000000
,
00100000
00000000
00001000
00000000
,
00010000
00000000
00022000
00000000
,
00000000
00000000
00000000
00000000
,
00000000
00000000
00000000
00000000
,
00000000
00000000
00000000
00033000
,
00000000
00000000
02002000
00000000
,
00000000
00000000
00000000
00000000
,
00000000
00000000
00000000
00000000
,
00000000
00000000
00000000
00000000
,
00000000
03003000
00220000
00000000
,
00000000
00000000
00000000
00000000
,
00000000
00000000
00000000
00000000
,
00000000
00030000
00002000
00000000
,
00000000
00303000
00020200
00000000
,
00000000
00000000
00000000
00000000
,
00000000
00000000
00000000
00000000
,
00000000
00000000
00000000
00000000
,
00030300
00000000
MMMM2M2M
00000000
,
00000000
00000000
00000000
00000000
,
00000000
00000000
00000000
00000000
,
00000000
00000000
00000000
00000000
,
00003030
00000000
00000202
00000000
,
00000000
00000000
00000000
00000000
,
00000000
00000000
00000000
00000000
,
00000000
00000000
00000000
00000000
,
00000303
00000000
00002200
00000000
,
00000000
00000000
00000000
00000000
,
00000000
00000000
00000000
00000000
,
00000000
00003300
00000000
00022000
,
00000000
00030000
00200000
00000000
,
00000000
00000000
00000000
00000000
,
00003000
00000000
00000000
00300000
,
20020000
00000000
00000000
00000000
,
00000000
30030000
02200000
00000000
,
00000000
00000000
M00M0000
00000000
,
M33M0000
00000000
00000000
00000000
,
00000000
00000000
10010000
00010000
,
10010000
00000000
00000000
00000000
,
00000000
00000000
00101000
00000000
,
00011000
00000000
00000000
00000000
,
00000000
00000000
00010100
00000000
,
00000000
00000000
01001000
00000000
,
00000000
00000000
00000000
00000000
,
00000000
00000000
00000000
00000000
,
00000000
00000000
00001000
00000000
00100000
00000000
00000000
00010000
,
00000000
00100000
01000000
00000000
,
01100000
00000000
00000000
00000000
,
00000000
00000000
00000000
00000000
,
00000000
00000000
00100000
00000000
00001000
00000000
00000000
00010000
,
00000000
00000100
00001000
00000000
,
00001100
00000000
00000000
00000000
,
00000000
00000000
00000000
00000000
,
00000000
00000000
00000010
00000000
00000100
00000000
00000000
00000001
,
00000000
00000100
00000010
00000000
,
00001010
00000000
00000000
00000000
,
00000000
00000000
00010000
00000000
,
00001000
00000000
00010000
00000000
,
00001000
00000000
00010000
00001000
,
00010000
00000000
00001000
01000000
,
00001000
00000000
00010000
00000100
,
00010000
00000000
00001000
00100000
,
00001000
00000000
00001000
00000000
,
00010000
00000000
00001000
00010000
,
00001000
00000000
00010000
00000100
,
00010000
00000000
00000100
00000000
,
00001000
00000100
00000000
00001000
,
00000001
00000000
00000001
00000100
,
00000010
00000000
00001000
00000000
,
00000100
00000000
00010000
00001000
,
00010000
00000000
00011000
00000000
,
00000000
00000000
00101000
00000000
,
00000000
00000000
01001000
00000000
,
01010000
00000000
01001000
00000000
,
01010000
00000000
M2M2MMMM
00000000
,
00000000
00000000
00000000
00000000
,
03030000
00000000
00000000
00000000
,
00000000
00000000
00000000
00000000
,
00000000
00000000
00001000
01000000
,
00010000
00000000
01000000
00000000
,
00100000
00000000
10000000
01000000
,
10000000
00000000
00000000
00000000
00100000
00000000
00000000
01000000
,
00000000
00010000
01000000
00001000
,
00010000
00000000
00001000
00010000
,
00000100
00000000
00001000
00000000
,
00000010
00000000
00001000
00000001
,
00000100
00000000
00000010
00000100
,
00000001
00000000
00000010
00000100
,
00001000
00000000
00000100
00010000
,
00000010
00000000
00000000
00000000
00001000
00000000
00000000
00000100
,
00000000
00010000
00001000
00010000
,
00000100
00000000
00010000
00001000
,
01000000
00000000
00000000
01000000
,
00100000
10000000
01000000
00000000
,
00100000
00000000
00010000
01000000
,
00100000
00000000
01000000
00000000
,
01000000
00000000
00001000
00010000
,
00001000
00010000
00000100
00100000
,
00010000
00000000
01000000
00000000
01100000
00000000
00000000
0MM00000
;

//--------------- dance-double - C. Foy ----------------
#NOTES:
     dance-double:
     C. Foy:
     Medium:
     9:
     0.681646,0.84091,0.468632,0.170411,0.00426,560,505,55,20,72,0,0.681646,0.84091,0.468632,0.170411,0.00426,560,505,55,20,72,0:
00000000
00000000
00000000
00000000
,
00000000
00000000
00000000
00000000
,
00000000
00000000
00000000
00000000
,
00000000
00000000
00000000
00000000
,
00011000
00000000
00000000
00000000
,
00000000
00000000
00000000
00000000
,
00101000
00000000
01001000
00000000
,
00001000
00010000
00001000
00000000
00010000
00001000
00010000
00000000
,
00001000
00010000
00001000
00100000
,
00001000
01000000
00001000
00010000
,
00000100
00010000
00000010
00010000
,
00001000
00010000
00000100
00000000
,
00010000
00001000
01000000
00010000
,
01000000
00010000
01000000
00100000
,
10000000
01000000
00100000
01000000
,
00100000
00010000
01000000
00000000
,
00001000
00010000
00001000
00010000
,
00000100
00001000
00000100
00000010
,
00000000
00000100
00000010
00000001
,
00000100
00000010
00001000
00000000
,
00000100
00010000
00001000
00010000
,
00001000
01000000
00001000
00010000
,
00000100
00000000
00001100
00000000
,
00011000
00000000
01001000
00000000
,
MMM12MMM
00000000
00000000
00010000
,
00003000
00000000
00000100
00010000
,
00021000
00000000
00000000
00001000
,
00000000
00030000
00000000
00011000
,
00011000
00000000
00000000
00000100
,
00010000
00000000
00000000
00000000
,
00010100
00000000
00010100
00000000
,
MMM22MMM
00033000
00010000
00001000
,
00010000
00000100
00010000
00000010
,
00010000
00001000
00100000
00001000
,
01000000
00001000
00010000
00001000
,
00100000
00000000
00001000
00010000
,
00000010
00001000
00000010
00001000
,
00000010
00000100
00000001
00000010
,
00000100
00000010
00000100
00001000
,
00000010
00000000
00010000
00001000
,
00010000
00001000
00100000
00010000
,
00100000
01000000
00000000
00100000
,
01000000
10000000
00100000
01000000
,
00010000
00000000
00100000
00001000
,
00010000
00001000
00010000
00000010
,
00010000
00001000
00100000
00000000
,
00110000
00000000
00011000
00000000
,
00010010
00000000
MMM22MMM
00000000
,
00033000
00000000
00010000
00001000
,
00010000
00000100
00000000
00010000
00000000
00000000
00000100
00000000
,
00001000
00000100
00000000
00000000
00001000
00000000
00000001
00000000
,
00001000
00000000
00000000
00000010
00001000
00000000
00000010
00000000
,
00001000
00000010
00000000
00000000
00001000
00000000
00000000
00000000
,
00000100
00010000
00000000
00000000
00001000
00000000
00010000
00000000
,
00001000
00010000
00000000
00000000
00000010
00000000
00001000
00000010
,
00000000
00001000
00000010
00000000
MMMMMM2M
00000000
00000100
00000030
,
00000001
00000100
00000010
00000100
,
00000001
00000100
00000010
00001000
,
00000010
00001000
00010000
00001000
,
00010000
01000000
M001M000
01000000
,
00100000
01000000
00100000
10000000
,
00100000
10000000
01000000
10000000
,
01000000
00100000
01000000
00100000
,
10000000
00100000
1M0M0000
00100000
,
01000000
10000000
01000000
10000000
,
01000000
10000000
01000000
00100000
,
00010000
00100000
0M01M000
00001000
,
00010000
00001000
00M10M00
00001000
,
00000100
00000010
00000100
00000010
,
00000001
00000100
00000001
00000100
,
00000010
00000100
00000010
00000001
,
00000010
00000001
MMMMMM10
00000100
,
00000010
00000100
00001000
00000100
,
00001000
00000100
00001000
00010000
,
00001000
00010000
00100000
00010000
,
00100000
00010000
MM100000
01000000
,
00100000
01000000
10000000
01000000
,
10000000
01000000
00100000
01000000
,
00010000
10000000
01000000
00100000
,
01000000
10000000
01MM0000
10000000
,
01000000
00100000
00010000
00001000
,
00000100
00000010
00000001
00000010
,
00000001
00000010
0000MM01
00000100
,
00000010
00000100
0000M01M
00000001
,
00000010
00000100
00001000
00010000
,
00100000
01000000
10MM0000
01000000
,
10000000
01000000
00100000
1M0M0000
,
00010000
10000000
1MM10000
00000000
,
00120000
00000000
00000000
00030000
01010000
00000000
00000000
00000000
,
00021000
00000000
00000000
00030000
00001000
00010000
00000000
00001000
,
00010000
00000100
00010100
00010100
,
00020100
00000000
00000000
00030000
00000100
00010000
00000000
00001000
,
00010000
00000000
00001000
00000000
01002000
00000000
00000000
00003000
,
02001000
00000000
00000000
03000000
00001000
00010000
00001000
00000000
,
00010000
00001000
00010000
00000000
00021000
00000000
00000000
00030000
,
00021000
00000000
00000000
00030000
00010200
00000000
00000000
00000000
,
00020000
00000000
00000000
00000000
,
00030300
00000000
00000000
00000000
,
00000000
00000000
01001000
00000000
01001000
00000000
00000000
00101000
,
00000000
00101000
00101000
00000000
,
00011000
00000000
00000000
00000000
,
00000000
00000000
00000000
00000000
,
00000000
00000000
00011000
00000000
00001000
00010000
00000000
00010000
,
00001000
00011000
00011000
00000000
,
00010100
00000000
00000000
00000000
,
00000000
00000000
00000000
00000000
,
00000000
00000000
00110000
00000000
00110000
00000000
00000000
00101000
,
00000000
00011000
00011000
00000000
,
00010100
00000000
00000000
00000000
,
00000000
00000000
00000001
00000000
,
00000100
00000000
00001000
00000000
,
00010000
00000000
00M11M00
00001000
,
01000000
00010000
01000000
00100000
,
10000000
01000000
10000000
01000000
,
00100000
00010000
01000000
00001000
,
01000000
00000000
00000000
00010000
01000000
00000000
00010000
00000000
,
01000000
00001000
01000000
00001000
,
00010000
00000000
00000100
00000000
00010000
00000100
00000000
00000000
,
00001000
00000100
00000010
00000001
,
00000100
00000001
00000100
00000010
,
00001000
00000100
00000010
00000001
,
00000100
00000010
00001000
00000100
,
00010000
00001000
00010000
00000100
,
00000000
00010000
00001000
00000000
00011M00
00000000
00000000
00000000
,
00000000
00000000
01M10000
00000000
,
00000000
00000000
1M010000
00000000
,
01M10000
00000000
110M0000
00000000
,
101M0000
00000000
2M020000
00000000
,
30030000
00000000
10000000
01000000
,
10000000
01000000
00000000
10000000
00010000
00000000
01000000
00000000
,
00010000
01000000
00000000
00000000
00001000
00000000
00010000
00000000
,
00001000
00010000
00000000
00001000
00010000
00000000
00001000
00000000
,
01000000
00001000
00000000
01000000
00001000
00000000
00010000
00000000
,
00001000
00010000
00000000
00000100
00010000
00000000
00000100
00000000
,
00001000
00000100
00000000
00000000
00010000
00000000
00000000
00001000
,
00010000
00001000
00010000
00000000
00001000
00000000
01000000
00000000
,
00001000
00010000
00000000
00001000
00010000
00000000
00000100
00000000
,
00010000
00000100
00000000
00010000
00000100
00000000
00001000
00000000
,
00000100
00001000
00000000
00000010
00001000
00000000
00000010
00001000
,
00000010
00000000
00000000
00001000
00000001
00000000
00001000
00000000
,
00000010
00000100
00000000
00000010
00001000
00000000
00000010
00000000
,
00000000
00010000
00001000
00000000
00010000
00000000
00001000
00000000
,
00010000
00001000
00010000
00000000
00001000
00000000
00000000
01000000
,
00000000
00001000
00010000
00000000
00M22M00
00000000
00033000
00000000
,
01000000
00001000
01000000
00010000
,
01000000
00010000
00000000
00000000
01000000
00000000
00010000
00000000
,
10000000
00010000
01000000
00100000
,
10000000
00010000
00000000
00100000
00010000
00000000
00010000
00000000
,
01000000
00010000
00000000
10000000
00010000
00000000
00100000
00000000
,
00001000
00100000
00000000
00000000
00001000
00000000
00010000
00000000
,
00001000
00000000
01000000
00000000
00001000
00000000
00000000
01000000
,
00010000
00000000
00000000
01000000
00000000
00000000
00100000
00000000
00000000
00000000
00000000
00000000
1100MMMM
00000000
00000000
000M0000
00000000
00000000
00M00000
00000000
MM000000
00000000
00000000
00000000
;

//--------------- dance-double - C. Foy ----------------
#NOTES:
     dance-double:
     C. Foy:
     Hard:
     10:
     0.761983,0.839756,0.366385,0.136329,0,626,583,43,16,36,0,0.761983,0.839756,0.366385,0.136329,0,626,583,43,16,36,0:
00000000
00000000
00000000
00000000
,
00000000
00000000
00000000
00000000
,
00000000
00000000
00000000
00000000
,
00000000
00000000
00000000
00000000
,
00011000
00000000
00000000
00000000
,
00000000
00000000
00000000
00000000
,
00101000
00000000
01001000
00000000
,
00001000
00010000
00001000
00010000
00001000
00010000
00001000
00010000
,
00001000
00000000
00010000
00000000
00001000
01000000
00000000
00000000
,
00010000
00000000
01000000
00000000
00010000
00100000
00000000
00010000
,
01000000
00000000
00100000
00000000
10000000
00100000
00000000
10000000
,
00010000
00000000
01000000
00000000
00100000
10000000
00000000
01000000
,
00100000
00000000
00010000
00000000
01000000
00010000
00000000
01000000
,
00001000
00000000
00010000
00000000
00001000
00010000
00000000
00000100
,
00010000
00000000
00001000
00000000
00100000
00001000
00000000
00010000
,
00001000
00000000
00000000
00010000
00000000
00000100
00010000
00000000
,
00001000
00000000
01000000
00001000
01000000
00001000
00000000
01000000
,
00010000
00000000
01000000
00000000
00100000
01000000
00000000
00100000
,
10000000
00000000
00010000
00000000
10000000
00010000
00000000
01000000
,
00010000
00000000
01000000
00000000
00100000
10000000
00000000
00010000
,
01000000
00000000
00100000
00000000
01000000
00100000
00000000
10000000
,
00010000
00000000
10000000
00000000
01000000
00100000
00000000
01000000
,
10000000
00000000
00010000
00000000
01000000
00001000
00000000
00000000
,
01000000
00000000
00000000
00001000
00000000
00010000
00001000
00000000
,
MMM12MMM
00000000
00000000
00010000
,
00003000
00000000
00000100
00010000
,
00021000
00000000
00000000
00001000
,
00000000
00030000
00000000
00011000
,
01001000
00000000
00000000
00001000
,
00010000
00000000
00000000
00000000
,
00010100
00000000
00000000
00000000
00010010
00000000
MMM0MM0M
MMM00M0M
,
MMM21MMM
MMM3MMMM
00000000
00000000
00001000
00000000
00010000
00000000
,
00000100
00001000
00000000
00000000
00000100
00000000
00001000
00000000
,
00000010
00001000
00000000
00001000
00000001
00000000
00000100
00000000
,
00000010
00001000
00000000
00000001
00000010
00000000
00000001
00000000
,
00000100
00000010
00000000
00001000
00000100
00000000
00000010
00000000
,
00000001
00001000
00000000
00000100
00010000
00000000
00001000
00000000
,
00010000
00000100
00000000
00010000
00001000
00000000
00010000
00000000
,
00000010
00010000
00000000
00000010
00001000
00000000
00000000
00000100
,
00000000
00010000
00001000
00000000
01000000
00000000
00001000
00010000
,
00001000
00010000
00000000
00001000
01000000
00000000
00010000
00000000
,
00010000
00100000
00000000
00010000
01000000
00000000
00010000
00000000
,
10000000
00010000
00000000
01000000
00010000
00000000
01000000
00000000
,
00100000
01000000
00000000
00100000
10000000
00000000
01000000
00000000
,
10000000
00010000
00000000
10000000
00100000
00000000
01000000
00000000
,
00100000
01000000
00000000
00010000
01000000
00000000
00001000
00000000
,
00010000
00001000
00000000
00000000
00010000
00000000
00000000
00000100
,
00000000
00010000
00001000
00000000
00022000
00000000
00000000
00000000
,
00033000
00000000
00010000
00000100
,
00001000
00000100
00000000
00001000
00000000
00000000
00000100
00000000
,
00001000
00000100
00000000
00000000
00001000
00000000
00000001
00000000
,
00001000
00000000
00000000
00000010
00001000
00000000
00000010
00000000
,
00000100
00000001
00000000
00000000
00000100
00000000
00000000
00000000
,
00000001
00000100
00000000
00000000
00000010
00000000
00000100
00000000
,
00000010
00001000
00000000
00000000
00000001
00000000
00000000
00000010
,
00000000
00000001
00000010
00000000
00000011
00000000
00000001
00000000
,
00000100
00000010
00000100
00000001
,
00000100
00001000
00010000
00100000
,
10000000
00100000
10000000
00010000
,
10000000
00010000
10000000
00000000
00010000
00000000
10000000
00000000
,
01000000
10000000
01000000
00100000
,
01000000
10000000
01000000
00100000
,
00010000
00001000
00000100
00000001
,
00000100
00000001
00000100
00000001
00000100
00000000
00000001
00000000
,
00000100
00000010
00000001
00000100
,
00000010
00000100
00000001
00000100
,
00001000
00010000
00100000
10000000
,
00100000
10000000
00100000
00000000
10000000
00000000
01000000
00000000
,
00100000
10000000
00100000
10000000
,
00100000
00010000
00001000
00000100
,
00000001
00000100
00000010
00000001
,
00001000
00000001
00001000
00000001
00001000
00000000
00000001
00000000
,
00000100
00000010
00000001
00000010
,
00001000
00010000
01000000
10000000
,
01000000
00100000
10000000
01000000
,
10000000
01000000
10000000
00000000
01000000
00000000
00100000
00000000
,
00010000
00001000
00000100
00000001
,
00000100
00000001
00000100
00000010
,
00000001
00001000
00000010
00000100
,
00000010
00000100
00000010
00000100
00000010
00000000
00000100
00000000
,
00000010
00000001
00000010
00000100
,
00001000
00010000
00100000
01000000
,
10000000
01000000
00100000
10000000
,
01000000
10000000
01000000
00000000
10000000
00000000
01000000
00000000
,
00100000
00010000
00001000
00000100
,
00000010
00000001
00000010
00000001
,
00000011
00000001
00000100
00000001
,
00000100
00000001
00000100
00000000
00000101
00000000
00000000
00000000
,
00000000
00000000
00000000
00000000
00001200
00000000
00000000
00000300
,
00021000
00000000
00000000
00030000
00001000
00100000
00000000
00001000
,
01000000
00001000
01001000
00011000
,
02001000
00000000
00000000
03000000
00001000
00010000
00000000
00001000
,
01000000
00000000
00001000
00000000
01002000
00000000
00000000
00003000
,
00201000
00000000
00000000
00300000
00001000
00010000
00001000
00000000
,
00010000
00001000
00010000
00000000
00021000
00000000
00000000
00030000
,
00020100
00000000
00000000
00030000
00010020
00000000
00000000
00000000
,
00020000
00000000
00000000
00000000
,
00030030
00000000
00000000
00000000
,
00000000
00000000
00011000
00000000
01001000
00000000
00000000
00101000
,
00000000
01001000
00011000
00000000
,
00010100
00000000
00000000
00000000
,
00000000
00000000
00000000
00000000
,
00000000
00000000
00010100
00000000
00000100
00010000
00000000
00010000
,
00000100
00010100
00011000
00000000
,
00010010
00000000
00000000
00000000
,
00000000
00000000
00000000
00000000
,
00000000
00000000
00001100
00000000
00010100
00000000
00000000
00001100
,
00000000
00000110
00000110
00000000
,
00000011
00000000
00000000
00000000
,
00000000
00000000
00000001
00000000
,
00000100
00000000
00001000
00000000
,
00010000
00000000
00100000
10000000
,
00100000
10000000
00000000
00000000
00010000
00000000
00100000
00000000
,
00010000
01000000
00000000
00100000
10000000
00000000
01000000
00000000
,
00100000
00010000
00000000
00010000
01000000
00000000
00001000
00000000
,
01000000
00001000
00000000
00010000
00001000
00000000
00100000
00000000
,
00001000
00010000
00000000
00000100
00010000
00000000
00001000
00000000
,
00010000
00000100
00000000
00001000
00000100
00000000
00001000
00000000
,
00000100
00000010
00000000
00000001
00000100
00000000
00000000
00000001
,
00000000
00001000
00000001
00000000
00000100
00000000
00000010
00001000
,
00000010
00001000
00000000
00000010
00001000
00000000
00000100
00000000
,
00010000
00001000
00000000
00010000
00001000
00000000
01000000
00000000
,
00001000
01000000
00000000
00010000
00000000
01000000
00010000
00000000
,
10000000
00010000
00000000
10000000
00100000
00000000
01000000
00000000
,
00100000
10000000
00000000
01000000
10000000
00000000
00010000
00000000
,
00100000
01000000
00000000
00100000
00010000
00000000
01000000
00000000
,
00010000
01000000
00000000
00000000
00001000
00000000
00000000
01000000
,
00000000
00001000
00010000
00000000
00022000
00000000
00000000
00000000
,
00033000
00000000
00010000
00000100
,
00010000
00000100
00000000
00010000
00000100
00000000
00001000
00000000
,
00000100
00001000
00000000
00000000
00000010
00000000
00001000
00000000
,
00000010
00001000
00000000
00000001
00000100
00000000
00000010
00000000
,
00001000
00000100
00000000
00010000
00000100
00000000
00010000
00000000
,
00001000
00010000
00000000
00000100
00010000
00000000
00001000
00000000
,
01000000
00001000
00010000
00000000
00000010
00000000
00000000
00010000
,
00000010
00010000
00000010
00000000
00010000
00000000
00000100
00000000
,
00010000
00000010
00000000
00010000
00001000
00000000
00100000
00000000
,
00001000
01000000
00000000
00001000
00010000
00000000
00000100
00000000
,
00010000
00000010
00000000
00010000
00001000
00000000
00100000
00001000
,
00100000
00000000
00000000
00001000
00100000
00000000
00010000
00000000
,
00100000
00010000
00000000
00100000
01000000
00000000
00100000
00000000
,
00000000
00010000
00000000
10000000
00010000
00000000
01000000
00000000
,
00100000
01000000
00100000
00000000
10000000
00000000
00000000
00010000
,
00000000
00100000
00001000
00000000
00011000
00000000
00100000
00000000
,
00001000
01000000
00001000
00010000
,
00000010
00010000
00000000
00000000
00001000
00000000
00010000
00000000
,
00000100
00001000
00000010
00001000
,
00000001
00001000
00000000
00000010
00001000
00000000
00000100
00000000
,
00000010
00000001
00000000
00000100
00000001
00000000
00001000
00000000
,
00000100
00010000
00000000
00000000
00001000
00000000
00100000
00000000
,
00001000
00000000
01000000
00000000
00001000
00000000
00000000
01000000
,
00001000
01000000
00001000
00000000
M1MM01MM
0000M000
00000000
00000000
;

//--------------- dance-double - M. Emirzian ----------------
#NOTES:
     dance-double:
     M. Emirzian:
     Challenge:
     12:
     0.979866,1.180951,0.766852,0.110767,0.029822,805,715,90,13,35,0,0.979866,1.180951,0.766852,0.110767,0.029822,805,715,90,13,35,0:
00000000
00000000
00000000
00000000
,
00000000
00000000
00000000
00000000
,
00000000
00000000
00000000
00000000
,
00000000
00000000
00000000
10010000
,
01010000
00000000
00000000
00001000
,
00000000
00000000
00010000
00000000
,
00000110
00000000
00001001
00000000
,
00000100
00000010
00001000
00000001
00000010
00000100
00001000
00000001
,
00000100
00000000
00000010
00000000
00001000
00000001
00000100
00000010
,
00001000
00000000
00000100
00000000
00010000
00001000
00000000
01000000
,
00000000
00100000
01000000
00000000
00010000
00000000
10000000
01000000
,
00100000
00010000
01000000
00000000
00100000
10000000
00000000
10000000
,
01000000
00000000
10010000
00000000
10000000
01000000
00100000
00010000
,
01000000
00000000
01001000
00000000
00001000
00010000
00000000
00010000
,
00000100
00000000
00001100
00000000
00000001
00001000
00000010
00000100
,
00000001
00000010
00000000
00001100
00000000
00010000
00000100
00000000
,
00001000
00000000
00000010
00000000
00001000
00000100
00010000
00000010
,
00010000
00000000
00011000
00000000
01000000
00100000
00000000
01010000
,
00000000
00010000
10000000
00000000
01000000
00000000
00100000
00010000
,
10000000
00000000
01000000
00000000
00100000
00010000
00000000
00010000
,
01000000
00000000
01001000
00000000
00010000
00000100
00000000
00000100
,
00001000
00000000
00001001
00000000
00000010
00000100
00000000
00000100
,
00000001
00000000
00000110
00000000
00001000
00000100
00000010
00000001
,
00000100
00000010
00000000
00001000
00000000
00000010
00010000
00000000
,
00011000
00000000
01000000
00110000
,
00000000
01000000
10000000
00100000
,
01010000
00000000
00100000
01001000
,
00000000
00001000
00010000
00010010
,
00001010
00000000
00000001
00000010
,
00001100
00000000
00000001
00000100
,
00001010
00000000
00000000
00000000
00000000
00000000
00000000
0000M0M0
00000000
00000000
00000000
00000000
01010000
00000000
00000000
00000000
00000000
00000000
00000000
0M0M0000
00000000
00000000
00000000
00000000
,
10100000
00000000
00000000
00000000
00000000
00000000
00000000
M0M00000
00000000
00000000
00000000
00000000
10010000
00000000
00000000
00000000
00000000
00000000
11000000
00000000
00000000
00000000
00000000
00000000
,
00100000
00010000
01000000
00100000
10000000
00000000
10010000
00000000
,
00010000
01000000
00000000
01001000
00000000
00001000
00010000
00000000
,
00000010
00000000
00001000
00000100
00000010
00000000
00000011
00000000
,
00000001
00000100
00000000
00000100
00000010
00000000
00001010
00000000
,
00000100
00000001
00000010
00000100
00001000
00000000
00000010
00000000
,
00010000
00001000
00000000
00001000
01000000
00000000
01010000
00000000
,
00100000
10000000
01000000
00100000
00010000
01000000
00000000
01100000
,
00000000
00100000
10000000
00000000
10010000
00000000
01000000
00000000
,
00100000
10000000
01000000
00100000
00010000
00000000
01010000
00000000
,
00001000
00010000
00000000
00010100
00000000
00010000
00001000
00000000
,
00000100
00000000
00000001
00001000
00000100
00000000
00000011
00000000
,
00000001
00000100
00000000
00000100
00000010
00000000
00001001
00000000
,
00000010
00000100
00000000
00000100
00010000
00000000
00001100
00000000
,
00000001
00000100
00000000
00000100
00000010
00000000
00001010
00000000
,
00001000
00000100
00001000
00000001
00000100
00000010
00000000
00010000
,
00000000
00001000
00010000
00000000
01001000
00000000
00000000
00000000
,
00100000
01010000
00000000
00100000
,
01000000
00000000
10000000
00000000
01000000
00100000
00000000
00010000
,
01000000
00100000
10000000
01010000
,
01001000
00000000
00010000
00000000
,
00000010
00001100
00000000
00000000
,
00000010
00000000
00000001
00000000
00000100
00000010
00001000
00000000
,
00000100
00000010
00000001
00000000
00000100
00000010
00001000
00000100
,
00000010
00000001
00000100
00000000
00000010
00000000
00010000
00000000
,
00100000
00000000
10000000
00000000
00010000
01000000
00100000
10000000
,
01000000
00100000
00001000
00000000
00010000
00000000
00000100
00000000
,
00000010
00000000
00000100
00000000
00001000
00000001
00000100
00000010
,
00001000
00000100
00000010
00000000
00000100
00000000
00010000
00000000
,
00100000
00000000
00010000
00000000
00001000
01000000
00010000
01000000
,
00100000
10000000
01000000
00100000
00010000
01000000
00100000
00000000
,
01000000
00001000
00010000
00000000
00000010
00010000
00001000
00010000
,
00000100
00001000
00000100
00000000
00000010
00000000
00000001
00000000
,
00000100
00000000
00000010
00000000
00001000
00000100
00000010
00000001
,
00000100
00000010
00001000
00000000
00000100
00000000
00010000
00000000
,
00001000
00000000
01000000
00000000
00100000
01000000
00010000
00100000
,
01000000
10000000
01000000
00000000
00100000
00000000
00010000
00000000
,
01000000
00000000
00100000
00000000
10000000
01000000
00100000
00010000
,
00100000
00001000
00010000
00000000
00100000
01000000
00010000
00000000
,
10000000
01000000
00000000
01000000
00100000
00000000
00110000
00000000
,
00100000
00010000
01000000
00000000
00100000
00000000
10000000
01000000
,
00100000
00000000
01000000
00100000
00010000
00000000
01000000
00001000
,
00010000
00000000
00000100
00001000
00000010
00000000
00000100
00000001
,
00000010
00000000
00000100
00001000
00000001
00000000
00000100
00000010
,
00001000
00000100
00000010
00000000
00000001
00000000
00000100
00001000
,
00010000
00000000
00100000
10000000
01000000
00000000
10000000
00010000
,
01000000
00000000
00100000
10000000
01000000
00000000
00010000
00001000
,
01000000
00000000
00100000
01000000
00010000
00100000
01000000
00000000
,
10000000
01000000
00010000
00000000
00000100
00000000
00000010
00000001
,
00000100
00000000
00000010
00001000
00000100
00000000
00000010
00000001
,
00001000
00000000
00000010
00000100
00000001
00000000
00000100
00001000
,
00010000
00000000
01000000
10000000
00100000
00000000
10000000
00100000
,
01000000
00010000
00100000
00000000
01000000
00000000
00100000
00010000
,
01000000
00000000
00100000
10000000
01000000
00000000
00010000
00001000
,
00000100
00000000
00000001
00000010
00000100
00000000
00001000
00000001
,
00000100
00000000
00000010
00001000
00000100
00000010
00000001
00000000
,
00000010
00000100
00001000
00000000
00000010
00000000
00000101
00000000
,
00000010
00000000
00000000
00000000
00000000
00000000
00000100
00000000
00000000
00000000
00000000
00000000
00001001
00000000
00000000
00000000
00000000
00000000
00000000
0000M00M
00000000
00000000
00000000
00000000
,
00011000
00000000
00000000
00000000
00000000
00000000
00000000
000MM000
00000000
00000000
00000000
00000000
00100000
00000000
00000000
01000000
00000000
00000000
00000000
00000000
00000000
01000000
00000000
00000000
,
00010000
10000000
01000000
00110000
,
10010000
00000000
01000000
00000000
00100000
10000000
00000000
10000000
,
01000000
00100000
00110000
00MM0000
,
00001010
00000000
0000M0M0
00000000
00000001
00000010
00000100
00000000
,
00001000
00000001
00000100
00000000
00000010
00001000
00000100
00000010
,
00000001
00000100
00000010
00001000
00000200
00000000
00000000
00000000
,
00020000
00000000
00000000
00000000
00000000
00000000
00000000
00000000
00000300
00000000
00000000
00000000
00000000
00000M00
00000000
00000000
,
00230000
00000000
00000000
00000000
,
00300000
000M0000
00000000
00000000
10000000
00000000
00000000
00000000
01000000
00000000
00000000
00000000
0MM00000
00000000
01100000
00000000
,
00000000
00010000
21000000
0M000000
,
02000000
00000000
30000000
M0000000
,
03020000
0M000000
00000000
00000000
,
00030000
00000000
000M1000
00000000
00010000
00000100
00000000
00000100
,
00001000
00001001
00000102
00000M00
,
00000200
00000000
00000003
0000000M
,
00002300
00000M00
00000000
00000000
,
00003000
00000000
0001M000
00000000
00001000
00000000
0MM00000
01100000
,
00000000
00100000
01020000
0M000000
,
00200000
00000000
00030000
00000000
,
00300000
00000000
MMMM0000
00000000
01000000
10000000
00000000
10000000
,
00010000
00000000
01000000
00100000
10000000
01000000
00100000
00010000
,
01000000
00100000
10000000
01000000
00100000
00000000
00010000
00000000
,
10000000
00010000
01000000
00100000
10000000
00000000
01000000
00000000
,
00100000
00001000
00000000
00001000
00010000
00000000
00001100
00000000
,
00000010
00000000
00000100
00000001
00000010
00000100
00001000
00000000
,
00000001
00000100
00000000
00000100
00000010
00000000
00001010
00000000
,
00000100
00000001
00000010
00000100
00001000
00000000
00000010
00000000
,
00010000
00001000
00000000
00001000
01000000
00000000
01010000
00000000
,
00100000
10000000
01000000
00100000
00010000
01000000
00000000
00100000
,
00000000
10000000
00010000
00000000
11000000
00000000
01000000
00000000
,
00100000
00010000
10000000
01000000
00100000
00000000
00001000
00000000
,
00010000
00000100
00000000
00010000
00000000
00001000
00000100
00000000
,
00000001
00000000
00001000
00000100
00000010
00000001
00000100
00000000
,
00000010
00001000
00000000
00001000
00000100
00000000
00000011
00000000
,
00000100
00000010
00000000
00000010
00010000
00000000
00011000
00000000
,
00001000
01000000
00000000
01000000
00010000
00000000
10010000
00000000
,
00100000
01000000
10000000
00100000
01000000
00010000
00000000
10010000
,
00000000
01000000
00100000
00000000
11000000
00000000
01100000
00000000
,
00010000
00000000
00000000
00011000
00000000
00010000
00000100
00001000
,
00000100
00000010
00000001
00000100
00000010
00000000
00001010
00000000
,
00001001
00000000
00000000
00001010
00000000
00000010
00001000
00000100
,
00010000
00001000
01000000
00010000
10000000
00000000
10100000
00000000
,
10010000
00000000
00000000
01010000
00000000
01000000
00100000
10000000
,
01000000
00100000
00010000
01000000
00001000
00010000
00001000
00000000
,
00100000
00001000
00010000
00000000
00000010
00000100
00000001
00000010
,
00000100
00001000
00000010
00000000
00000100
00000000
00000101
00000000
,
00001001
00000000
00000000
00000101
00000000
00000100
00000010
00001000
,
00000100
00000010
00000001
00000100
00000010
00000000
00001010
00000000
,
00001100
00000000
00000000
00000110
00000000
00000001
00000100
00000010
,
00010000
00001000
01000000
00010000
10000000
00000000
10010000
00000000
,
11000000
00000000
00000000
10010000
00000000
01000000
00100000
10000000
,
01000000
00100000
00010000
00100000
00001000
00010000
00001000
00000000
,
01000000
00001000
00010000
00000000
00000010
00001000
00000100
00000010
,
00000001
00000100
00000010
00000000
00001010
00000000
00000000
00000000
,
00000001
00001100
00000000
00000010
,
00010000
00001000
00011000
00000000
,
01000000
00000000
00100000
00000000
10000000
01000000
00000000
00100000
,
00010000
11000000
10010000
00000000
,
01000000
01001000
00000000
00000000
,
00100000
00000000
10000000
00000000
01000000
00100000
00010000
01000000
,
00100000
10000000
01000000
00100000
00001000
00010000
00001000
00010000
,
00000100
00000010
00000001
00001000
00002002
00000000
00000000
00000000
,
00000000
00000000
00000000
00000000
,
00000000
00000000
00000000
00003003
,
0000M00M
00000000
00000000
00000000
;

//--------------- lights-cabinet - ----------------
#NOTES:
     lights-cabinet:
     :
     Easy:
     1:
     0.793631,1.165614,0.468632,0.315261,0,652,595,55,37,0,1,0.793631,1.165614,0.468632,0.315261,0,652,595,55,37,0,1:
000000
000000
000000
000000
,
000000
000000
000000
000000
,
000000
000000
000000
000000
,
000000
000000
000000
000000
,
000000
000000
000000
000000
,
000000
000000
000000
000000
,
110000
000000
001100
000000
,
100000
001000
010000
000100
100000
001000
010000
000100
,
100000
001000
010000
000100
,
010000
001000
100000
010000
,
100000
001000
010000
000100
,
001000
000100
010000
000100
,
000100
010000
001000
100000
,
010000
100000
001000
010000
,
000100
001000
000100
010000
,
001000
000000
100000
000000
010000
100000
010000
000000
,
100000
001000
010000
000100
,
010000
001000
100000
010000
,
100000
001000
010000
000100
,
001000
000100
010000
000100
,
000100
010000
001000
100000
,
010000
100000
001000
010000
,
000100
001000
000100
000000
010000
001000
010000
000000
,
001000
100000
010000
000000
110000
000000
000000
000000
,
100100
000000
000000
001100
,
000000
000000
100000
010000
,
110000
000000
000000
101000
,
000000
000000
000000
000000
000100
000000
000100
010000
,
100100
000000
000000
010100
,
010100
000000
000000
100000
,
001000
010000
000100
100000
,
222200
333300
100000
000100
,
000100
010000
010000
000100
,
000100
001000
001000
000100
,
010000
001000
100000
010000
,
100000
010000
100000
000000
000100
000000
010000
000000
,
010000
001000
001000
010000
,
000100
000100
100000
100000
,
000100
010000
001000
100000
,
010000
100000
010000
000000
100000
000000
001000
000000
,
010000
000100
010000
000100
,
001000
000100
100000
100000
,
001000
010000
000100
001000
,
001100
000000
000100
100000
,
110000
000000
001000
010000
,
011000
000000
100000
000100
,
001100
000100
011000
010000
,
001000
010000
000100
000000
020000
000000
000100
000000
,
031000
200000
000100
310000
,
100000
000100
002000
100000
,
003100
020000
100000
031000
,
100000
010000
200000
000000
,
301000
020000
000000
031000
,
100000
000100
010000
001000
,
100000
000000
000100
000000
100000
000100
100000
000100
,
100000
000000
000100
001000
,
000200
010000
010300
001000
,
200000
010000
310000
100000
,
001000
010000
000200
001000
,
002300
000000
003100
010000
,
002000
100000
103000
010000
,
200000
001000
301000
010000
,
000100
001000
000100
100000
,
110000
000000
001000
010000
,
000200
010000
010300
001000
,
200000
000100
300100
010000
,
001000
010000
000200
001000
,
002300
000000
003100
010000
,
001000
100000
101000
001000
,
010000
000100
001100
001000
,
000100
100000
100100
011000
,
100100
000000
000000
000000
100000
000100
010000
000100
,
100000
001000
010000
000100
100000
001000
010000
001000
,
100000
000100
010000
001000
100000
000100
010000
001000
,
100000
001000
100000
001000
010000
001000
100000
000100
,
010000
000100
100000
000000
010000
001000
100000
000100
,
010000
001000
100000
001000
010000
000100
100000
001000
,
010000
000100
100000
001000
010000
001000
100000
010100
,
100000
000100
010000
000100
100000
001000
010000
000100
,
100000
001000
010000
000000
100000
000100
010000
001000
,
100000
000100
010000
001000
100000
001000
100000
001000
,
010000
001000
100000
000100
010000
000100
001000
000100
,
010000
001000
100000
000100
010000
001000
100000
001000
,
010000
000100
100000
001000
010000
000000
100100
000000
,
010000
000000
100000
010100
001000
000000
100100
000000
,
010000
001000
100000
010100
,
001000
100000
000100
000000
001000
000000
000100
000000
,
010000
001000
100000
000000
010000
000000
100000
000000
,
110000
000000
000100
001000
,
001100
000000
100000
010000
,
110000
001000
011000
011000
,
011000
000000
000100
100000
,
110000
000000
000100
001000
,
001100
000000
100000
001000
,
010000
000000
001000
000000
100000
010000
100000
010000
,
200000
000000
301000
010000
,
000200
000000
001300
000100
,
020000
000000
031000
100000
,
010000
000000
100000
000000
110000
000000
000000
011000
,
000000
100100
100000
010000
,
002000
000000
013000
001000
,
000200
000000
010300
001000
,
100000
000000
010000
000000
100000
000100
010000
001000
,
100000
000000
000100
001000
,
020000
000000
031000
010000
,
200000
000000
301000
100000
,
010000
000000
100000
000000
110000
000000
000000
001100
,
000000
110000
000100
000000
,
100000
000000
110000
000000
,
001000
000000
011000
000000
,
000100
000000
000000
000000
000100
100000
001000
010000
,
000100
100000
000100
001000
100000
000000
000100
000000
,
010000
001000
100000
001000
,
010000
000100
001000
000100
,
001000
010000
100000
000100
,
010000
001000
010000
000000
000100
000000
100000
000000
,
001000
010000
000100
010000
,
001000
100000
010000
100000
,
010000
001000
000100
010000
,
001000
010000
001000
000000
100000
000000
001000
000000
,
010000
000100
010000
001000
,
100000
100000
001000
010000
,
000100
001000
000100
001000
,
001100
000000
100000
010000
,
001000
000100
001000
010000
,
100000
001000
010000
000100
,
001000
010000
100000
000100
,
100100
000000
100000
010000
,
200000
000000
301000
010000
,
002000
000000
013000
000100
,
001000
000100
100000
001000
,
010000
000100
010000
000000
001000
000000
010000
000000
,
000200
000000
001300
000100
,
200000
000000
301000
010000
,
000100
100000
010000
100000
,
110000
000000
000100
001000
,
000200
000000
010300
001000
,
020000
000000
031000
100000
,
010000
100000
000100
010000
,
001000
010000
001000
000000
100000
000000
001000
000000
,
200000
000000
310000
100000
,
000200
000000
001300
000100
,
010000
001000
011000
011000
,
011000
000000
100000
010000
,
100000
000100
100000
001000
,
010000
000100
100000
001000
,
010000
100100
011000
000000
,
110000
000000
100000
010000
,
100000
000100
010000
000100
,
100000
001000
100000
000100
,
100000
001000
011000
000000
,
001100
000000
200200
000000
,
300300
000000
000000
000000
;
