#TITLE:On a Day Like Today;
#SUBTITLE:;
#ARTIST:Obsession;
#TITLETRANSLIT:;
#SUBTITLETRANSLIT:;
#ARTISTTRANSLIT:;
#GENRE:;
#CREDIT:;
#MUSIC:On a Day Like Today.ogg;
#BANNER:On a Day Like Today.png;
#BACKGROUND:On a Day Like Today-bg.png;
#CDTITLE:;
#SAMPLESTART:21.013;
#SAMPLELENGTH:11.960;
#SELECTABLE:YES;
#OFFSET:0.009;
#BPMS:0.000=134.000;
#STOPS:;
#DISPLAYBPM:134.000;
#BGCHANGES:;
#FGCHANGES:;

//--------------- dance-single - M. Puls ----------------
#NOTES:
     dance-single:
     M. Puls:
     Beginner:
     1:
     0.083,0.136,0,0,0:
0000
0000
0000
0000
,
0000
0000
0000
0000
,
0000
0000
0000
0000
,
0000
0000
0000
0000
,
1000
0000
0000
0000
,
0100
0000
0000
0000
,
1000
0000
0000
0000
,
0001
0000
0000
0000
,
1000
0000
0000
0000
,
0000
0000
0000
0000
,
0001
0000
0000
0000
,
0000
0000
0000
0000
,
1000
0000
0000
0000
,
0100
0000
0000
0000
,
1000
0000
0000
0000
,
0001
0000
0000
0000
,
0010
0000
0000
0000
,
0001
0000
0000
0000
,
1000
0000
0000
0000
,
1000
0000
0000
0000
,
0001
0000
0000
0000
,
0010
0000
0000
0000
,
0001
0000
0000
0000
,
1000
0000
0000
0000
,
0100
0000
0000
0000
,
1000
0000
1000
0000
,
0001
0000
0001
0000
,
0000
0000
0001
0000
,
0100
0000
0100
0000
,
0100
0000
0000
0000
,
0010
0000
0000
0000
,
0010
0000
0000
0000
,
1000
0000
1000
0000
,
1000
0000
0000
0000
,
0100
0000
0100
0000
,
0010
0000
0000
0000
,
0001
0000
0001
0000
,
1000
0000
0000
0000
,
0100
0000
0000
0000
,
0010
0000
0000
0000
,
0001
0000
0000
0000
,
0001
0000
0001
0000
,
0001
0000
0000
0000
,
0001
0000
0000
0000
,
0100
0000
0000
0000
,
0010
0000
0000
0000
,
1000
0000
0000
0000
,
0010
0000
0000
0000
,
0100
0000
0000
0000
,
0001
0000
0000
0000
,
0000
0000
0000
0000
,
0001
0000
0000
0000
,
0010
0000
0000
0000
,
0100
0000
0000
0000
,
1000
0000
0000
0000
,
1000
0000
0000
0000
,
0100
0000
0000
0000
,
0010
0000
0000
0000
,
0100
0000
0000
0000
,
0001
0000
0000
0000
,
1000
0000
0000
0000
,
0010
0000
0000
0000
,
0100
0000
0000
0000
,
0001
0000
0000
0000
,
1000
1000
0000
0000
,
0001
0001
0000
0000
,
0100
0100
0000
0000
,
0010
0010
0000
0000
,
0010
0000
0000
0000
;

//--------------- dance-single - R. McKanna ----------------
#NOTES:
     dance-single:
     R. McKanna:
     Easy:
     4:
     0.197,0.244,0.056,0.128,0:
0000
0000
0000
0000
,
0000
0000
0000
0000
,
0000
0000
0000
0000
,
0000
0000
0000
0000
,
0100
0000
0100
0000
,
0010
0000
0010
0000
,
1000
0000
1000
0000
,
0001
0000
0001
0000
,
0200
0000
0000
0000
,
0000
0000
0000
0000
,
0000
0000
0000
0000
,
0000
0000
0300
0000
,
0001
0010
0100
0200
,
0000
0300
0000
0000
,
1000
0001
1000
0200
,
0000
0300
0000
0000
,
0001
0001
0010
0002
,
0000
0003
0000
0000
,
0010
0001
0100
0020
,
0000
0030
0000
0010
,
1001
1000
0100
0020
,
0000
0030
0000
0000
,
0001
0000
0010
0000
,
1000
0100
0001
0000
,
0001
0010
1000
0000
,
0100
0001
0100
1000
,
0100
0001
0100
1000
,
0010
0100
0001
1000
,
0010
0100
0001
1000
,
0001
0010
0100
1000
,
0001
0010
0100
1000
,
0001
0100
1000
0100
,
0001
0100
1000
0100
,
1001
0000
0001
0000
,
0100
0000
0001
0000
,
0010
0000
1000
0000
,
0100
0000
1000
0000
,
0001
0001
0010
0010
,
0001
0001
0100
0100
,
0010
0000
0100
0000
,
0010
0000
0100
0000
,
1001
0000
0001
0000
,
1000
0000
1001
0000
,
1000
0100
0010
0020
,
0000
0030
0000
0000
,
0001
1000
0001
0020
,
0000
0030
0000
0000
,
1000
1000
0100
2000
,
0000
3000
0000
0000
,
0100
1000
0010
0200
,
0000
0300
0000
0100
,
1001
0100
0010
0200
,
0000
0300
0000
0000
,
0100
0010
0100
0020
,
0000
0030
0000
0000
,
0001
0001
0001
0200
,
0000
0300
0000
0000
,
1000
0100
1000
0020
,
0000
0030
0000
0010
,
1001
0010
0100
0200
,
0000
0300
1000
0020
,
0000
0030
0000
0000
,
1000
1000
0100
0100
,
0010
0010
0000
0000
,
1001
0000
0100
0000
,
0010
0000
1000
0000
,
0001
0000
0100
0000
,
0010
0000
1000
0100
,
0001
0000
0000
0000
;

//--------------- dance-single - R. McKanna ----------------
#NOTES:
     dance-single:
     R. McKanna:
     Medium:
     7:
     0.31,0.38,0.128,0.271,0.064:
0000
0000
0000
0000
,
0000
0000
0000
0000
,
0000
0000
0000
0000
,
0000
0000
0000
0000
,
1000
0000
0000
1001
0000
0000
0001
0000
,
0010
0100
0010
0001
,
0100
0000
0000
1001
0000
0000
1000
0000
,
0100
0010
0100
1000
,
2002
0000
0000
0000
,
0000
0000
0000
0000
,
0000
0000
0000
0000
,
0000
0000
3003
0000
,
1000
0010
0100
0002
,
0000
0000
0000
0000
0003
0000
0000
0100
,
0001
0010
0100
2000
,
0000
0000
0000
0000
3000
0000
0000
0100
,
0010
0100
1000
0200
,
0000
0000
0000
0000
0300
0000
0000
0010
,
0001
0010
0100
0020
,
0000
0000
0000
0000
0130
0000
1000
0010
,
0100
0001
0010
0200
,
0000
0000
0300
0000
,
1000
0010
1000
0100
,
0010
0000
0001
0100
0001
0000
0001
0100
,
0000
0200
0000
0000
0000
0300
0000
0000
,
1001
0000
0000
1000
0000
0000
1000
0000
0000
1000
0000
0000
1000
0000
0000
0000
,
1001
0000
0000
0001
0000
0000
0001
0000
0000
0001
0000
0000
0001
0000
0000
0000
,
0101
0000
0000
0100
0000
0000
0100
0000
0000
0100
0000
0000
0100
0000
0000
0000
,
0110
0000
0000
0010
0000
0000
0010
0000
0000
0010
0000
0000
0010
0000
0000
0000
,
1010
0000
0000
1000
0000
0000
1000
0000
0000
1000
0000
0000
1000
0000
0000
0000
,
1100
0000
0000
0100
0000
0000
0100
0000
0000
0100
0000
0000
0100
0000
0000
0000
,
0110
0000
0000
0010
0000
0000
0010
0000
0000
0010
0000
0000
0010
0000
0000
0000
,
0011
0000
0000
0001
0000
0000
0001
0000
0000
0001
0000
0000
0001
0000
0000
0000
,
0002
0000
0000
2003
0000
0000
0000
3200
,
0000
0000
0000
2300
0000
0000
3010
0000
,
0200
0000
0000
0301
0000
0000
1000
0010
,
2000
0000
0000
3002
0000
0000
1003
0000
,
0010
0001
0010
0100
,
1000
0000
0000
0010
0100
0010
0000
2000
,
0000
0000
0100
0000
,
3001
0000
0010
0000
,
1001
0000
0110
0000
,
1001
0010
1001
0010
,
1000
0100
1000
0200
,
0010
1000
0310
2000
,
0001
0010
3001
0020
,
1000
0100
1030
0200
,
0010
0001
0310
0002
,
0100
0010
0103
0020
,
0001
0100
0031
0200
,
0010
1000
0310
2000
,
0010
0100
3010
0200
,
0010
1000
0310
2000
,
0001
0010
3001
0020
,
1000
0100
1030
0200
,
0010
0001
0310
0002
,
0100
0010
0103
0020
,
0100
0001
0130
0002
,
0100
0000
1000
0000
0103
0000
1000
0010
,
0100
0001
0010
0002
,
1000
1000
1003
2000
,
0000
3010
0000
0001
,
0010
0000
0001
0000
0100
0000
0010
1000
,
0000
0200
0000
0000
0000
0300
0000
0000
,
1001
1000
0100
1000
,
0010
0000
1000
0000
0100
0000
1000
0001
,
0100
0001
0100
0001
,
0010
0000
0001
0000
0100
0000
0001
1000
,
0100
0000
0000
0000
;

//--------------- dance-single - R. McKanna ----------------
#NOTES:
     dance-single:
     R. McKanna:
     Hard:
     9:
     0.371,0.434,0.152,0.16,0.064:
0000
0000
0000
0000
,
0000
0000
0000
0000
,
0000
0000
0000
0000
,
0000
0000
0000
0000
,
1000
0100
0000
1001
0000
0001
0010
0000
,
0100
1000
0001
0010
,
0001
0010
0000
1001
0000
1000
0100
0000
,
0010
0001
0100
0010
,
2002
0000
0000
0000
,
0000
0000
0000
0000
,
0000
0000
0000
0000
,
0000
0000
0000
3003
,
1000
0010
0100
0001
,
1000
0000
0010
0000
1000
0010
0100
0000
,
0001
1000
0010
0100
,
0001
0100
0100
0000
0010
1000
1000
0000
,
1000
0001
1000
0010
,
0100
0000
0001
1000
0100
0000
0010
0000
,
0001
0010
0001
0010
,
0100
1000
0100
0010
0001
0000
1001
0000
,
1000
0001
0100
0020
,
0100
1000
0130
0001
,
0100
1001
0010
0101
,
0010
0001
0100
0001
0010
0100
1000
0010
,
0000
2002
0000
0000
0000
3003
0000
0000
,
1000
0000
0000
0001
0000
0000
1000
0000
0000
0001
0000
0000
0010
0000
0100
0000
,
1000
0000
0000
0001
0000
0000
1000
0000
0000
0001
0000
0000
0100
0000
0010
0000
,
1000
0000
0000
0100
0000
0000
0010
0000
0000
0001
0000
0000
1000
0000
0001
0000
,
1000
0000
0000
0010
0000
0000
0100
0000
0000
0001
0000
0000
1000
0000
0001
0000
,
1000
0000
0000
0010
0000
0000
1000
0000
0000
0010
0000
0000
1000
0000
0100
0000
,
0010
0000
0000
0100
0000
0000
0010
0000
0000
0100
0000
0000
0010
0000
0100
0000
,
1000
0000
0000
0100
0000
0000
1000
0000
0000
0100
0000
0000
1000
0000
0010
0000
,
0100
0000
0000
0001
0000
0000
0100
0000
0000
0001
0000
0000
0100
0000
0001
0000
,
0020
0000
0130
2000
0000
0000
3100
0020
,
0000
0000
0130
2000
0000
0000
3100
0000
,
0020
0000
0031
0200
0000
0000
0301
0010
,
0200
0000
1300
0002
0000
0000
0003
0000
,
0100
0010
1000
0100
0010
0000
0001
0100
,
0010
0000
1000
0100
0010
0100
0000
2200
,
0000
0010
0000
0010
,
0000
0010
0000
3300
,
1001
0100
1001
0010
,
0101
0100
1010
0100
,
0001
0100
0010
1000
,
0001
0000
0100
0000
0001
0100
0010
0000
,
1000
0001
0100
0010
,
1000
0100
0010
0000
0100
0010
0001
0000
,
0001
1000
0001
0100
,
0010
0000
1000
0001
0010
0000
0100
0000
,
1000
0100
1000
0100
,
0010
0001
0010
0100
1000
0100
0010
0000
,
1001
0010
0100
0001
,
1000
0000
0010
0000
1000
0010
0100
0000
,
0002
1003
2000
3100
,
0001
0010
0100
0000
0001
0010
0100
0000
,
1000
0001
1000
0010
,
0100
0000
0001
1000
0100
0000
0010
0000
,
0001
0010
0001
0010
,
0100
1000
0100
0010
0001
0100
0010
1000
,
0001
1001
0101
1002
,
0010
0100
0013
2001
,
0100
0000
0100
3000
0001
0000
0001
0000
,
1000
0100
1000
0010
1000
0000
0100
0010
,
0000
0002
0000
0000
0000
0000
0003
0000
,
1001
0000
0001
0000
0010
0000
0010
0100
,
1000
0000
0001
0000
1000
0000
0010
0100
,
0001
0000
0001
0000
0100
0000
0100
0010
,
1000
0000
1000
0100
0010
0100
1000
0000
,
1001
0000
0000
0000
;

//--------------- dance-single - M. Emirzian ----------------
#NOTES:
     dance-single:
     M. Emirzian:
     Challenge:
     14:
     0.693,0.815,0.287,0.048,0.483:
0000
0000
0000
0000
,
0000
0000
0000
0000
,
0000
0000
0000
0000
,
0000
0000
0000
0000
,
1001
0000
0000
0000
1000
0100
1000
0000
0011
0000
00MM
0000
0001
0100
0001
0000
,
1010
0000
M0M0
0000
1000
0010
1000
0000
0101
0000
0M0M
0000
0001
0100
0001
0000
,
1000
0010
0100
0001
0010
0100
1000
0001
,
0100
0000
1000
0000
0100
0000
0001
0000
0010
0000
0100
0000
1000
0001
1000
0000
,
2002
0000
0000
0000
,
0000
0000
0000
0000
,
0000
0000
0000
0000
,
0000
0000
0000
0000
0000
3003
M10M
0000
,
0100
0000
0010
1000
0100
0000
0010
0000
0001
0000
0010
0000
0100
0000
1000
0000
,
0001
0000
0100
0010
1000
0000
0010
0000
0100
0000
0001
0000
0010
0000
0100
0000
,
1000
0000
0001
1000
0100
0000
0010
0000
0100
0000
1000
0000
0100
0000
0001
0000
,
0100
0010
0100
0000
1001
0000
M00M
0000
1000
0001
1000
0000
0110
0000
0001
0000
,
0100
0000
0010
1000
0100
0000
0010
0000
0001
0000
0100
0000
1000
0000
0100
0000
,
0001
0000
0100
0010
1000
0000
0001
0000
0100
0000
0010
0000
1000
0000
0100
0000
,
0010
0000
0001
0100
0010
0000
1000
0000
0100
0000
0010
0001
0100
0000
0010
0000
,
1000
0100
1000
0000
0001
0100
0001
0000
0100
0010
0100
0000
1001
0000
0110
0000
,
1000
0000
0001
1000
0100
0000
0001
0000
0100
0000
1000
0000
0010
0000
0100
0000
,
0001
0000
0010
0100
1000
0000
0001
0000
1000
0000
0100
0000
0010
0001
0010
0000
,
1100
0000
MM00
0000
1000
0100
1000
0000
0011
0000
1000
0000
0010
0000
0001
0000
,
0100
1000
0100
0001
0010
0100
1000
0010
,
0100
0001
0010
1001
0000
0000
0000
0000
,
0100
0000
0010
0001
0000
0001
0100
0000
0010
1000
0000
1000
0001
0000
0101
0000
,
0100
0000
0010
1000
0000
1000
0100
0000
0010
0001
0000
0001
0100
0000
1001
0000
,
0100
0000
0010
0001
0000
0001
0100
0000
0010
1000
0000
1000
0100
0000
1001
0000
,
0010
0000
0100
1000
0000
1000
0001
0000
0100
0010
0000
0010
1000
0000
0110
0000
,
0001
0000
0100
1000
0000
0100
0001
0000
0010
0100
0000
1000
0001
0000
0011
0000
,
0100
0000
0010
1000
0000
0100
1000
0000
0001
0100
0000
1000
0100
0000
0110
0000
,
0001
0000
1000
0100
0000
0001
0100
0000
1000
0010
0000
1000
0100
0000
0011
0000
,
0100
0000
0010
1000
0000
0100
1000
0000
0001
0010
0000
1000
0010
0000
1001
0000
,
0100
0000
0010
0000
0001
0000
1000
0000
0010
0000
0100
0000
0001
0000
0010
0100
,
1000
0000
0001
0000
1000
0000
0100
0000
0001
0000
0100
0000
1000
0000
0001
0100
,
0010
0000
0100
0000
0001
0000
0010
0000
0100
0000
0010
0000
0001
0000
1000
0100
,
0010
0000
0100
0000
1000
0000
0001
0000
0100
0000
0010
0000
1000
0000
0001
0100
,
0010
0000
1000
0000
0100
0000
0010
0001
0100
0000
0010
0000
1000
0000
0100
0000
,
0010
0001
0010
0000
0100
1000
0100
0000
0010
0100
0010
0000
1001
0000
0110
0000
,
0001
1000
0100
0010
0001
0010
0100
1000
0001
0100
0010
1000
0100
0001
0100
1000
,
0001
0100
0010
1000
0010
0100
0001
0100
0010
1000
0001
0100
0010
1000
0100
0010
,
0011
0000
0100
1001
M00M
0110
1000
0100
,
1001
0000
M00M
0000
0110
0000
0MM0
1000
0100
0000
0011
0000
1001
0000
1100
0000
,
0010
0000
1000
0100
0001
0000
0100
0000
1000
0000
0010
0000
0100
0000
0001
0000
,
0010
0000
0100
1000
0010
0000
1000
0000
0100
0000
0010
0000
0001
0000
1000
0000
,
0010
0000
0100
0010
1000
0000
0001
0000
0010
0000
0100
0000
1000
0000
0001
0000
,
0100
0000
1000
0100
0001
0000
0010
0000
0100
0000
1000
0000
0010
0000
0100
0000
,
0001
0000
0100
0010
1000
0000
0001
0000
0010
0000
0100
0000
1000
0000
0001
0000
,
1000
0000
0010
1000
0100
0000
0001
0000
0100
0000
1000
0000
0001
0000
1000
0000
,
0010
0000
0100
0001
0010
0000
0100
0000
1000
0000
0001
0100
0001
0000
1000
0000
,
0010
1000
0010
0000
0100
0001
0100
0000
0010
0100
0010
0000
1001
0000
0110
0000
,
0100
0000
1000
0001
0100
0000
0010
0000
1000
0000
0001
0000
0010
0000
0100
0000
,
1000
0000
0001
0100
0001
0000
0010
0000
0100
0000
1000
0000
0001
0000
0100
0000
,
1000
0000
0100
0001
0010
0000
0100
0000
1000
0000
0001
0000
0010
0000
1000
0000
,
0010
0000
0001
1000
0100
0000
0010
0000
0001
0000
0010
0000
0100
0000
1000
0000
,
0010
0000
0100
0001
0010
0000
0100
0000
1000
0000
0001
0000
0100
0000
0010
0000
,
1000
0000
0001
0100
0010
0000
0100
0000
0001
0000
0010
0000
0100
0000
1000
0000
,
0001
0000
0100
1000
0100
0000
0001
0000
1000
0000
0100
0010
0001
0000
1000
0000
,
0010
0100
0010
0000
1000
0001
1000
0000
0100
0010
0100
0000
1001
0000
0110
0000
,
0010
0000
0001
0100
0010
0000
1000
0000
0001
0000
0010
0000
0100
0000
1000
0000
,
0001
0000
0010
1000
0010
0000
0001
0000
1000
0000
0100
0000
0001
0000
0100
0000
,
1000
0100
0010
0001
0100
0010
1000
0001
0010
1000
0010
0001
0100
0010
1000
0100
,
0010
0001
0010
1000
0010
0001
0100
0010
1000
0100
0001
0100
1000
0010
0100
0001
,
0010
0100
1000
0100
0010
0001
0100
0000
0000
0000
0000
0000
0000
0000
0000
0000
,
1001
1000
0001
1000
0100
0020
0002
0000
,
1000
0000
0033
0000
0000
0000
1000
0000
0000
0010
0000
0000
0100
0000
0000
0001
0000
0000
0010
0000
0000
0200
0000
0000
,
2000
0000
0000
0000
0000
0000
0001
0000
3300
0000
0000
0000
0001
0000
0000
0100
0000
0000
0010
0000
0000
1000
0000
0000
,
0001
0100
0001
0010
0100
1000
0010
0100
,
1001
M00M
0000
0000
0000
0000
0000
0000
;

//--------------- dance-double - M. Emirzian ----------------
#NOTES:
     dance-double:
     M. Emirzian:
     Easy:
     2:
     0.147,0.244,0.016,0.112,0:
00000000
00000000
00000000
00000000
,
00000000
00000000
00000000
00000000
,
00000000
00000000
00000000
00000000
,
00000000
00000000
00000000
00000000
,
20000000
00000000
30020000
00000000
,
00230000
00000000
02300000
00000000
,
23000000
00000000
30020000
00000000
,
02030000
00000000
03002000
00000000
,
00023000
00000000
00000000
00000000
,
00000000
00000000
00000000
00000000
,
00000000
00000000
00000000
00000000
,
00000000
00000000
00000000
00000000
,
00030200
00000000
00000310
00000001
,
00000000
00000000
00000100
00000000
,
00000020
00000000
00010030
00001000
,
00000000
00000000
00100000
00000000
,
00002000
00000000
00013000
00000100
,
00000000
00000000
00000010
00000000
,
00000002
00000000
00000103
00000010
,
00000000
00000000
00001000
00000000
,
00000200
00000000
00010300
00001000
,
00000000
00000000
01000000
00000000
,
00001000
00000000
00100000
00000000
,
00010000
00000000
10000000
00000000
,
00100000
00000000
00000000
00000000
,
00011000
00000000
00010000
00000000
,
00000100
00000000
00001000
00000000
,
00000001
00000000
00000010
00000000
,
00000100
00000000
00001000
00000000
,
00000001
00000000
00000100
00000000
,
00000010
00000000
00010000
00000000
,
00001000
00000000
01000000
00000000
,
00010000
00000000
10000000
00100000
,
01000000
00000000
00000000
00000000
,
00010000
00000000
00000000
00000000
,
00100000
00000000
00000000
00000000
,
00001000
00000000
00000000
00000000
,
00000100
00000001
00001000
00000000
,
00000100
00000000
00010000
00000000
,
00001000
00000000
00100000
00000000
,
00010000
01000000
00100000
00000000
,
10000000
00000000
01000000
00000000
,
00100000
00000000
00001000
00000000
,
00010000
00000000
00000100
00000000
,
00001000
00000000
00000010
00000000
,
00000100
00000000
00000001
00000000
,
00001000
00000000
00000100
00000000
,
00010000
00000000
00001000
00000000
,
01000000
00000000
00010000
00000000
,
00100000
00000000
10000000
00000000
,
00010000
00000000
00000000
00000000
,
01000000
00000000
00001000
00000000
,
00000010
00000000
00000001
00000000
,
00000010
00000000
00000100
00000000
,
00010000
00000000
00001000
00000000
,
01000000
00000000
00100000
00000000
,
10000000
00000000
00010000
00000000
,
00100000
00000000
00001000
00000000
,
00010000
00000000
00000000
00000000
,
00000100
00000000
00000010
00000000
,
00000001
00000000
00001000
00000000
,
00000010
00000000
00010000
00000000
,
00100000
00000000
10000000
00000000
,
00010000
00000000
00000000
00000000
,
00011000
00000000
00000000
00000000
,
00001000
00000000
00000000
00000000
,
00000100
00000000
00000000
00000000
,
00000001
00000000
00000000
00000000
,
00001000
00000000
00000000
00000000
;

//--------------- dance-double - M. Emirzian ----------------
#NOTES:
     dance-double:
     M. Emirzian:
     Medium:
     5:
     0.277,0.298,0.016,0.064,0:
00000000
00000000
00000000
00000000
,
00000000
00000000
00000000
00000000
,
00000000
00000000
00000000
00000000
,
00000000
00000000
00000000
00000000
,
10000000
00100000
02000000
00000000
,
03010000
00100000
02000000
00000000
,
13000000
00010000
00200000
00000000
,
00301000
00010000
00000020
00000000
,
00000230
00000000
00000000
00000000
,
00000000
00000000
00000000
00000000
,
00000000
00000000
00000000
00000000
,
00000000
00000000
00000000
00000000
,
00000301
00000000
00000010
00000100
00001000
00000000
00000001
00000000
,
00000100
00000010
00001000
00000100
,
00010000
00000000
00001000
00100000
00010000
00000000
01000000
00000000
,
00100000
10000000
01000000
00100000
,
00010000
00000000
01000000
00001000
00010000
00000000
00000100
00000000
,
00001000
00000010
00000100
00000001
,
00000010
00000000
00000100
00001000
00000001
00000000
00000100
00000000
,
00000010
00010000
00002000
00000000
,
00013000
00000000
00001000
00100000
00010000
00000000
01000000
00000000
,
00100000
10000000
01000000
00100000
,
00010000
00000000
00200000
00000000
,
00301000
00010000
00001000
00000100
,
00000001
00000000
00000010
00000100
00001000
00000000
00000000
00000000
,
00010100
00001000
00010000
00100000
,
00010000
00001000
00000100
00001000
,
00010000
01000000
10000000
00010000
,
00100000
00000000
01000000
00000000
10000000
00010000
01000000
00000000
,
00100000
10000000
01000000
00010000
,
00001000
00000010
00001000
00010000
,
01000000
00010000
00001000
00000100
,
00000001
00000000
00001000
00000000
00000010
00000100
00000001
00000010
,
00000100
00001000
00000010
00001000
,
00000100
00001000
00000010
00000100
,
00000001
00000100
00001000
00010000
,
01000000
10000000
00100000
10000000
,
01000000
10000000
00100000
01000000
,
00010000
00100000
01000000
00010000
,
00001000
00000100
00001000
00010000
,
01000000
00010000
00001000
00000100
,
00000001
00000000
00000000
00000010
00000000
00000000
00000100
00000000
,
00000000
00001000
00000001
00000100
,
00000010
00010000
00001000
00000000
00010000
00000000
00001000
00000000
,
00000100
00001000
00010000
00100000
,
10000000
00010000
00100000
00000000
01000000
00000000
10000000
00000000
,
00100000
10000000
01000000
00010000
,
00001000
00010000
00000100
00000000
00001000
00000000
00000010
00000000
,
00001000
00000100
00000001
00000100
,
00001000
00000000
00000000
00000001
00000000
00000000
00000100
00000000
,
00000010
00000010
00000010
00010000
,
00001000
00000100
00001000
00010000
,
00100000
10000000
00010000
00000000
00100000
00000000
01000000
00000000
,
10000000
01000000
00100000
00010000
,
01000000
00001000
00010000
00001000
,
00000100
00000001
00001000
00000000
00000100
00000000
00000010
00000000
,
00000001
00001000
00000010
00000100
,
00000001
00000000
00000000
00000100
00000000
00000000
00000010
00000000
,
00010000
00010000
00010000
00001000
,
01000000
00010000
00100000
00000000
01000000
00000000
10000000
00000000
,
00010000
01000000
00100000
10000000
,
00000000
02000000
00000000
03100000
,
00001000
00010000
01000000
00010000
,
00001000
00000100
00000000
00000000
,
00001001
00000000
00000010
00000000
,
00000100
00000000
00000001
00000000
,
00000010
00000000
00000100
00000000
,
00010000
00000000
00001000
00000000
,
00010000
00000000
00000000
00000000
;

//--------------- dance-double - M. Emirzian ----------------
#NOTES:
     dance-double:
     M. Emirzian:
     Hard:
     7:
     0.439,0.461,0.152,0.168,0.064:
00000000
00000000
00000000
00000000
,
00000000
00000000
00000000
00000000
,
00000000
00000000
00000000
00000000
,
00000000
00000000
00000000
00000000
,
00001000
00010000
00000010
00010000
,
00001000
00000100
00000010
00010000
,
00001000
01000000
00001000
00010000
,
01000000
00100000
00001000
00010000
,
00000020
00000000
00000000
00000000
,
00000000
00000000
00000000
00000000
,
00000000
00000000
00000000
00000000
,
00000000
00000000
00000000
00000000
,
00000130
00000000
00000001
00000010
00000100
00000000
00001000
00000000
,
00000010
00000000
00000100
00001000
00010000
01000000
00010000
00000000
,
00001000
00000000
00000100
00000001
00001000
00000000
00000010
00000000
,
00010000
00001000
00100000
00000000
00110000
00000000
10010000
00000000
,
00100000
00000000
01000000
00010000
10000000
00000000
01000000
00000000
,
00010000
00000000
00001000
00000100
00001000
00010000
01000000
00000000
,
10000000
00000000
00100000
01000000
00010000
00000000
00100000
00000000
,
01000000
00100000
00001000
00000000
00011000
00000000
00010100
00000000
,
00001000
00000000
00000010
00000100
00000001
00000000
00000010
00000000
,
00001000
00000000
00010000
01000000
00010000
00001000
00000100
00000000
,
00000002
00000023
00000230
00002300
,
00003010
00000000
00010000
00000000
00001000
00010000
00100000
10000000
,
01000000
00100000
01000000
10000000
00000000
00000000
00000000
00000000
,
00011000
00000000
00010000
00001000
00000000
00000000
01000000
00000000
00000000
00100000
00000000
00000000
01000000
00000000
00001000
00000000
,
00100000
00000000
01000000
10000000
00000000
00000000
00100000
00000000
00000000
01000000
00000000
00000000
00010000
00000000
00100000
00000000
,
00001000
00000000
00010000
00001000
00000000
00000000
00000100
00000000
00000000
00000010
00000000
00000000
00010000
00000000
00001000
00000000
,
00000010
00000000
00000001
00001000
00000000
00000000
00000010
00000000
00000000
00000100
00000000
00000000
00001000
00000000
00010000
00000000
,
00001000
00000000
00000010
00000100
00000000
00000000
00001000
00000000
00000000
00000010
00000000
00000000
00000100
00000000
00001000
00000000
,
00010000
00000000
00100000
10000000
00000000
00000000
01000000
00000000
00000000
00010000
00000000
00000000
00001000
00000000
00010000
00000000
,
01000000
00000000
00100000
00010000
00000000
00000000
01000000
00000000
00000000
00100000
00000000
00000000
10000000
00000000
01000000
00000000
,
00010000
00000000
00001000
00010000
00000000
00000000
00001000
00000000
00000000
00000010
00000000
00000000
00000100
00000000
00010000
00000000
,
00001000
00000100
00000001
00000010
00000100
00001000
00000001
00000000
,
00000100
00000010
00010000
00001000
00000010
00000100
00010000
00000000
,
00001000
01000000
00001000
00010000
00100000
01000000
00001000
00000000
,
00010000
01000000
10000000
01000000
00100000
00010000
01000000
00100000
,
20000000
30200000
02300000
03020000
,
00130000
01000000
10000000
00000000
00100000
10000000
01000000
00100000
,
00010000
01000000
00001000
00000000
00100000
01000000
00010000
00000000
,
00001000
00000010
00000001
00001000
00000010
00000100
00000001
00001000
,
00001001
00000000
00000000
00011000
00000000
00000000
10010000
00000000
,
00200000
20300000
32000000
03200000
,
00310000
00100000
01000000
00010000
00001000
01000000
00001000
00010000
,
00100000
01000000
00001000
00010000
00000100
00000010
00000001
00000000
,
00001000
00000010
00000100
00000001
00001000
00000100
00000010
00001000
,
00010000
00100000
00010000
00001000
00011000
00000000
01001000
00000000
,
00010000
01000000
10000000
00100000
01000000
00010000
10000000
00000000
,
01000000
00010000
00001000
01000000
00001000
00010000
00100000
10000000
,
10010000
00000000
00000000
00011000
00000000
00000000
00001001
00000000
,
00000020
00002030
00003200
00000320
,
00000031
00000100
00000010
00010000
00000100
00010000
00001000
00000010
,
00000100
00010000
00001000
01000000
00100000
10000000
01000000
00000000
,
00100000
00010000
01000000
00100000
10000000
00000000
01000000
00100000
,
00001000
00010000
00000010
00000000
00011000
00000000
00010100
00000000
,
00001000
00000010
00000100
00000001
00000100
00000010
00010000
00000000
,
00001000
00000010
00000100
00010000
00001000
01000000
00100000
10000000
,
10010000
00000000
00000000
00011000
00000000
00000000
00001001
00000000
,
00002000
00003020
00000230
00000302
,
00000013
00000100
00001000
00000010
00000100
00001000
00010000
00000000
,
00001000
01000000
00001000
00010000
00100000
10000000
01000000
00000000
,
00100000
00000000
00010000
00000000
01000000
00100000
10000000
00000000
,
01000000
00010000
00001000
00000010
,
00001000
00000000
00010000
00001000
00000000
00000000
00000000
00000000
,
00001001
00000000
00000010
00001000
,
00000100
00000000
00000010
00000000
00000100
00001000
00000001
00000000
,
00000100
00001000
00010000
00001000
,
00000100
00000000
00001000
00000000
00010000
00100000
10000000
00000000
,
01000000
00000000
00000000
00000000
;

//--------------- dance-double - M. Emirzian ----------------
#NOTES:
     dance-double:
     M. Emirzian:
     Challenge:
     10:
     0.656,0.759,0.112,0.04,0.455:
00000000
00000000
00000000
00000000
,
00000000
00000000
00000000
00000000
,
00000000
00000000
00000000
00000000
,
00000000
00000000
00000000
00000000
,
00010000
00100000
00010000
00000000
10010000
00000000
00000000
00000000
01000000
00010000
01000000
00000000
01001000
00000000
00000000
00000000
,
00001000
00010000
00001000
00000000
00010100
00000000
00000000
00000000
00001000
00000010
00001000
00000000
00001001
00000000
00000000
00000000
,
00000010
00000100
00000001
00000010
00000100
00010000
00000010
00010000
,
00001000
00000000
00000100
00000000
00000010
00000000
00010000
00000000
00001000
00000000
00100000
00000000
01000000
10000000
01000000
00000000
,
20020000
00000000
00000000
00000000
,
00000000
00000000
00000000
00000000
,
00000000
00000000
00000000
00000000
,
00000000
00000000
00000000
00000000
00000000
30030000
M10M0000
00000000
,
01000000
00000000
00100000
10000000
01000000
00000000
00100000
00000000
00010000
00000000
10000000
00000000
00100000
00000000
01000000
00000000
,
00001000
00000000
00100000
00001000
00010000
00000000
01000000
00000000
00100000
00000000
00001000
00000000
00010000
00000000
00000010
00000000
,
00001000
00000000
00000100
00000010
00000001
00000000
00000100
00000000
00000010
00000000
00010000
00000000
00000100
00000000
00000010
00000000
,
00001000
00000000
00010000
00000100
00010000
00000000
00001000
00000000
00000100
00000000
00000010
00000000
00010000
00000000
00001000
00000000
,
01000000
00000000
00001000
00010000
00001000
00000000
00100000
00000000
01000000
00000000
00010000
00000000
00001000
00000000
01000000
00000000
,
00100000
00000000
10000000
00010000
00100000
00000000
01000000
00000000
00100000
00000000
00001000
00000000
01000000
00000000
00100000
00000000
,
00010000
00000000
00001000
01000000
00001000
00000000
00010000
00000000
00100000
00000000
01000000
00001000
00010000
00000000
01000000
00000000
,
00010000
00001000
00000100
00001000
00010000
00000100
00000010
00000000
,
00000001
00000000
00000100
00000010
00001000
00000000
00000100
00000000
00000010
00000000
00000001
00000000
00000100
00000000
00000010
00000000
,
00010000
00000000
00001000
00000100
00001000
00000000
00010000
00000000
00000100
00000000
00010000
00000000
00100000
00000000
10000000
00000000
,
10020000
M0000000
00130000
00000000
10020000
M0000000
00130000
00000000
,
10020000
M0100000
00130000
01000000
10000000
00100000
01000000
00001000
,
00010000
01000000
00010000
00001000
00000000
00000000
00000000
00000000
,
00001001
00000000
00000010
00000100
00000000
00000100
00001000
00000000
00000010
00000100
00000000
00001000
00010000
00000000
00001000
00000000
,
01000000
00000000
00100000
10000000
00000000
10000000
00100000
00000000
00010000
00001000
00000000
00010000
01000000
00000000
10000000
00000000
,
01000000
00000000
00100000
00001000
00000000
00001000
00100000
00000000
00001000
00010000
00000000
01000000
00100000
00000000
00001000
00000000
,
00010000
00000000
00000010
00001000
00000000
00001000
00000010
00000000
00010000
00001000
00000000
00000100
00000010
00000000
00010000
00000000
,
00001000
00000000
00000010
00000001
00000000
00000001
00000010
00000000
00000100
00010000
00000000
00000010
00000100
00000000
00000001
00000000
,
00000100
00000000
00001000
00010000
00000000
00010000
00001000
00000000
01000000
00100000
00000000
10000000
01000000
00000000
00100000
00000000
,
01000000
00000000
00010000
00001000
00000000
00001000
00010000
00000000
00000100
00000010
00000000
00001000
00010000
00000000
00001000
00000000
,
00000100
00000000
00000001
00001000
00000000
00001000
00000001
00000000
00000100
00000010
00000000
00010000
00001000
00000000
00000100
00000010
,
00000100
00000000
00000001
00000000
00000010
00000000
00000100
00000000
00010000
00000000
00001000
00000000
00010000
00000000
00100000
01000000
,
00100000
00000000
00010000
00000000
00001000
00000000
00100000
00000000
01000000
00000000
00010000
00000000
00001000
00000000
00100000
01000000
,
10000000
00000000
01000000
00000000
00010000
00000000
00001000
00000000
00010000
00000000
00000010
00000000
00001000
00000000
00000100
00000010
,
00000100
00010000
00001000
00000100
00000001
00000100
00000010
00001000
,
00000100
00000000
00000010
00000001
00000100
00000000
00000010
00000000
00001000
00000000
00000100
00010000
00000100
00000000
00001000
00000000
,
00000001
00001000
00000001
00000000
00010000
00001000
00010000
00000000
00010000
10000000
00010000
00000000
01000000
00000000
00100000
00000000
,
10000000
01000000
00100000
00010000
00100000
01000000
10000000
00010000
01000000
00100000
10000000
01000000
00100000
00001000
00010000
00100000
,
10000000
01000000
00100000
00001000
00010000
01000000
10000000
01000000
00100000
00010000
01000000
00100000
10000000
01000000
00100000
00010000
,
10000000
00000000
01000000
00101000
00000000
00010000
01001000
00000000
,
00010010
00000000
00000000
00000000
00000110
00000000
00000000
00000001
00001000
00000000
00000010
00000000
00000100
00000000
00000001
00000000
,
00000010
00000000
00000100
00010000
00001000
00000000
01000000
00000000
00001000
00000000
00010000
00000000
01000000
00000000
00100000
00000000
,
00001000
00000000
01000000
00100000
10000000
00000000
00100000
00000000
00010000
00000000
00001000
00000000
00010000
00000000
00000010
00000000
,
00010000
00000000
00001000
00000100
00000010
00000000
00010000
00000000
00000100
00000000
00000010
00000000
00000001
00000000
00000100
00000000
,
00000010
00000000
00001000
00000100
00010000
00000000
00001000
00000000
00000100
00000000
00001000
00000000
00100000
00000000
01000000
00000000
,
10000000
00000000
00100000
01000000
00010000
00000000
00100000
00000000
01000000
00000000
10000000
00000000
00010000
00000000
00100000
00000000
,
00001000
00000000
01000000
00001000
00010000
00000000
00100000
00000000
01000000
00000000
00001000
00000000
00010000
00000000
01000000
00000000
,
00010000
00000000
00001000
00010000
00000100
00000000
00010000
00000000
00000010
00000000
00001000
00000010
00001000
00000000
00000100
00000000
,
00001000
00000001
00001000
00000000
00001000
00010000
00001000
00000000
10000000
00010000
10000000
00000000
00100000
00000000
01000000
00000000
,
00010000
00000000
00100000
01000000
10000000
00000000
01000000
00000000
00100000
00000000
00001000
00000000
01000000
00000000
00001000
00000000
,
00010000
00000000
00100000
01000000
00100000
00000000
00010000
00000000
00000010
00000000
00001000
00000000
00000100
00000000
00000010
00000000
,
00000001
00000000
00001000
00000010
00000100
00000000
00001000
00000000
00010000
00000000
00000010
00000000
00010000
00000000
00001000
00000000
,
00000100
00000000
00000010
00010000
00001000
00000000
00000010
00000000
00000001
00000000
00000010
00000000
00000100
00000000
00010000
00000000
,
00001000
00000000
01000000
00100000
00010000
00000000
00001000
00000000
00010000
00000000
00100000
00000000
10000000
00000000
00010000
00000000
,
00100000
00000000
01000000
10000000
00100000
00000000
01000000
00000000
00010000
00000000
00100000
00000000
00001000
00000000
00010000
00000000
,
01000000
00000000
10000000
00100000
01000000
00000000
00001000
00000000
00100000
00000000
01000000
10000000
01000000
00000000
00100000
00000000
,
00010000
10000000
00010000
00000000
00010000
00001000
00010000
00000000
00000001
00001000
00000001
00000000
00000010
00000000
00000100
00000000
,
00001000
00000001
00000100
00001000
00010000
00000010
00010000
00001000
,
00000100
00000010
00010000
00001000
00000010
00000001
00000100
00000010
,
00001000
00000100
00000010
00000001
00000100
00000010
00010000
00001000
01000000
00100000
10000000
01000000
00100000
00010000
10000000
00100000
,
00010000
00100000
10000000
01000000
00100000
00010000
00100000
00001000
00010000
00001000
00000100
00000001
00000010
00000100
00001000
00000001
,
00000100
00000010
00001000
00000100
00010000
00001000
00010000
00000000
00000000
00000000
00000000
00000000
00000000
00000000
00000000
00000000
,
10010000
01000000
00100000
01000000
10000000
00100000
01000000
00000000
,
00001000
00010000
00000010
00010000
00001000
00000100
00000010
00000000
,
00010000
00000100
00000010
00000100
00001000
00000001
00000100
00001000
,
00010000
00000100
00010000
00100000
10000000
01000000
00100000
00010000
,
01000000
00000000
00000000
00000000
;

//--------------- lights-cabinet - ----------------
#NOTES:
     lights-cabinet:
     :
     Easy:
     1:
     0.573,0.868,1,0.056,0.064:
000000
000000
000000
000000
,
000000
000000
000000
000000
,
000000
000000
000000
000000
,
000000
000000
000000
000000
,
100100
000000
000000
011000
000000
000000
100100
000000
,
011000
010100
101000
010100
,
010100
000000
000000
011000
000000
000000
100100
000000
,
011000
000000
011000
000000
100100
000000
100100
011000
,
100100
100000
010000
001000
000100
100000
010000
001000
,
000100
100000
010000
001000
000100
100000
010000
001000
,
000100
100000
010000
001000
000100
100000
010000
001000
,
000100
100000
010000
001000
000100
000000
111100
000000
,
100100
001000
010000
000100
,
100000
000000
010100
000000
000100
001000
000100
010000
,
000100
001000
010000
200000
,
001100
000000
011000
000000
310000
000100
001000
010000
,
001000
010000
100000
020000
,
000000
000000
001100
000000
031100
000000
110000
001000
,
000100
001000
010000
002000
,
000000
000000
000000
000000
013000
000000
100000
001000
,
010000
000100
001000
020000
,
000000
100100
130100
000000
,
100000
000000
001000
000000
100000
000000
010000
000100
,
001000
010000
000100
011000
000100
010000
000100
010000
,
000000
022000
000000
000000
000000
033000
000000
000000
,
100100
000000
000000
100100
000000
000000
100100
000000
000000
100100
000000
000000
100100
000000
000000
000000
,
100100
000000
000000
100100
000000
000000
100100
000000
000000
100100
000000
000000
100100
000000
000000
000000
,
011000
000000
000000
011000
000000
000000
011000
000000
000000
011000
000000
000000
011000
000000
000000
000000
,
101000
000000
000000
101000
000000
000000
101000
000000
000000
101000
000000
000000
101000
000000
000000
000000
,
110000
000000
000000
110000
000000
000000
110000
000000
000000
110000
000000
000000
110000
000000
000000
000000
,
010100
000000
000000
010100
000000
000000
010100
000000
000000
010100
000000
000000
010100
000000
000000
000000
,
101000
000000
000000
101000
000000
000000
101000
000000
000000
101000
000000
000000
101000
000000
000000
000000
,
001100
000000
000000
001100
000000
000000
001100
000000
000000
001100
000000
000000
001100
000000
000000
000000
,
000000
111100
000000
111100
000000
111100
000000
111100
,
000000
111100
000000
111100
000000
111100
000000
111100
,
000000
111100
000000
111100
000000
111100
000000
111100
,
000000
111100
000000
111100
000000
111100
000000
111100
,
000000
111100
000000
111100
000000
111100
000000
111100
,
000000
111100
000000
111100
000000
111100
000000
001100
,
200000
001000
010000
000100
,
300100
011000
100100
011000
,
100100
000000
011000
100100
000000
011000
000000
011000
,
100100
001000
100100
111100
,
100000
010000
100000
010000
,
001000
100000
001000
100000
,
000100
001000
000100
001000
,
100000
000000
010000
000000
100000
001000
010000
100100
,
011000
100100
001000
000100
,
010000
000000
001000
000000
010000
000000
001000
100000
,
100100
011000
100100
011000
,
000100
011000
000000
100100
000000
011000
000000
100100
,
011000
010000
001000
010000
,
001000
000000
100000
000000
001000
000000
100100
010000
,
000100
101000
010100
001000
,
100100
000000
010000
000000
100000
001000
010000
000100
,
100000
000000
010000
001000
000000
100000
000100
000000
,
010000
000000
001000
000000
010000
001000
100000
000100
,
101000
011000
100100
011000
,
010000
000100
100000
000000
010000
000100
100000
001000
,
010000
000000
000100
000000
001000
000000
000100
011000
,
100100
100100
011000
100100
,
000000
101000
000000
010100
,
001000
000000
100100
000000
010100
000000
001000
100100
,
000000
011000
000000
000000
000000
000000
000000
000000
,
100100
100000
011000
100100
,
011000
100100
011000
100100
,
011000
100100
011000
100100
,
011000
000000
100100
000000
011000
100100
011000
000000
,
111100
000000
000000
000000
;
