#TITLE:Oasis;
#SUBTITLE:;
#ARTIST:KaW;
#TITLETRANSLIT:;
#SUBTITLETRANSLIT:;
#ARTISTTRANSLIT:;
#GENRE:;
#CREDIT:;
#MUSIC:Oasis.ogg;
#BANNER:Oasis.png;
#BACKGROUND:Oasis-bg.png;
#CDTITLE:;
#SAMPLESTART:26.529;
#SAMPLELENGTH:13.880;
#SELECTABLE:YES;
#OFFSET:-0.046;
#BPMS:0.000=145.000;
#STOPS:;
#BGCHANGES:;
#FGCHANGES:;

//--------------- dance-single - K. Ward ----------------
#NOTES:
     dance-single:
     K. Ward:
     Beginner:
     1:
     0.077902,0.116334,0.009089,0,0,60,59,1,0,0,0,0.077902,0.116334,0.009089,0,0,60,59,1,0,0,0:
0000
0000
0000
0000
,
0000
0000
0000
0000
,
0000
0000
0000
0000
,
0000
0000
0000
0000
,
0010
0000
0000
0000
,
0010
0000
0000
0000
,
0010
0000
0000
0000
,
0010
0000
0000
0000
,
1000
0000
0000
0000
,
1000
0000
0000
0000
,
0001
0000
0000
0000
,
0001
0000
0000
0000
,
1000
0000
0000
0000
,
1000
0000
0000
0000
,
0001
0000
0000
0000
,
1000
0000
0000
0000
,
0010
0000
0000
0000
,
0010
0000
0000
0000
,
1000
0000
1000
0000
,
1000
0000
0000
0000
,
0001
0000
0001
0000
,
0001
0000
0000
0000
,
0001
0000
0000
0000
,
0001
0000
0000
0000
,
0010
0000
0000
0000
,
0010
0000
0000
0000
,
0100
0000
0000
0000
,
0100
0000
0000
0000
,
0010
0000
0000
0000
,
0010
0000
0000
0000
,
0100
0000
0000
0000
,
0100
0000
0000
0000
,
1000
0000
0000
0000
,
0000
0000
0000
0000
,
1000
0000
0000
0000
,
0000
0000
0000
0000
,
0001
0000
0000
0000
,
0000
0000
0000
0000
,
0001
0000
0000
0000
,
0000
0000
0000
0000
,
1000
0000
0000
0000
,
0100
0000
0000
0000
,
0010
0000
0000
0000
,
0001
0000
0000
0000
,
1000
0000
0000
0000
,
0100
0000
0000
0000
,
0010
0000
0000
0000
,
0001
0000
0000
0000
,
0010
0000
0000
0000
,
0010
0000
0000
0000
,
0010
0000
0000
0000
,
0010
0000
0000
0000
,
0001
0000
0000
0000
,
0001
0000
0000
0000
,
0001
0000
0000
0000
,
0001
0000
0000
0000
,
1000
0000
0000
0000
,
1000
0000
0000
0000
,
1000
0000
0000
0000
,
1000
0000
0000
0000
,
0001
0000
0000
0000
,
0001
0000
0000
0000
,
1000
0000
0000
0000
,
1000
0000
0000
0000
,
1001
0000
0000
0000
;

//--------------- dance-single - K. Ward ----------------
#NOTES:
     dance-single:
     K. Ward:
     Easy:
     3:
     0.198651,0.261752,0.036354,0,0,153,149,4,0,0,0,0.198651,0.261752,0.036354,0,0,153,149,4,0,0,0:
0000
0000
0000
0000
,
0000
0000
0000
0000
,
0000
0000
0000
0000
,
0000
0000
0000
0000
,
0010
0000
0000
0000
,
0010
0000
0100
0000
,
0010
0000
0010
0000
,
0010
0000
0000
0000
,
1000
0000
0001
0000
,
1000
0000
1000
1000
,
0001
0000
0001
0000
,
0001
0000
1000
1000
,
1000
0000
0001
0000
,
1000
0000
1000
1000
,
0001
0000
0001
0000
,
1000
0000
1001
0000
,
0010
0000
0100
0000
,
0010
0000
0100
0100
,
0010
0000
0100
0000
,
0010
0000
1000
1000
,
0001
0000
0010
0000
,
0001
0000
1000
1000
,
0100
0000
0010
0000
,
0001
0100
1000
0100
,
0010
0000
0001
0001
,
0000
0000
1000
1000
,
0010
0000
0010
0010
,
0000
0000
0100
0001
,
0010
0000
0100
1000
,
0000
0000
0010
0010
,
0100
0000
0100
0100
,
0000
0000
1001
0000
,
1000
0010
1000
0010
,
0000
0000
0010
0010
,
1000
1000
0010
1000
,
0000
0000
0001
1000
,
0001
0100
0001
0100
,
0000
0000
0100
0100
,
0001
0001
0010
0100
,
0000
0000
1001
1001
,
1000
0000
0100
0000
,
0010
0000
0001
0000
,
0001
0000
0010
0000
,
0100
0000
1000
0001
,
0100
0000
0100
0000
,
0010
0000
0001
0000
,
0001
0000
0010
0000
,
0100
0000
0001
1000
,
0010
0000
0100
0000
,
0010
0000
1000
1000
,
0010
0000
0100
0000
,
0010
0000
1000
1000
,
0001
0000
0010
0000
,
0100
0000
0010
0010
,
0001
0000
1000
0000
,
0001
1000
0001
0000
,
0100
0000
0100
0000
,
0010
0000
1000
1000
,
0001
0000
0010
0000
,
0100
0000
1000
1000
,
0001
0000
1000
0000
,
0010
0000
0100
0100
,
0001
0000
0010
0000
,
0001
1000
0001
1000
,
0010
0000
0000
0000
;

//--------------- dance-single - K. Ward ----------------
#NOTES:
     dance-single:
     K. Ward:
     Medium:
     6:
     0.296029,0.349002,0.099975,0.118152,0,228,217,11,13,0,0,0.296029,0.349002,0.099975,0.118152,0,228,217,11,13,0,0:
0000
0000
0000
0000
,
0000
0000
0000
0000
,
0000
0000
0000
0000
,
0000
0000
0000
0000
,
1000
0000
0100
0000
,
1000
0000
1000
0000
0002
0000
0000
0003
,
1000
0000
0100
0000
,
2000
0000
0010
3010
,
1000
0100
1000
0010
,
0100
0100
0001
0001
,
1000
0000
0010
0000
,
1000
0000
0010
0000
0200
0000
0000
0301
,
1000
0000
0010
0000
,
1000
0001
1000
1000
,
1001
0000
0011
0000
,
1100
0000
0110
0000
0020
0000
1000
0030
,
1000
0010
0010
0101
,
0001
0000
0100
0000
0100
0001
0100
0000
,
0010
1000
0001
0101
,
0200
0000
0010
0310
,
1000
0010
0010
0101
,
0001
0000
0100
0000
0100
1000
0100
0000
,
0010
1000
0001
0011
,
2000
0000
0100
3100
,
1000
0001
0000
0100
0010
0000
0010
0000
,
0000
0000
0000
1000
0010
0000
0010
0000
,
0100
0001
0000
0001
0010
0000
0100
0000
,
0000
0000
0000
1000
0010
0000
0010
0000
,
1000
0001
0000
0100
0010
0000
0010
0000
,
0000
0000
0000
1000
0010
0000
0010
0000
,
0100
0001
0000
0001
0010
0000
0001
0000
,
0000
0000
0000
0000
1000
0010
2000
0000
,
3001
0100
0001
1000
,
0010
0000
0100
0000
0001
0100
0001
0000
,
1000
1000
0100
0100
,
0020
0000
0100
0130
,
1000
0100
1000
0001
,
0100
0000
0010
0000
1000
0100
1000
0000
,
1000
0000
0010
0000
,
0200
0001
0010
0301
,
1000
0000
0000
0010
0100
0000
0000
0100
,
0010
0010
1000
0001
,
1000
0000
0000
0010
0100
0000
0000
0100
,
0010
0000
0010
0000
1000
0000
1000
0001
,
1000
0000
0000
0010
0100
0000
0000
0100
,
0010
0010
1000
0001
,
2000
0000
3100
0000
,
0020
0000
0130
0110
,
1000
0000
0001
0000
,
0010
0001
0100
1000
,
0010
0000
1000
0000
,
1000
0010
0100
0110
,
0001
0000
1000
0000
,
0001
0100
0010
1000
,
0100
0000
0100
0000
,
0100
1000
0010
0001
,
1000
0001
0001
1000
,
0010
0000
0010
0000
0100
0010
0100
0000
,
0001
0001
0100
0100
,
0002
0010
0013
0100
,
1000
0000
0010
0000
,
0100
0000
0001
0000
0010
0100
0010
0000
,
0100
0100
1000
1000
,
0020
0000
0100
0130
,
1001
0000
0000
0000
;

//--------------- dance-single - K. Ward ----------------
#NOTES:
     dance-single:
     K. Ward:
     Hard:
     13:
     0.588162,0.639837,0.036354,0.290835,0.381721,453,449,4,32,0,0,0.588162,0.639837,0.036354,0.290835,0.381721,453,449,4,32,0,0:
0000
0000
0000
0000
,
0000
0000
0000
0000
,
0000
0000
0000
0000
,
0000
0000
0000
0000
,
0020
0000
0000
1030
0002
0000
0000
0103
,
0020
0000
0000
0000
0100
0000
0000
0000
0130
0000
0000
0001
0010
0000
0100
0000
,
2000
0000
0000
3100
0020
0000
0000
0130
,
1001
0000
0000
0000
,
1000
0100
0010
0001
0000
0001
0000
0001
,
1000
0100
0010
0001
0000
0001
0000
0001
,
0100
0010
0100
0010
0000
0010
0000
0010
,
1000
0000
0001
0000
0010
0000
0100
0000
0000
0000
0100
0000
0000
0000
0010
0100
,
0010
0001
0100
0010
0000
0010
0000
0010
,
0100
0010
1000
0100
0000
0100
0000
0100
,
0010
0000
0000
0100
0011
0000
0000
0100
,
1001
0000
0000
0000
0110
0000
0000
0000
1000
0001
1000
0001
1000
0000
0100
0000
,
0010
0001
0100
0000
0100
0010
1000
0000
,
1000
0010
0100
0000
0100
0000
0001
0000
0010
0000
0100
0000
0010
0000
0000
0000
,
0100
0010
0001
0000
1000
0010
1000
0000
,
0010
0100
0010
0000
1000
0000
0001
0000
0010
0000
0100
0000
2000
0000
0000
0000
,
3100
0010
0001
0000
0100
0010
1000
0000
,
0001
1000
0001
0000
0010
0000
0100
0000
1000
0000
0100
0000
0020
0000
0000
0000
,
0130
0010
0100
0000
0001
1000
0100
0000
,
0001
0010
0001
0000
0100
0000
1000
0000
0100
0000
0010
0000
0200
0000
0000
0000
,
0310
1000
0000
1000
0010
0000
0010
1000
0000
1000
0001
0000
0100
0000
0100
0000
,
0001
0100
0000
0100
0010
0000
0010
1000
0000
1000
0100
0000
0010
0000
0010
0000
,
0001
0100
0000
0100
0010
0000
0010
1000
0000
1000
0100
0000
0010
0000
0001
0000
,
1000
0001
0000
0001
0100
0000
0100
0010
0000
0010
1000
0000
0001
0000
0001
0000
,
1000
0001
0000
0001
0010
0000
0010
0100
0000
0100
1000
0000
0001
0000
0001
0000
,
0100
0010
0000
0010
1000
0000
1000
0001
0000
0001
0010
0000
0100
0000
0010
0000
,
0001
1000
0000
1000
0100
0000
0100
0010
0000
0010
0100
0000
0010
0000
0001
0000
,
1000
0010
0000
0010
0100
0000
0100
0001
0000
0001
0010
0000
0200
0000
0000
0000
,
1300
0000
0010
0000
0100
0010
0100
0000
0001
0000
0100
0000
0010
0000
1000
0010
,
1000
0000
0010
0000
1000
0000
0010
0000
1000
0000
0010
0000
0100
0001
0100
0001
,
0000
0000
0001
0000
0100
0010
1000
0000
0100
0000
1000
0000
0100
0000
0010
0001
,
0010
0000
0100
0000
1000
0000
0010
0000
0100
0000
0001
0000
1000
0001
2000
0000
,
0000
0000
3001
0000
0100
0010
0100
0000
0001
0000
0001
0000
1000
0000
0100
0010
,
0100
0010
0001
0100
0010
1000
0002
0000
,
0000
0000
1003
0000
0010
0100
0010
0000
1000
0000
0010
0000
0100
0000
0001
1000
,
0001
0000
0010
0000
0100
0000
1000
0000
1000
0010
1000
0001
1000
0001
1000
0010
,
2000
0000
0000
3100
0020
0000
0000
0031
,
2000
0000
0000
0000
3002
0000
0000
0000
1003
0000
0000
0010
0100
0000
0001
0000
,
0020
0000
0000
0130
2000
0000
0000
3100
,
0020
0001
0100
0031
,
2000
0000
0000
3010
0200
0000
0000
0301
,
0020
0000
0000
0000
1030
0000
0000
0000
0010
0000
0000
0001
0100
0000
0010
0000
,
0200
0000
0000
1300
0200
0000
0000
0301
,
0020
0100
0001
0130
,
1000
0000
0001
0000
1000
0000
0001
0100
0001
0000
1000
0000
0010
0000
1000
0000
,
1000
0010
2000
0000
3100
0010
0002
0000
,
1003
0000
0001
0000
0100
0000
0001
1000
0001
0000
0100
0000
0001
0000
1000
0000
,
0001
0100
0000
0100
0001
0000
0001
0010
0000
0010
0100
0000
2000
0000
0000
0000
,
0000
0000
3100
0000
0100
0000
0010
0100
0010
0000
0001
0000
0100
0000
0010
0000
,
1000
0100
0020
0000
0031
0100
0002
0000
,
0000
0000
1003
0000
1000
0000
0001
1000
0001
0000
0010
0000
0100
0000
1000
0000
,
0010
0100
0000
0100
0001
0000
0001
0010
0000
0010
0100
0000
2000
0000
0000
0000
,
0000
0000
3100
0000
0100
0010
0100
0000
0010
0000
0001
0000
0001
0000
0100
0001
,
0100
0000
0010
0000
1000
0000
0010
0000
1000
0000
0010
0000
0100
0001
0100
0001
,
0000
0000
0001
0000
0100
0001
1000
0000
0100
0000
0010
0000
0001
0000
1000
0001
,
1000
0000
0010
0000
0100
0000
0001
0000
0010
0000
0100
0000
0010
0100
0020
0000
,
0000
0000
0031
0000
0001
1000
0001
0000
0100
0000
0001
0000
1000
0000
0010
0100
,
0001
0010
0100
1000
0100
0010
0002
0000
,
0000
0000
1003
0000
0010
0100
0010
0000
1000
0000
0001
0000
0010
0000
0100
0010
,
0100
0000
0010
0000
0001
0000
0100
0000
0010
1000
0001
0100
0010
0100
0001
1000
,
0001
0000
0000
0000
;

//--------------- dance-single - C. Foy ----------------
#NOTES:
     dance-single:
     C. Foy:
     Challenge:
     15:
     0.642694,0.701412,0.309012,1.963137,0.577126,495,461,34,216,0,0,0.642694,0.701412,0.309012,1.963137,0.577126,495,461,34,216,0,0:
0000
0000
0000
0000
,
0000
0000
0000
0000
,
2000
0000
0000
0000
0000
0000
0002
3000
0200
0000
0000
0003
0000
0000
2000
0300
,
0002
0000
0000
3000
2000
0000
0003
0000
0200
3000
0002
0300
0020
0003
0130
1000
,
0020
0000
0000
0000
0000
0000
0002
0030
2000
0000
0000
0000
0003
0000
0200
3000
,
0002
0000
0000
0300
0020
0000
0000
0003
2000
0000
0030
3001
2000
0000
0020
3000
,
0002
0000
0000
0000
0000
0030
2000
0003
0020
0000
0000
0000
0000
3000
0200
0030
,
1000
0000
0000
0000
0010
0000
0000
0000
0302
0000
2000
0003
0200
3000
0301
0000
,
0202
0000
0000
0000
0300
0000
0200
0003
0020
0000
0000
0000
0000
0300
0002
0030
,
0200
0000
0000
0003
2000
0000
0000
0300
0002
0000
3000
1003
0002
0000
2000
0003
,
0200
0000
0000
0000
0000
3000
0020
0300
2000
0000
0000
0000
0000
0030
0200
3000
,
0002
0000
0303
0000
2002
0000
0000
0003
0002
3000
0200
0003
2000
0300
3001
2000
,
0002
0000
0000
0000
0000
3000
0200
0003
2000
0000
0000
0000
0000
0300
0002
3000
,
2000
0000
0000
0003
0200
0000
3000
0000
0002
0000
0300
0203
0020
0300
1000
0030
,
2001
0000
0000
0000
0000
0000
0010
3000
0012
0000
0000
0000
0000
0000
1000
0003
,
0220
0000
0330
0000
0120
0000
0000
0030
1000
0001
0010
0100
0001
0100
0010
0001
,
1000
0000
0000
0000
0002
0000
0100
0003
0210
0000
0000
0000
0020
0300
0001
0030
,
0021
0000
0000
0000
2000
0030
0000
3000
1200
0000
0300
0100
0010
0000
0001
0000
,
0102
0000
0000
0000
0020
0003
0100
0030
0210
0000
0000
0000
0002
0300
1000
0003
,
2001
0000
0000
3000
1020
0000
0000
0030
0012
0000
1000
0003
1001
0000
1000
0001
,
2000
0000
0000
0000
0002
3000
0100
0003
0210
0000
0000
0000
1000
0000
1000
0300
,
2100
0000
0000
3000
1200
0000
0000
0300
0200
0000
0301
1000
0002
0000
0010
0003
,
0021
0000
0000
0000
0100
0000
1000
0030
2001
0000
0000
0000
0020
3000
0100
0030
,
0210
0000
0000
0300
2200
0000
3300
0000
1000
0100
0010
0100
0001
0100
0010
0100
,
1000
0001
0000
0001
1000
0000
1000
0100
0000
0100
0001
0000
0001
0000
0100
0000
,
0100
1000
0000
1000
0010
0000
0010
0001
0000
0001
1000
0000
1000
0000
0100
0000
,
0100
0001
0000
0001
0010
0000
0100
0001
0000
0001
0100
0000
1000
0010
0100
0000
,
0100
0001
0000
0001
1000
0000
0010
0000
0010
0000
0000
1000
0000
0000
1000
0000
,
1000
0100
1000
0000
1000
0000
1000
0100
0000
0100
0001
0000
1000
0000
0010
0000
,
0001
0100
0000
0100
1000
0000
1000
0001
0000
0000
1000
0000
0100
0000
0001
0000
,
0001
1000
0000
1000
0001
0000
0010
0100
0000
0100
0001
0000
0001
1000
0001
0000
,
1000
0010
0000
0010
0001
0000
0001
1000
0000
1000
0001
0000
0001
1000
0001
0000
,
2000
0001
3000
0002
1000
0003
2000
0100
3000
0200
0001
0300
0002
0000
0103
0000
,
0200
1000
0300
2000
0010
3000
0020
0001
0030
0002
1000
0003
2000
0000
3100
0000
,
0200
0001
0300
0002
0020
0003
0230
0001
0300
0002
0200
0003
1300
0020
0100
0030
,
0200
0001
0300
0002
2000
0003
0010
3000
0020
0000
0000
1000
0030
0000
1000
0000
,
1000
0100
1000
0000
1000
0000
2000
0100
3000
0200
0002
0300
2000
0003
0020
3000
,
0032
0100
0003
0200
1000
0300
2000
0002
3000
0000
2000
0003
0200
3000
0001
0300
,
0002
1000
0003
2000
0002
3000
0023
0100
0030
0200
0001
0300
0001
2000
0002
3000
,
2000
0003
0010
0000
3000
0000
0020
0000
0001
0000
0030
0000
0002
0000
1000
0000
0003
0000
2000
0000
0001
0000
3000
0000
0001
0000
1000
0000
0001
0000
0000
0000
,
2002
0000
0000
0000
3003
0000
2000
0000
0200
0000
0000
0000
3000
0000
0002
0300
,
2000
0000
0003
0000
0002
0000
3000
0000
2000
0000
0003
3002
2000
0003
0020
3000
,
0002
0000
0000
0000
0030
0000
0200
0003
2000
0000
0000
0300
0000
0000
0002
3000
,
0020
0000
0000
0003
2000
0000
0030
0000
0200
3000
0002
0300
1000
0003
1000
0001
,
2000
0000
0000
0000
0000
0000
0020
3000
0002
0000
0000
0030
0000
0000
0200
0003
,
2000
0000
0300
0000
0002
3000
0000
0000
2000
0003
3000
0002
2000
0003
0200
3000
,
0002
0000
0300
0000
0000
0000
0020
0003
2000
0000
0000
0000
0030
0000
0010
3000
,
0210
0000
0000
0000
1000
0000
0300
0000
1000
0100
0010
0100
0001
0100
0010
0100
,
1000
0001
0000
0000
0000
0000
1000
0000
2000
0002
0000
0000
3000
0000
0020
0003
,
0230
0000
0002
0000
0000
0300
0000
0000
2000
0003
0002
0000
0000
3000
0000
0000
2000
0000
0003
0000
0000
0000
3020
0000
0200
0000
0030
0000
1000
0000
0000
0000
,
0310
0200
0000
0000
0000
0000
1000
0000
0310
0200
0000
0000
0000
0000
1000
0000
,
0320
0200
0030
0320
0200
0030
0000
0000
1000
0000
0010
0000
0001
0000
1300
0100
,
0020
0001
0000
0000
0000
0000
0100
0000
0230
0020
0000
0000
0300
0000
1000
0000
,
0031
0020
0000
0000
0001
0000
0000
0000
1000
0000
0000
0032
0100
0000
1000
0000
,
0020
0003
0001
0000
0000
0000
0000
0000
0000
0000
0000
0000
0100
0000
0000
0000
0032
0000
1000
0000
0000
0000
0000
0000
0000
0000
0000
0000
0010
0000
0000
0000
,
0020
0003
0100
0000
0030
0000
0200
0000
1000
0000
0000
0000
0300
0000
0000
0000
1000
0000
0100
0000
0010
0000
0100
0000
0001
0000
0100
0000
0010
0000
0100
0000
,
1000
0000
0002
0000
0000
0000
0003
0000
0002
0000
0000
0000
0100
0000
0003
0000
0002
0000
0200
0000
0003
0000
0000
0000
0020
0000
0300
0000
0001
0000
0000
0030
,
0021
0000
0000
0000
0000
0000
0000
0030
0120
0000
0000
0000
0000
0000
0000
0030
2010
0000
0000
0000
3001
0000
1000
0000
0002
0000
0000
0000
0010
0000
0000
0003
,
0002
0020
0003
0000
0000
0000
0100
0030
0210
0000
0000
0300
0200
0000
0010
0300
,
0200
0000
1000
0000
0000
0000
0000
0000
1300
0000
0200
0000
0000
0000
0000
0300
0120
0000
0000
0000
0100
0000
0000
0000
0001
0000
0000
0000
0130
0000
0010
0000
,
0100
0000
2000
0000
0000
0000
0000
0000
0010
0000
3000
0000
0001
0000
0000
0000
0002
0000
1000
0000
0000
0000
0000
0000
0200
0000
0003
0000
0010
0000
0000
0300
,
0210
0000
0000
0000
0000
0000
0000
0300
2200
0000
0000
0000
0000
0000
3300
0000
2001
0000
0000
0000
3001
0000
1000
0000
0002
0000
0000
0000
0010
0000
0003
0000
,
0020
0100
0000
0000
1000
0030
0200
0000
0302
1000
0000
0000
0010
0000
0100
0003
,
0001
1000
0000
0001
1001
0000
0000
0000
0001
0100
0010
0100
1000
0100
0010
1000
,
2002
0000
0000
0000
0000
3003
0000
0000
0000
0000
0000
0000
0000
0000
0000
0000
;

//--------------- dance-double - M. Emirzian ----------------
#NOTES:
     dance-double:
     M. Emirzian:
     Easy:
     5:
     0.251884,0.323668,0.027266,0.199949,0,194,191,3,22,0,0,0.251884,0.323668,0.027266,0.199949,0,194,191,3,22,0,0:
00000000
00000000
00000000
00000000
,
00000000
00000000
00000000
00000000
,
00000000
00000000
00000000
00000000
,
00000000
00000000
00000000
00000000
,
20000000
30000000
02000000
03000000
,
00010000
00010000
00010000
00000000
,
02000000
03000000
00020000
00030000
,
00001000
00001000
00001000
00000000
,
00000020
00000030
00000002
00000003
,
00000100
00000100
00000100
00000000
,
00002000
00003000
00020000
00030000
,
01000000
01000000
01000000
00000000
,
20000000
30000000
00200000
00300000
,
00010000
00010000
00010000
00000000
,
00200000
00300000
00020000
00030000
,
00001000
00001000
00001000
00000000
,
00001000
00000010
00000001
00001000
,
00000001
00000100
00001000
00010000
,
01000000
10000000
01000000
01000000
,
00010000
00000010
00001000
00000100
,
00010000
00001000
00001000
00000010
,
00000010
00000100
00000001
00000100
,
00001000
00100000
00010000
00001000
,
00100000
01000000
10000000
00000000
,
20000000
31000000
00000000
01000000
,
02000000
03010000
00000000
00010000
,
00020000
00031000
00000000
00001000
,
00002000
00003100
00000000
00000100
,
00000200
00000301
00000000
00000100
,
00000200
00001300
00000000
00001000
,
00002000
00013000
00000000
00100000
,
00200000
10300000
00000000
00000000
,
10000000
00010000
10000000
01000000
,
00100000
00001000
00000100
00001000
,
00100000
00010000
10000000
01000000
,
00010000
00001000
00000100
00000001
,
00000010
00000100
00010000
00100000
,
00010000
00001000
00000100
00000001
,
00000010
00001000
00010000
00001000
,
00010000
00100000
10000000
10000000
,
10000000
00000000
00000000
00000000
,
00010000
00000000
00000000
00000000
,
01000000
00000000
00000000
00000000
,
00001000
00000000
00000000
00000000
,
00000010
00000000
00000000
00000000
,
00000001
00000000
00000000
00000000
,
00000100
00000000
00000000
00000000
,
00000010
00000000
00000110
00001001
,
00000010
00001000
01000000
00010000
,
00100000
01000000
10000000
00010000
,
00100000
01000000
00010000
00001000
,
00000010
00000001
00001000
00000100
,
00000010
00001000
01000000
00010000
,
00100000
00001000
00000100
00000001
,
00000010
00000100
00010000
00001000
,
00010000
00010000
00001000
00001000
,
00010000
00100000
10000000
00010000
,
01000000
00100000
00010000
00000100
,
00001000
00000010
00000100
00000001
,
00000010
00001000
00010000
00100000
,
10000000
01000000
00010000
01000000
,
00010000
01000000
00100000
00001000
,
00010000
00001000
00000010
00000100
,
00001000
00000001
00000100
00001000
,
00022000
00000000
00000000
00033000
;

//--------------- dance-double - M. Emirzian ----------------
#NOTES:
     dance-double:
     M. Emirzian:
     Medium:
     7:
     0.410285,0.439661,0.06362,0.036354,0.013633,316,309,7,4,0,0,0.410285,0.439661,0.06362,0.036354,0.013633,316,309,7,4,0,0:
00000000
00000000
00000000
00000000
,
00000000
00000000
00000000
00000000
,
00000000
00000000
00000000
00000000
,
00000000
00000000
00000000
00000000
,
20000000
00000000
00000000
00010000
30010000
00000000
00000000
00010000
,
01000000
00100000
00010000
00001000
,
00020000
00000000
00000000
01000000
01030000
00000000
00000000
10000000
,
00100000
01000000
00001000
00000010
,
00000001
00000000
00000000
00000001
00000100
00000000
00000000
00001000
,
00000100
00000000
00000001
00000100
00001000
00010000
01000000
00000000
,
10000000
00000000
00000000
01000000
00010000
00000000
00000000
01000000
,
10000000
00000000
01000000
00010000
00001000
00000100
00000001
00000000
,
00000010
00000000
00000000
00001000
00000010
00000000
00000000
00000001
,
00000010
00000000
00001000
00010000
00100000
10000000
01000000
00000000
,
10000000
00000000
00000000
00100000
00010000
00000000
00000000
00100000
,
10000000
00000000
00100000
00010000
00001000
00000010
00000001
00000000
,
00000100
00000010
00001000
00000000
00000100
00010000
00001000
00000000
,
00010000
00000000
00001000
00000000
01000000
00000000
00000000
00000000
00010000
00000000
00000000
00010000
01000000
00000000
00100000
00000000
,
10000000
00000000
10000000
00000000
01000000
10000000
00010000
00000000
,
01000000
00000000
00010000
00000000
10000000
00000000
00000000
00000000
01000000
00000000
00100000
00000000
00001000
00000000
00000000
00001000
,
00100000
00001000
00010000
00000000
00001000
00010000
00000100
00000000
,
00001000
00000000
00000000
00000000
00000010
00000000
00000000
00000000
00000100
00000000
00000000
00000001
00001000
00000000
00000000
00000000
,
00000100
00001000
00000010
00000000
00010000
00001000
00000010
00000000
,
00001000
00010000
01000000
00000000
00100000
00010000
01000000
00100000
,
01000000
00000000
01000000
00000000
01000000
00100000
10000000
00000000
,
01000000
00000000
00010000
00001000
00000100
00000001
00000010
00000000
,
00000100
00000000
00000100
00000000
00000100
00001000
00000010
00000000
,
00000100
00000000
00001000
00010000
01000000
10000000
00100000
00000000
,
01000000
00000000
01000000
00000000
01000000
00010000
00100000
00000000
,
01000000
00000000
00010000
00001000
00000010
00000001
00000100
00000000
,
00000010
00000000
00000010
00000000
00000010
00001000
00000100
00000000
,
00000010
00000000
00001000
00010000
00100000
10000000
01000000
00000000
,
10010000
00000000
01100000
00000000
10000000
01000000
00010000
01000000
,
10000000
00000000
01000000
00010000
00001000
01000000
00001000
00000000
,
00010000
00000000
01000000
00010000
00001000
00000100
00000001
00000000
,
00000010
00000000
00001000
00000010
00000001
00000010
00001000
00000000
,
00011000
00000000
00010010
00000000
00000100
00001000
00010000
00001000
,
00000100
00000000
00001000
00010000
01000000
10000000
00010000
00000000
,
10000000
01000000
01010000
00101000
,
00010000
00001000
00000010
00000001
00000100
00000010
00000100
00000000
,
00000001
00000000
00000100
00000000
,
00001000
00001000
00001000
00010000
,
00010000
00000000
00010000
00000000
,
01000000
01000000
01000000
10000000
,
10000000
00000000
00010000
00000000
,
01000000
01000000
01000000
00100000
,
00100000
00000000
10000000
00000000
,
01000000
00010000
00001000
00000010
,
00000001
00000000
00000100
00000010
00001000
00000000
00000100
00000010
,
00000001
00000000
00001000
00000100
00010000
00000000
00001000
00010000
,
00000010
00000000
00010000
00001000
01000000
00000000
00010000
01000000
,
00100000
00000000
01000000
00100000
10000000
00000000
00100000
10000000
,
00010000
00000000
00100000
00001000
00010000
00000000
00000010
00010000
,
00000100
00000000
00001000
00000001
00000100
00001000
00010000
01000000
,
10000000
00100000
01000000
00010000
,
00100000
00001000
00000100
00000010
,
00001000
00000000
00000100
00000000
00000010
00000000
00000100
00001000
,
00000001
00000000
00000100
00001000
00010000
01000000
10000000
00000000
,
01000000
10000000
00010000
00000000
00100000
00001000
00010000
00000000
,
00001000
01000000
00010000
00000000
00100000
00001000
00010000
00000000
,
00000100
00001000
00000001
00000010
,
00001000
00010000
00100000
10000000
00100000
00000000
00010000
00000000
,
00100000
10000000
01000000
00010000
,
00001000
00000010
00000001
00000000
00000100
00000001
00001000
00000000
,
00022000
00000000
00033000
00000000
;

//--------------- dance-double - M. Emirzian ----------------
#NOTES:
     dance-double:
     M. Emirzian:
     Hard:
     9:
     0.598549,0.586214,0.245392,0.018177,0.254481,461,434,27,2,0,0,0.598549,0.586214,0.245392,0.018177,0.254481,461,434,27,2,0,0:
00000000
00000000
00000000
00000000
,
00000000
00000000
00000000
00000000
,
00000000
00000000
00000000
00000000
,
00000000
00000000
00000000
00000000
,
00001000
00000000
00000000
00000000
00100000
00000000
00000000
00010000
,
01000000
00000000
00000000
00000000
10000000
00000000
00000000
00000000
01000000
00000000
00000000
00010000
10000000
00000000
00000000
00000000
,
01000000
00000000
00000000
00010000
00001000
00000000
00000000
00000010
,
00000001
00000100
00001001
00000100
,
00000010
00000000
00000000
00000010
00000100
00000000
00000000
00000100
00001000
00000000
00000000
00001000
00010000
00000000
00000000
00010000
,
01000000
00000000
00000000
01000000
10000000
00000000
00100000
00000000
01000000
00000000
00010000
00000000
10000000
00000000
00000000
00000000
,
01000000
00000000
00000000
01000000
00100000
00000000
00000000
00100000
00001000
00000000
00000000
00001000
00010000
00000000
00000000
00010000
,
00000100
00000000
00000000
00000100
00001000
00000000
00000001
00000000
00000100
00000000
00000010
00000000
00001000
00000000
00000000
00000000
,
00000001
00000000
00000000
00000001
00000100
00000000
00000000
00000100
00000010
00000000
00000000
00000010
00010000
00000000
00000000
00010000
,
00001000
00000000
00000000
00001000
00100000
00000000
00001000
00000000
00010000
00000000
00100000
00000000
01000000
00000000
00000000
00000000
,
00010000
00000000
00000000
00010000
10000000
00000000
00000000
10000000
01000000
00000000
00000000
01000000
00010000
00000000
00000000
00010000
,
00001000
00000000
00000000
00001000
00000010
00000000
00000100
00000000
00001000
00000000
00000100
00000000
00000010
00000000
00000000
00000000
,
00000001
00000100
00001000
00000100
00000010
00001000
00000100
00010000
,
00101000
00000000
00000000
00000000
01010000
00000000
00000000
00000000
00100000
00000000
00000000
00010000
00100000
00000000
10000000
00000000
,
01000000
00010000
01000000
10000000
01000000
00100000
00001000
00010000
,
00000010
00000000
00000000
00000010
00000100
00000000
00000000
00000100
00000001
00000000
00000010
00000000
00000100
00000000
00000001
00000000
,
00000100
00001000
00000010
00010000
00001000
01000000
00100000
10000000
,
01010000
00000000
00000000
00000000
10010000
00000000
00000000
00000000
00100000
00000000
00000000
01000000
00010000
00000000
00100000
00000000
,
01000000
10000000
00010000
10000000
01000000
00100000
00001000
00010000
,
00000100
00000000
00000000
00000100
00000010
00000000
00000000
00000010
00000001
00000000
00001000
00000000
00000100
00000000
00000010
00000000
,
00000001
00000000
00000100
00000010
00001010
00000000
00010010
00000000
,
00011000
00000000
00000000
00000000
01000000
00000000
01000000
00000000
01000000
00000000
00000000
00100000
00000000
00000000
10000000
00000000
,
01000000
01100000
00000000
10000000
01000000
00000000
00110000
00000000
,
01000000
00000000
00001000
00000000
00001000
00000000
00010000
00000000
00000010
00000000
00000000
00000100
00000000
00000000
00000001
00000000
,
00000010
00000000
00000100
00001000
00001010
00000000
00001100
00000000
,
00010010
00000000
00000000
00000000
00001000
00000000
00001000
00000000
00001000
00000000
00000000
01000000
00000000
00000000
00001000
00000000
,
01000000
01010000
00000000
10000000
01000000
00000000
00110000
00000000
,
01000000
00000000
00010000
00000000
01001000
00000000
00000000
00000000
00010000
00000000
01000000
00000000
00100000
10000000
00100000
00000000
,
01000000
10000000
01000000
00010000
10000000
01000000
00010000
00001000
,
00000010
00000001
00000100
00000010
00000100
00000001
00000010
00000100
,
00010000
00000100
00001000
00000010
00010000
00001000
00010000
00100000
,
10000000
01000000
00100000
01000000
10000000
00100000
01000000
00010000
,
01000000
00001000
00010000
00000100
00001000
00000100
00000010
00000100
,
00010000
00001000
01000000
00010000
01000000
00100000
00010000
00001000
,
00010000
00100000
10000000
00010000
10000000
01000000
00010000
00001000
,
00000010
00000000
00000100
00000000
00000010
00000000
00000001
00000000
00000110
00000000
00001000
00000001
00001000
00000001
00001000
00000000
,
00000010
00000000
00000010
00010000
00001000
00000000
01000000
00100000
,
10000000
00000000
00000000
10000000
01000000
00000000
00000000
01000000
00100000
00000000
00000000
00100000
00010000
00000000
01000000
00000000
,
00010000
00000000
01000000
00001000
00010000
00000000
00000100
00010000
,
00001000
00000000
00000000
00001000
00000100
00000000
00000000
00000100
00000001
00000000
00001000
00000000
00000010
00000000
00000100
00000000
,
00000101
00000000
00000010
00000100
00010000
00000000
00001000
01000000
,
00100000
00000000
00000000
00100000
10000000
00000000
00000000
10000000
01000000
00000000
00000000
00100000
00010000
00000000
01000000
00000000
,
00001000
00000000
00100000
00001000
00010000
00000000
00000010
00010000
,
00001000
00000110
00001001
00000110
,
00010100
00000000
00010000
00000000
00001000
00000000
01000000
00000000
00001000
00000000
00010000
00001000
00010000
00000000
00100000
00000000
,
10000000
00000000
00010000
00000000
10000000
00000000
00000000
00000000
01010000
00000000
00000000
10000000
01000000
00000000
00010000
00000000
,
10000000
00000000
01000000
00000000
00010000
00000000
00001000
00000000
01000000
00000000
00100000
01000000
00100000
00000000
00010000
00000000
,
00001000
00000000
01000000
00000000
00001000
00000000
00000010
00000000
00000001
00000000
00000000
00000001
00000100
00000000
00000010
00000000
,
00001000
00000000
00000100
00000000
00000010
00000000
00000001
00000000
00000100
00000000
00000010
00001000
00000010
00000000
00000100
00000000
,
00001000
00000000
00010000
00000000
00001000
00000000
00000000
00000000
01100000
00000000
00000000
00010000
01000000
00000000
10000000
00000000
,
00010000
00000000
00100000
00000000
01000000
00000000
10000000
00000000
00100000
00000000
00010000
00100000
00010000
00000000
00001000
00000000
,
00010000
00000000
01000000
00000000
00010000
00000000
00001000
00000000
00000010
00000000
00000000
00000010
00000001
00000000
00000100
00000000
,
00000010
00000000
00001000
00000000
00000001
00000000
00000010
00000000
00000100
00000000
00001000
00000010
00001000
00000000
00000100
00000000
,
00010000
00000000
00001000
00000000
00100000
00000000
00000000
00000000
11000000
00000000
00000000
00100000
01000000
00000000
00001000
00000000
,
01000000
00000000
00100000
00000000
00010000
00000000
00001000
00000000
00100000
00000000
01000000
10000000
01000000
00000000
00100000
00000000
,
00001000
00000000
00010000
00000000
00001000
00000000
00000100
00000000
00000001
00000000
00000000
00000001
00000100
00000000
00000010
00000000
,
00001000
00000000
00000100
00000000
00000010
00000000
00000001
00000000
00000100
00000000
00000001
00001000
00000001
00000000
00000100
00000000
,
00000010
00000000
00001000
00000000
00000100
00000000
00000000
00000000
00011000
00000000
00000000
01000000
00010000
00000000
00100000
00000000
,
01000000
00000000
00100000
00000000
00010000
00000000
10000000
00000000
01000000
00000000
00100000
00010000
00100000
00000000
00001000
00000000
,
00010000
00000100
00001000
00000100
00000010
00000100
00001000
00000001
,
00002002
00000000
00003003
00000000
;

//--------------- dance-double - M. Emirzian ----------------
#NOTES:
     dance-double:
     M. Emirzian:
     Challenge:
     9:
     0.662169,0.644836,0.490784,0.081797,0.231759,510,456,54,9,3,0,0.662169,0.644836,0.490784,0.081797,0.231759,510,456,54,9,3,0:
00000000
00000000
00000000
00000000
,
00000000
00000000
00000000
00000000
,
00000000
00000000
00000000
00000000
,
00000000
00000000
00000000
00000000
,
20000000
00000000
30000000
M0100000
02000000
00000000
03000000
00001000
,
00020000
00000000
00000000
00000000
00030020
00000000
000M0000
00000000
00001030
00000000
00000000
00000100
00000010
00000000
00000001
00000000
,
00000010
00000000
00000000
00000100
00002000
00000000
00003010
00000100
,
00002000
00000000
00023000
0000M000
01030000
10000000
00100000
01000000
,
00010000
00000000
00000000
00010000
00100000
00000000
00000000
00100000
01000000
00000000
10000000
00000000
00100000
00000000
00010000
00000000
,
00001000
00000000
00000010
00000000
00001000
00000000
00010000
00000000
00000100
00001000
00000100
00000000
00000010
00000000
00000001
00000000
,
00000100
00000000
00000000
00000100
00000010
00000000
00000000
00000010
00001000
00000000
00000001
00000000
00000010
00000000
00001000
00000000
,
00010000
00000000
00100000
00000000
10000000
00000000
00010000
00000000
01000000
00100000
01000000
00000000
00010000
00000000
10000000
00000000
,
01000000
00000000
00000000
01000000
00010000
00000000
00000000
00010000
01000000
00000000
00100000
00000000
00001000
00000000
00010000
00000000
,
00000100
00000000
00001000
00000000
00000010
00000000
00000100
00000000
00000001
00000100
00000001
00000000
00000010
00000000
00000100
00000000
,
00001000
00000000
00000000
00001000
00000010
00000000
00000000
00000010
00000100
00000000
00000001
00000000
00000010
00000000
00000100
00000000
,
00010000
00000000
00001000
00000000
01000000
00000000
00100000
00000000
10000000
00010000
10000000
00000000
00010000
00000000
00100000
00000000
,
01000000
00000000
10000000
00000000
01000000
00100000
01000000
00000000
00010000
00000000
00001000
00000000
00000010
00000000
00000001
00000000
,
00000100
00000000
00000000
00000100
00001000
00000000
00010000
00000000
00001000
00000000
00000000
00001000
00000100
00000000
00000001
00000000
,
00000010
00000000
00000100
00000000
00010000
00001000
00010000
00000000
00100000
00000000
10000000
00000000
00010000
00000000
00100000
00000000
,
01000000
00000000
00000000
01000000
10000000
00000000
00100000
00000000
01000000
00000000
00000000
00010000
10000000
00000000
00100000
00000000
,
01000000
00000000
00001000
00000000
00010000
00001000
00010000
00000000
00000100
00000000
00000010
00000000
00000100
00000000
00001000
00000000
,
00000001
00000000
00000000
00000001
00000010
00000000
00001000
00000000
00010000
00000000
00000000
00010000
00001000
00000000
00000100
00000000
,
00000010
00000000
00010000
00000000
00001000
00100000
00001000
00000000
01000000
00000000
00100000
00000000
00010000
00000000
00100000
00000000
,
01000000
00000000
00000000
01000000
00010000
00000000
00100000
00000000
01000000
00000000
10000000
00000000
00010000
00000000
00100000
00000000
,
10010000
00000000
00001000
00010000
00011000
00000000
00010010
00000000
,
00001100
00000000
00000000
00000000
00000010
00000000
00000001
00000000
00001001
00000000
00000000
00001100
00000000
00000000
00000110
00000000
,
00000001
00001100
00000000
00000010
00001001
00000000
00001100
00000000
,
00010100
00000000
00010000
00000000
00001000
00000000
01000000
00000000
01001000
00000000
00000000
00110000
00000000
00000000
11000000
00000000
,
10010000
00000000
01000000
00010000
10010000
00000000
01100000
00000000
,
11000000
00000000
00000000
00000000
00010000
00000000
01000000
00000000
01010000
00000000
00000000
00101000
00000000
00000000
00011000
00000000
,
00010000
00010010
00000000
00001000
00001100
00000000
00000011
00000000
,
00001001
00000010
00001000
00000100
00000011
00001001
00001100
00000000
,
00000100
00000000
00000010
00000000
00000001
00000100
00000010
00000000
00000100
00000000
00001000
00000000
00010000
00000000
00001000
01000000
,
00010000
01000000
00100000
10000000
01000000
00010000
01000000
10000000
,
00100000
00000000
00010000
00000000
00001000
00010000
00001000
00000000
00000010
00000000
00000100
00000000
00001000
00000000
00000010
00000100
,
00000001
00000100
00000010
00010000
00001000
00000010
00001000
00010000
,
00100000
00000000
10000000
00000000
00010000
01000000
00100000
00000000
01000000
00000000
00010000
00000000
00100000
00000000
01000000
10000000
,
00010000
10000000
00100000
00010000
00100000
01000000
00001000
00010000
,
00001000
00000000
00000010
00000000
00000001
00001000
00000100
00000000
00000010
00000000
00000001
00000000
00000100
00000000
00000010
00010000
,
00001000
00000010
00000100
00010000
00001000
01000000
00100000
10000000
,
00010000
00000000
01000000
00001000
00011000
00000000
00000010
00010000
,
00001010
00000000
00000000
00000000
00001100
00000000
00000000
00000000
00000011
00000000
00000000
00000100
00001000
00000000
00000010
00000000
,
00010010
00000000
00001000
01000000
00011000
00000000
00001000
00100000
,
00110000
00000000
11000000
00000000
10100000
01000000
00010000
00100000
,
00001000
00000000
00000010
00000100
00001001
00000000
00000010
00000100
,
00000101
00000000
00000000
00000000
00001100
00000000
00000000
00000000
00010100
00000000
00000000
00010000
00001000
00000000
00000100
00000000
,
00001000
00000000
00010000
00000000
00001000
00000000
00000000
00100000
01000000
00000000
00100000
00000000
00010000
00000000
00000000
01000000
,
00100000
10000000
01000000
10000000
00100000
00010000
00001000
00010000
,
01000000
00000000
00010000
00000000
00001000
00000000
00000010
00000100
00000010
00000000
00000001
00000000
00000100
00000000
00000010
00000000
,
00001001
00000000
00000000
00000000
00001100
00000000
00000000
00000000
00010100
00000000
00000000
00010000
00001000
00000000
00000010
00000000
,
00001000
00000000
00010000
00000000
00100000
00000000
10000000
00000000
01000000
00000000
00100000
00010000
10000000
00000000
00100000
00000000
,
01010000
00000000
01100000
00000000
00101000
00001000
00010000
00100000
,
00010000
00000000
00001000
00000000
00000100
00000000
00000001
00000100
00000001
00000000
00000010
00000000
00000100
00000000
00001000
00000000
,
00001010
00000000
00000000
00000000
00001100
00000000
00000000
00000000
00010100
00000000
00000000
00010000
00001000
00000000
01000000
00000000
,
00100000
00000000
10000000
00000000
00010000
00000000
00100000
00000000
01000000
00000000
10000000
00010000
01000000
00000000
00001000
00000000
,
00011000
00000000
00101000
00000000
00010100
00000100
00000010
00000100
,
00001000
00000000
00000010
00000000
00000100
00000000
00000001
00000100
00000010
00000000
00001000
00000000
00000100
00000000
00010000
00000000
,
00001000
00000000
00100000
00000000
01000000
00000000
10000000
00000000
00100000
00000000
00000000
00100000
01000000
00000000
00010000
00000000
,
00100000
00000000
01000000
00000000
10000000
00000000
01000000
00000000
00010000
00000000
00001000
00010000
00001000
00000000
00000100
00000000
,
00000001
00000010
00000001
00000100
00001000
00010000
01000000
10000000
,
00100000
00000000
10000000
00000000
00010000
00000000
00100000
01000000
10000000
00000000
00100000
00000000
00010000
00000000
00001000
00000000
,
00010000
00000000
00000100
00000000
00000010
00000000
00000001
00000000
00000100
00000000
00000000
00000100
00000010
00000000
00000100
00000000
,
00000001
00000000
00000010
00000000
00001000
00000000
00000010
00000000
00000100
00000000
00010000
00001000
00010000
00000000
00100000
00000000
,
10000000
01000000
00100000
01000000
00010000
00001000
00000100
00000010
,
00002002
00000000
00003003
00000000
;

//--------------- lights-cabinet - ----------------
#NOTES:
     lights-cabinet:
     :
     Easy:
     1:
     0.711507,0.843422,1.763188,0,0,548,327,194,0,0,18,0.711507,0.843422,1.763188,0,0,548,327,194,0,0,18:
000000
000000
000000
000000
,
000000
000000
000000
000000
,
111100
000000
111100
000000
,
100100
011000
001100
111100
,
110100
000000
000000
001100
111100
000000
000000
110000
,
111100
100000
001100
001100
,
110000
000000
000000
001100
110000
000000
000000
011000
,
100100
000000
001100
101100
,
110000
000100
000000
100100
000000
011000
000000
100100
,
000000
011000
000000
100100
000000
011000
000000
100100
,
011000
100100
000000
011000
000000
100100
000000
100100
,
000000
011000
000000
000100
010000
000100
100000
001000
,
000000
100100
000000
011000
000000
100100
000000
011000
,
000000
100100
000000
011000
000000
100100
000000
011000
,
100100
011000
000000
100100
000000
100100
000000
011000
,
111000
000000
111100
000000
011000
101000
111100
100100
,
110000
001100
101000
011100
,
100100
000000
011000
000000
010000
001100
110000
000100
,
011000
101000
100100
010100
,
010000
000000
001000
000000
101000
000100
011000
001000
,
100000
001100
011000
011100
,
100100
000000
010100
000000
010000
001100
110000
000100
,
011000
101000
100100
010100
,
011000
000100
100100
001100
,
110000
001000
000100
010000
101000
100000
001100
100000
,
010000
001000
000100
100000
011000
000000
001100
000000
,
110000
001100
010000
000100
110000
001000
010100
000100
,
100000
001000
010000
100100
011000
000000
100100
000000
,
100000
001100
010000
010100
101000
001000
011000
000100
,
100000
001000
010000
100100
101000
001000
011000
000000
,
110000
000100
001000
000100
110000
000100
000100
100000
,
001000
000000
100100
000000
100100
011000
100100
000000
,
100100
000100
010000
001000
100100
000100
110000
001000
,
101000
000000
010100
000000
100100
011000
010100
000000
,
100000
000100
110000
001000
101000
000000
001100
000000
,
110000
000000
001000
000000
101100
100100
011000
000000
,
100000
000100
010000
001000
100000
000000
000100
000000
,
010000
000000
001000
000000
100000
010100
110100
000000
,
100000
001000
011000
000100
,
100000
000000
001100
000000
010100
000100
100100
001000
,
110000
000000
000000
001100
110000
000000
000000
011000
,
011000
000000
001100
000000
100000
000000
011100
000100
,
100000
000000
000000
011000
011000
000000
000000
110000
,
001100
000000
011000
000000
101000
000000
111000
000100
,
100000
000000
000000
001100
010000
000000
000000
011000
,
101000
001100
110000
001100
,
100100
000000
000000
010000
001100
000000
000000
100000
,
010100
001000
011000
111100
,
110000
000000
000000
001000
100100
000000
000100
001000
,
011000
000000
000100
000000
110000
001000
110000
000000
,
001100
000000
100000
001000
110000
000000
000100
100000
,
101000
000000
011000
000100
101000
001000
010000
000100
,
100100
000000
011000
010000
100100
000000
100000
001000
,
010100
000000
010100
000000
101000
001000
110000
000100
,
110000
000000
001000
010000
010100
000000
100000
001000
,
010000
000000
100100
000000
101000
001000
010100
000100
,
100000
000000
001100
010000
000100
000000
100000
001000
,
011000
000000
001100
000000
100000
001000
110000
000100
,
100100
000000
000100
010000
011000
000000
010000
100000
,
000100
000000
010000
000000
010100
100000
001100
010000
,
100100
000000
000000
100000
001000
000000
000000
010000
,
100100
000000
101000
000000
100100
011000
101000
100000
,
100100
000000
000100
010000
011000
000000
110000
000100
,
010100
000000
000100
000000
100000
001000
110000
000100
,
111100
000000
000000
000000
;
