#TITLE:Not Worth The Paper;
#SUBTITLE:;
#ARTIST:Dax;
#TITLETRANSLIT:;
#SUBTITLETRANSLIT:;
#ARTISTTRANSLIT:;
#GENRE:;
#CREDIT:;
#MUSIC:Dax - Not Worth The Paper.ogg;
#BANNER:Not Worth the Paper.png;
#BACKGROUND:Not Worth the Paper-bg.png;
#CDTITLE:;
#SAMPLESTART:83.392;
#SAMPLELENGTH:13.000;
#SELECTABLE:YES;
#OFFSET:-0.523;
#BPMS:0.000=132.980;
#STOPS:;
#BGCHANGES:;
#FGCHANGES:;

//--------------- dance-single - M. Puls ----------------
#NOTES:
     dance-single:
     M. Puls:
     Beginner:
     1:
     0.070651,0.108803,0.008243,0,0,60,59,1,0,0,0,0.070651,0.108803,0.008243,0,0,60,59,1,0,0,0:
0000
0000
0000
0000
,
0000
0000
0000
0000
,
0000
0000
0000
0000
,
0000
0000
0000
0000
,
1000
0000
0000
0000
,
0000
0000
0000
0000
,
1000
0000
0000
0000
,
0000
0000
0000
0000
,
0001
0000
0000
0000
,
0000
0000
0000
0000
,
0001
0000
0000
0000
,
0000
0000
0000
0000
,
1000
0000
0000
0000
,
0010
0000
0000
0000
,
0100
0000
0000
0000
,
1000
0000
0000
0000
,
0001
0000
0000
0000
,
0100
0000
0000
0000
,
0010
0000
0000
0000
,
0001
0000
0000
0000
,
1000
0000
0000
0000
,
0100
0000
0000
0000
,
1000
0000
0000
0000
,
0001
0000
0000
0000
,
0010
0000
0000
0000
,
0001
0000
0000
0000
,
0100
0000
0000
0000
,
0100
0000
0000
0000
,
0010
0000
0000
0000
,
0010
0000
0000
0000
,
1000
0000
0000
0000
,
0100
0000
0000
0000
,
0010
0000
0000
0000
,
0001
0000
0000
0000
,
0001
0000
0000
0000
,
0010
0000
0000
0000
,
0100
0000
0000
0000
,
1000
0000
0000
0000
,
0100
0000
0000
0000
,
0010
0000
0000
0000
,
0100
0000
0000
0000
,
0010
0000
0000
0000
,
1000
0000
0000
0000
,
0001
0000
0000
0000
,
1000
0000
0000
0000
,
0001
0000
0000
0000
,
1000
0000
0000
0000
,
0100
0000
0000
0000
,
1000
0000
0000
0000
,
0001
0000
0000
0000
,
0010
0000
0000
0000
,
0001
0000
0000
0000
,
0100
0000
0000
0000
,
0100
0000
0000
0000
,
0010
0000
0000
0000
,
0010
0000
0000
0000
,
1000
0000
0000
0000
,
0100
0000
0000
0000
,
0010
0000
0000
0000
,
0001
0000
0000
0000
,
0001
0000
0000
0000
,
0010
0000
0000
0000
,
1001
0000
0000
0000
,
0010
0000
0000
0000
,
0100
0000
0000
0000
,
0010
0000
0000
0000
,
0100
0000
0000
0000
;

//--------------- dance-single - K. Ward ----------------
#NOTES:
     dance-single:
     K. Ward:
     Easy:
     3:
     0.193114,0.217606,0.090669,0,0,164,153,11,0,0,0,0.193114,0.217606,0.090669,0,0,164,153,11,0,0,0:
0000
0000
0000
0000
,
0000
0000
0000
0000
,
0000
0000
0000
0000
,
0000
0000
0000
0000
,
1000
0000
0100
0000
,
1000
0000
0010
0000
,
1000
0000
0001
0000
,
0100
0010
1000
0000
,
0001
0000
1000
0000
,
0010
0000
0100
0000
,
0001
0000
1000
0000
,
0010
1000
1000
1000
,
0001
0000
1000
0000
,
0001
0000
0001
0000
,
1000
0000
1000
0000
,
1000
0000
1000
1000
,
0001
0000
0100
0010
,
0001
0000
0001
0010
,
0100
0000
1000
0100
,
0010
0000
1001
0000
,
1000
0001
0001
0000
,
0100
0001
0001
0000
,
1000
0001
0001
0000
,
0010
0001
0001
0000
,
1000
0000
0010
0000
,
1001
0000
0110
0000
,
1001
0000
0010
0000
,
0001
1000
0001
0000
,
0010
0000
0000
0000
,
0100
0000
0000
0000
,
1000
0001
0100
0000
,
0010
0010
0010
0000
,
0100
0001
0010
0000
,
0001
0001
0001
0000
,
1000
1000
0010
0000
,
0100
0100
0100
0000
,
0001
0010
0001
0000
,
1000
0100
0010
0100
,
1000
0000
0000
0010
,
0001
0000
0000
0100
,
1000
0000
0000
0010
,
0001
0000
0000
0100
,
1000
0000
0000
0001
,
0001
0000
0000
1000
,
1000
0000
0000
0010
,
0010
0010
0000
0100
,
0001
0000
0010
0000
,
1001
0000
0110
0000
,
1001
0000
0010
0000
,
0100
0010
0010
0000
,
0001
0000
0100
0000
,
0110
0000
1001
0000
,
0110
0000
0001
0000
,
1000
0100
1000
0000
,
0001
0001
0010
0000
,
0001
1000
0100
0000
,
0100
0100
0010
0000
,
0010
0010
0100
0000
,
1000
1000
0001
0000
,
0001
0001
1000
0000
,
0000
0010
0000
0100
,
0000
0001
1000
0000
,
1000
0000
0100
0000
,
0010
0000
0001
0000
,
0010
0000
0100
0000
,
1000
0000
0001
0000
,
1001
0000
0000
0000
;

//--------------- dance-single - K. Ward ----------------
#NOTES:
     dance-single:
     K. Ward:
     Medium:
     7:
     0.310866,0.35361,0.173096,0.024728,0,264,243,21,3,0,0,0.310866,0.35361,0.173096,0.024728,0,264,243,21,3,0,0:
0000
0000
0000
0000
,
0000
0000
0000
0000
,
0000
0000
0000
0000
,
0000
0000
0000
0000
,
0001
0000
1000
0000
,
0001
0100
0020
0000
,
1030
0010
0100
0010
,
0100
0001
1000
0000
2000
0000
0000
0000
,
3001
0000
1000
0000
,
0100
0100
2000
0000
,
3010
0010
0100
0001
,
1000
0100
1000
0000
0000
1100
0000
0000
,
0010
1000
0001
1001
,
0010
0001
1000
1100
,
0001
0100
0010
1010
,
1000
0100
0010
0011
,
1000
0100
1000
0101
,
1000
0100
0010
0011
,
0100
0010
0001
1001
,
0001
1000
0100
1000
0001
0000
1000
0000
,
0100
0010
0001
0000
0100
0000
0010
0000
,
1000
0001
0100
0000
0010
0000
0000
0000
,
1000
0001
0010
0000
0001
0000
0100
0010
,
1000
0010
1010
0000
,
0001
1000
0100
0000
1000
0000
0001
0000
,
1000
0010
1000
0000
0001
0000
1010
0000
,
1000
0001
0100
0000
0010
0000
0100
0001
,
1000
0001
1000
0000
0001
0000
0001
0000
,
1000
0000
0001
0000
,
1000
0000
0001
0001
,
1000
0000
0100
0000
,
1000
0010
1000
0000
,
0001
0000
1000
0000
,
0010
0100
0100
0000
,
0001
0000
0100
0000
,
0010
1000
0010
0000
,
1000
1000
0001
0100
,
0001
1000
0010
0000
,
0010
1000
0001
1001
,
0010
0001
1000
1100
,
0001
0100
0010
1010
,
1000
0100
0010
0011
,
1000
0100
1000
0101
,
1000
0100
0010
0011
,
0100
0010
0001
1001
,
0001
1000
0100
1000
0001
0000
1000
0000
,
0100
0010
0001
0000
0100
0000
0010
0000
,
1000
0001
0100
0000
0010
0000
0000
0000
,
1000
0001
0010
0000
0001
0000
0100
0010
,
1000
0010
1010
0000
,
0001
1000
0100
0000
1000
0000
0001
0000
,
1000
0010
1000
0000
0001
0000
1010
0000
,
1000
0001
0100
0000
0010
0000
0100
0001
,
1000
0001
1000
0000
0001
0000
0001
0000
,
1000
1000
0001
0000
1000
1000
0001
0000
,
0100
0001
0100
0000
,
0001
0001
0000
0000
0001
0001
0000
0000
,
1000
0010
1001
0000
,
1000
0010
1000
0000
1000
0000
1000
0000
,
1000
0010
1000
0000
0001
0000
0000
0000
,
0001
0100
0010
1000
,
1000
1000
0010
0100
,
0001
0000
1000
0000
,
0010
0000
0100
0000
,
0001
0000
1000
0000
,
0010
0100
0001
1000
,
1001
0000
0000
0000
;

//--------------- dance-single - K. Ward ----------------
#NOTES:
     dance-single:
     K. Ward:
     Hard:
     9:
     0.426263,0.489614,0.436861,0.107155,0.107155,362,309,53,13,0,0,0.426263,0.489614,0.436861,0.107155,0.107155,362,309,53,13,0,0:
0000
0000
0000
0000
,
0000
0000
0000
0000
,
0000
0000
0000
0000
,
0000
0000
0000
0000
,
0010
0001
0100
0001
,
1000
0001
0100
0000
0001
0000
0010
0000
,
0001
1000
0010
0000
1000
0000
0100
0000
,
0010
0001
0100
0000
0001
0000
1000
0000
,
0010
0100
0001
0010
,
0100
1000
0010
0000
1000
0000
0100
0000
,
0010
0001
0100
0000
0001
0000
0100
0000
,
0010
1000
0100
0000
1000
0000
0001
0000
,
0000
0000
1100
0000
0000
0100
0000
0000
0010
0000
0000
0100
0000
0000
0010
0000
,
0000
0000
0101
0000
0000
0010
0000
0000
0100
0000
0000
0010
0000
0000
0100
0000
,
0000
0000
1010
0000
0000
0001
0000
0000
1000
0000
0000
0001
0000
0000
1000
0000
,
0000
0000
0011
0000
0000
1000
0000
0000
0200
0000
0000
0000
1300
0000
0000
0000
,
0000
0000
0011
0000
0000
0100
0000
0000
0010
0000
0000
0100
0000
0000
0010
0000
,
0000
0000
0011
0000
0000
0001
0000
0000
1000
0000
0000
0001
0000
0000
1000
0000
,
0000
0000
1010
0000
0000
0001
0000
0000
0100
0000
0000
0001
0000
0000
0100
0000
,
0010
1000
0010
1000
0020
0000
1030
0000
,
0001
0000
0100
0001
0010
0000
0001
1000
,
0100
1000
0001
1000
0200
0000
0300
0000
,
1100
1100
1001
1001
,
0110
0000
0011
0000
2200
0000
0000
3300
,
0100
0000
1000
0001
0010
0000
0001
0000
,
1000
0001
0100
0010
2000
0000
3000
0000
,
1001
1001
0101
0101
,
1001
0010
1001
0000
1000
0000
1000
0000
,
0001
1000
0001
1000
,
0001
0000
1000
0000
0001
1000
0001
0000
,
0100
0001
0010
0001
,
0100
0001
0010
0000
0001
0000
1000
0000
,
0010
1000
0010
0000
1000
0000
0100
0000
,
0010
0001
0100
0000
0002
0000
1003
0000
,
0001
0100
0010
1000
,
0100
1000
0001
0000
0100
0000
0001
0000
,
0100
0001
0010
0000
0001
0000
1000
0000
,
0010
1000
0100
1000
0001
0000
0010
0000
,
0000
0000
0101
0000
0000
0010
0000
0000
0001
0000
0000
0010
0000
0000
0001
0000
,
0000
0000
1010
0000
0000
0001
0000
0000
1000
0000
0000
0001
0000
0000
1000
0000
,
0000
0000
0011
0000
0000
1000
0000
0000
0010
0000
0000
1000
0000
0000
0010
0000
,
0000
0000
0101
0000
0000
1000
0000
0000
0200
0000
0000
0000
1300
0000
0000
0000
,
0000
0000
1001
0000
0000
0100
0000
0000
0010
0000
0000
0100
0000
0000
0010
0000
,
0000
0000
1010
0000
0000
0001
0000
0000
0100
0000
0000
0001
0000
0000
0100
0000
,
0000
0000
1100
0000
0000
0001
0000
0000
0100
0000
0000
0001
0000
0000
0100
0000
,
1000
0010
1000
0010
2000
0000
3010
0000
,
0100
0000
0010
1000
0100
0000
1000
0001
,
0100
0001
0100
0010
1000
0000
0001
0000
,
1001
1001
1010
1010
,
1001
0100
1001
0000
0022
0000
0033
0000
,
0100
0000
0001
1000
0010
0000
0001
0100
,
0001
1000
0001
0010
0002
0000
1003
0000
,
1010
1010
1001
1001
,
1100
0100
0101
0000
1010
0000
1000
0000
,
1000
0001
1000
0001
0100
0010
1000
0100
,
1000
0001
1000
0010
1000
0001
0010
0000
,
0101
0101
1001
1001
,
1000
0000
0100
0001
2000
0000
3001
0000
,
0100
0001
1000
0010
0100
0001
1000
0010
,
1000
0100
0010
0100
1000
0010
1000
0000
,
1001
1001
1100
1100
,
1001
0010
1001
0000
0101
0000
0001
0000
,
1000
0001
1000
0001
,
0100
0010
0100
0010
,
1000
0100
1000
0001
,
1000
1000
0000
0000
0001
0001
0000
0000
,
0110
0000
0000
0000
;

//--------------- dance-double - M. Emirzian ----------------
#NOTES:
     dance-double:
     M. Emirzian:
     Easy:
     2:
     0.154256,0.244807,0.098912,0.065941,0,131,119,12,8,0,0,0.154256,0.244807,0.098912,0.065941,0,131,119,12,8,0,0:
00000000
00000000
00000000
00000000
,
00000000
00000000
00000000
00000000
,
00000000
00000000
00000000
00000000
,
00000000
00000000
00000000
00000000
,
10000000
00000000
01000000
00000000
,
00010000
00000000
00001000
00000000
,
00000010
00000000
00000001
00000000
,
00000100
00001000
00001000
00000000
,
00010000
00000000
00100000
00000000
,
10000000
00000000
01000000
00000000
,
00010000
00000000
00001000
00000000
,
00000010
00000001
00000001
00000000
,
00001000
00000000
00001000
00000000
,
00010000
00000000
00010000
00000000
,
10000000
00000000
10000000
00000000
,
00001000
00000000
00001000
00000000
,
00010000
00000000
00001000
00000000
,
00000001
00000000
00010000
00000000
,
00001000
00000000
00010000
00000000
,
10000000
00010000
00010000
01000000
,
01000000
00000000
00100000
00000000
,
10010000
00000000
00011000
00000000
,
00002002
00003003
00000010
00000000
,
00000100
00010000
00001000
00000000
,
00010000
00000000
00100000
00000000
,
10010000
00000000
00011000
00000000
,
00002002
00003003
00000010
00000000
,
00000001
00000100
00001000
00000000
,
00010000
00000000
00000000
00000000
,
10000000
00000000
00000000
00000000
,
00001000
00000000
00000000
00000000
,
00000001
00000000
00000000
00000000
,
00001000
00000000
00000000
00000000
,
10000000
00000000
00000000
00000000
,
00001000
00000000
00000000
00000000
,
00010000
00000000
00000000
00000000
,
00000001
00000000
00000000
00000000
,
00010000
00000000
00001000
00000000
,
10000000
00000000
00000000
01000000
,
01000000
00000000
00000000
00001000
,
00001000
00000000
00000000
00000001
,
00000001
00000000
00000000
00001000
,
00001000
00000000
00000000
00010000
,
00010000
00000000
00000000
10000000
,
10000000
00000000
00000000
00000000
,
01000000
00000000
01000000
01000000
,
00010000
00000000
00001000
00000000
,
00000010
00000000
00001001
00000000
,
00011000
00000000
20020000
30030000
,
10000000
01000000
00010000
00000000
,
00001000
00000000
00000010
00000000
,
00000100
00000000
00000001
00000000
,
00001000
00000000
00010000
00000000
,
10000000
00000000
01000000
00000000
,
01000000
00000000
00010000
00000000
,
00001000
00000000
00001001
00000000
,
00011000
00000000
20020000
30030000
,
01000000
00000000
01000000
00000000
,
00010000
00000000
00001000
00000000
,
00000001
00000000
00000100
00000000
,
00001000
00000000
00010000
00000000
,
01000000
00000000
10000000
00000000
,
00100000
00000000
00000000
00000000
,
00000100
00000000
00000000
00000000
,
00000001
00000000
00000000
00000000
,
01000000
00000000
00000000
00000000
,
10000000
00000000
00000000
00000000
;

//--------------- dance-double - M. Emirzian ----------------
#NOTES:
     dance-double:
     M. Emirzian:
     Medium:
     5:
     0.335594,0.35361,0.239037,0.032971,0,285,256,29,4,0,0,0.335594,0.35361,0.239037,0.032971,0,285,256,29,4,0,0:
00000000
00000000
00000000
00000000
,
00000000
00000000
00000000
00000000
,
00000000
00000000
00000000
00000000
,
00000000
00000000
00000000
00000000
,
00010000
00000000
00001000
00000000
,
00010000
00000100
00001000
00000000
,
00000010
00000100
00000001
00000010
,
00000100
00010000
00001000
00000000
00011000
00000000
00000000
00000000
,
00010000
00000000
00001000
00000000
,
01000000
00010000
00100000
00000000
,
01000000
10000000
00010000
00100000
,
00001000
00010000
00000100
00000000
00001100
00000000
00000000
00000000
,
00000010
00000001
00000100
00001001
,
00000010
00010000
00001000
01001000
,
00010000
01000000
00100000
10100000
,
10000000
01000000
00100000
00110000
,
00001000
01000000
00001000
00010100
,
00001000
00000100
00000010
00000011
,
00000100
00000010
00010000
00011000
,
00010000
00001000
01000000
00001000
00010000
00000000
00001000
00000000
,
01000000
00100000
10000000
00000000
01000000
00000000
00100000
00000000
,
00010000
10000000
01000000
00000000
00100000
00000000
00110000
00000000
,
00001000
00010000
00000010
00000000
00001000
00000000
00000100
00000010
,
00000001
00000100
00001010
00000100
,
00010000
00001000
01000000
00000000
00100000
00000000
10000000
00000000
,
01000000
00100000
00010000
00000000
01000000
00000000
10100000
00000000
,
10000000
00010000
01000000
00000000
00100000
00000000
01000000
00001000
,
00010000
00001000
00010010
00001000
,
00000200
00000300
00000020
00000030
,
00000002
00000003
00000200
00000310
,
00001000
00000000
00000100
00000000
,
00000100
00000000
00010000
00000000
,
00010000
00000000
00001000
00000000
,
00001000
00000000
01000000
00000000
,
00100000
10000000
01000000
00000000
,
10000000
01000000
00100000
01000000
,
10000000
00000000
10000000
01000000
,
00010000
00001000
00000010
00000001
,
00000100
00000010
00001000
00000110
,
00001000
00010000
00001000
00101000
,
00010000
01000000
00100000
10100000
,
01000000
00100000
00001000
00011000
,
00010000
00000100
00001000
00001010
,
00000100
00000010
00000001
00000101
,
00000010
00010000
00001000
00011000
,
00010000
00001000
01000000
00001000
00010000
00000000
00001000
00000000
,
01000000
00010000
10000000
00000000
00100000
00000000
10000000
00000000
,
01000000
00100000
00010000
00000000
01000000
00000000
01001000
00000000
,
00010000
00100000
00001000
00000000
00010000
00000000
00000100
00001000
,
00000001
00000010
00001100
00000010
,
00000001
00000100
00000010
00000000
00001000
00000000
00000100
00000000
,
00010000
00001000
01000000
00000000
00100000
00000000
10100000
00000000
,
10000000
00010000
01000000
00000000
00100000
00000000
01000000
00001000
,
00010000
00001000
00010100
00001000
,
00000100
00000010
00000001
00000000
00000100
00000000
00000010
00000000
,
00001000
00000100
00010000
00000000
00001000
00000000
00101000
00000000
,
00010000
00100000
01000000
00000000
00100000
00000000
01000000
00010000
,
10000000
00100000
01010000
00100000
,
00001000
00010000
00000100
00000000
00001000
00000000
00000010
00000000
,
00000100
00000001
00001000
00000000
00000010
00000000
00001100
00000000
,
00010000
00001000
01000000
00000000
00010000
00000000
01000000
00100000
,
10000000
01000000
00110000
01000000
,
00100000
00001000
00010000
00000100
,
00000000
00000010
00000001
00000100
,
00000010
00000000
00010000
00000000
,
00001000
00000000
01000000
00000000
00010000
01000000
00100000
00000000
,
10100000
00000000
00000000
00000000
;

//--------------- dance-double - M. Emirzian ----------------
#NOTES:
     dance-double:
     M. Emirzian:
     Hard:
     7:
     0.436861,0.516815,0.52753,0.065941,0.057699,371,307,64,8,0,0,0.436861,0.516815,0.52753,0.065941,0.057699,371,307,64,8,0,0:
00000000
00000000
00000000
00000000
,
00000000
00000000
00000000
00000000
,
00000000
00000000
00000000
00000000
,
00000000
00000000
00000000
00000000
,
00100000
00010000
01000000
00010000
,
00100000
00010000
01000000
00000000
00010000
00000000
00100000
00000000
,
01000000
10000000
00100000
00000000
10000000
00000000
01000000
00000000
,
00100000
00010000
01000000
00000000
00001000
00000000
00010000
00000000
,
00000010
00000100
00000001
00000010
,
00000100
00001000
00000010
00000000
00001000
00000000
00000100
00000000
,
00000010
00000001
00000100
00000000
00000001
00000000
00000100
00000000
,
00000010
00001000
00000100
00000000
00010000
00000000
00001000
00000000
,
00000000
00000000
01001000
00000000
00000000
00000000
00000000
00000000
01000000
00000000
00000000
00100000
00000000
00000000
01000000
00000000
,
00000000
00000000
01010000
00000000
00000000
00000000
00000000
00000000
00100000
00000000
00000000
01000000
00000000
00000000
00100000
00000000
,
00000000
00000000
00101000
00000000
00000000
00000000
00000000
00000000
00010000
00000000
00000000
00001000
00000000
00000000
00010000
00000000
,
00000000
00000000
00010010
00000000
00000000
00000000
00000000
00000000
00001000
00000000
00000000
00000100
00000000
00000000
00001000
00000000
,
00000000
00000000
00000011
00000000
00000000
00000000
00000000
00000000
00000100
00000000
00000000
00000010
00000000
00000000
00000100
00000000
,
00000000
00000000
00010010
00000000
00000000
00000000
00000000
00000000
00010000
00000000
00000000
00001000
00000000
00000000
00010000
00000000
,
00000000
00000000
00101000
00000000
00000000
00000000
00000000
00000000
10000000
00000000
00000000
00010000
00000000
00000000
10000000
00000000
,
00100000
10000000
00100000
10000000
00100000
01000000
00001000
00010000
,
00000010
00000000
00000100
00000001
00000010
00000000
00000001
00001000
,
00000100
00001000
00000001
00001000
00000100
00010000
00001000
00000000
,
01001000
00110000
10010000
10010000
,
01100000
10010000
00110000
00000000
11000000
00000000
00100000
00000000
,
01000000
00000000
00001000
00010000
00000010
00000000
00010000
00000100
,
00010000
00001000
00010000
00000010
00001000
00000100
00000010
00000000
,
00001001
00001010
00010100
00010100
,
00011000
00101000
00011000
00000000
01001000
00000000
01000000
00000000
,
00200000
20300000
32000000
23000000
,
30200000
20300000
32000000
03200000
,
00310000
00101000
00100000
00010000
,
01000000
00010000
00100000
00000000
00001000
00000000
00010000
00000000
,
00000100
00001000
00000010
00000000
00001000
00000000
00000100
00000000
,
00000010
00000001
00000100
00000000
00000001
00000000
00000010
00000000
,
00000001
00000100
00000010
00001000
,
00000100
00010000
00001000
00000000
01000000
00000000
00010000
00000000
,
01000000
00010000
00100000
00000000
01000000
00000000
10000000
00000000
,
00100000
10000000
01000000
00000000
10000000
00000000
00100000
00000000
,
00000000
00000000
01010000
00000000
00000000
00000000
00000000
00000000
00100000
00000000
00000000
00010000
00000000
00000000
00100000
00000000
,
00000000
00000000
00101000
00000000
00000000
00000000
00000000
00000000
00010000
00000000
00000000
00001000
00000000
00000000
00010000
00000000
,
00000000
00000000
00010010
00000000
00000000
00000000
00000000
00000000
00001000
00000000
00000000
00000010
00000000
00000000
00001000
00000000
,
00000000
00000000
00000101
00000000
00000000
00000000
00000000
00000000
00000100
00000000
00000000
00001000
00000000
00000000
00000100
00000000
,
00000000
00000000
00011000
00000000
00000000
00000000
00000000
00000000
01000000
00000000
00000000
00100000
00000000
00000000
01000000
00000000
,
00000000
00000000
10100000
00000000
00000000
00000000
00000000
00000000
01000000
00000000
00000000
00010000
00000000
00000000
01000000
00000000
,
00000000
00000000
01001000
00000000
00000000
00000000
00000000
00000000
00000100
00000000
00000000
00010000
00000000
00000000
00000100
00000000
,
00001000
00000010
00001000
00000010
00001000
00000100
00000010
00000001
,
00000100
00000000
00000010
00001000
00000100
00000000
00010000
00001000
,
01000000
00001000
00010000
00001000
00100000
00010000
01000000
00000000
,
10010000
01010000
00101000
00101000
,
00011000
00010100
00011000
00000000
00010010
00000000
00000010
00000000
,
00000100
00000000
00000001
00001000
00000010
00000000
00010000
00000100
,
00010000
00001000
00010000
00000010
00010000
00001000
01000000
00000000
,
00101000
00101000
01010000
10010000
,
11000000
10010000
01010000
00000000
10100000
00000000
10000000
00000000
,
01000000
00000000
00100000
00001000
00010000
00000000
00001000
01000000
,
00001000
00010000
00001000
00100000
00001000
00010000
00000010
00000000
,
00010100
00001010
00001001
00001001
,
00001010
00001001
00000101
00000000
00001010
00000000
00001000
00000000
,
00000010
00000000
00010000
00001000
01000000
00000000
00100000
01000000
,
00001000
01000000
00100000
01000000
00010000
00100000
01000000
00000000
,
10010000
00110000
01001000
01001000
,
00011000
00010010
00011000
00000000
00010100
00000000
00010000
00000000
,
00000100
00000010
00000001
00000100
,
00000001
00000000
00000010
00000000
00000100
00001000
00000010
00000000
,
00001000
00000100
00010000
00001000
,
01000000
00000000
00010000
00000000
01000000
00010000
00100000
00000000
,
11000000
00000000
00000000
00000000
;

//--------------- lights-cabinet - ----------------
#NOTES:
     lights-cabinet:
     :
     Easy:
     1:
     0.536951,0.788823,0.733597,0.098912,0.107155,456,352,89,12,0,13,0.536951,0.788823,0.733597,0.098912,0.107155,456,352,89,12,0,13:
000000
000000
000000
000000
,
000000
000000
000000
000000
,
110000
001100
000000
000000
110000
001100
000000
000000
,
001100
110000
000000
000000
001100
110000
000000
000000
,
001000
000100
010000
000100
,
100000
000100
010000
000000
000100
000000
001000
000000
,
000100
100000
001000
000000
100000
000000
010000
000000
,
001000
000100
010000
000000
000100
000000
100000
000000
,
001000
010000
000100
001000
,
010000
100000
001000
000000
100000
000000
010000
000000
,
001000
000100
010000
000000
000100
000000
010000
000000
,
001000
100000
010000
000000
100000
000000
000100
000000
,
000000
000000
110000
000000
000000
010000
000000
000000
001000
000000
000000
010000
000000
000000
001000
000000
,
000000
000000
010100
000000
000000
001000
000000
000000
010000
000000
000000
001000
000000
000000
010000
000000
,
000000
000000
101000
000000
000000
000100
000000
000000
100000
000000
000000
000100
000000
000000
100000
000000
,
000000
000000
001100
000000
000000
100000
000000
000000
020000
000000
000000
000000
130000
000000
000000
000000
,
000000
000000
001100
000000
000000
010000
000000
000000
001000
000000
000000
010000
000000
000000
001000
000000
,
000000
000000
001100
000000
000000
000100
000000
000000
100000
000000
000000
000100
000000
000000
100000
000000
,
000000
000000
101000
000000
000000
000100
000000
000000
010000
000000
000000
000100
000000
000000
010000
000000
,
001000
100000
001000
100000
002000
000000
103000
000000
,
000100
000000
010000
000100
001000
000000
000100
100000
,
010000
100000
000100
100000
020000
000000
031000
000000
,
110000
011000
100100
100100
,
011000
001100
110000
000000
220000
000000
001100
330000
,
010000
000000
100000
000100
001000
000000
000100
000000
,
100000
000100
010000
001000
200000
000000
300100
000000
,
100100
100100
010100
010100
,
100100
001000
100100
000000
100000
000000
100000
000000
,
000100
100000
000100
100000
,
000100
000000
100000
000000
000100
100000
000100
000000
,
010000
000100
001000
000100
,
010000
000100
001000
000000
000100
000000
110000
000000
,
001000
100000
001000
000000
100000
000000
010000
000000
,
001000
000100
010000
000000
000200
000000
110300
000000
,
000100
010000
001000
100000
,
010000
100000
000100
000000
010000
000000
000100
000000
,
010000
000100
001000
000000
000100
100000
010000
000000
,
001000
100000
010000
100000
000100
000000
001000
000000
,
000000
000000
010100
000000
000000
001000
000000
000000
000100
000000
000000
001000
000000
000000
111100
000000
,
000000
000000
101000
000000
000000
000100
000000
000000
100000
000000
000000
000100
000000
000000
111100
000000
,
000000
000000
001100
000000
000000
100000
000000
000000
001000
000000
000000
100000
000000
000000
001000
000000
,
000000
000000
010100
000000
000000
100000
000000
000000
020000
000000
000000
000000
130100
000000
000000
000000
,
000000
000000
100100
000000
000000
010000
000000
000000
001000
000000
000000
010000
000000
000000
001000
000000
,
000000
000000
101000
000000
000000
000100
000000
000000
010000
000000
000000
000100
000000
000000
010000
000000
,
000000
000000
110000
000000
000000
000100
000000
000000
010000
000000
000000
000100
000000
000000
010000
000000
,
100000
001000
100000
001000
200000
000000
301000
000000
,
100000
000100
010000
101000
010000
001000
100000
000100
,
110000
001100
010000
101000
101000
010000
001100
010000
,
101100
000000
110100
001000
101100
010000
101100
000000
,
100100
010000
100100
000000
002200
000000
003300
000000
,
110000
001000
010100
101000
101000
000100
010100
001000
,
010100
101000
000100
101000
000200
010000
100300
000000
,
101100
010000
100100
010000
101000
000000
110000
000100
,
110000
001000
010100
000000
101000
010000
100000
000100
,
100000
001000
100000
000100
010000
001000
100000
010000
,
100000
000100
100000
000100
011000
000000
111100
000000
,
010100
001000
010100
001000
100100
010000
100100
001000
,
100000
000100
010000
000100
011000
000000
111100
000000
,
100000
000100
100000
001000
010000
000100
100000
001000
,
100000
010000
001000
010000
100000
001000
100000
000000
,
100100
001000
100100
000000
110000
000100
110000
000000
,
100100
001000
100100
000000
010100
000000
000100
000000
,
100000
001000
000100
010000
100000
001000
000100
100000
,
010000
000100
001000
100000
010000
000000
001000
000000
,
111100
000100
010000
000000
100000
001000
000100
000000
,
100000
100000
000000
010000
000100
001100
000000
100100
,
011000
000000
000000
000000
;
