#TITLE:Normal;
#SUBTITLE:;
#ARTIST:Anet;
#TITLETRANSLIT:;
#SUBTITLETRANSLIT:;
#ARTISTTRANSLIT:;
#GENRE:;
#CREDIT:;
#MUSIC:Anet - Normal.ogg;
#BANNER:normal.png;
#BACKGROUND:Normal-bg.png;
#CDTITLE:;
#SAMPLESTART:42.500;
#SAMPLELENGTH:13.780;
#SELECTABLE:YES;
#OFFSET:-0.027;
#BPMS:0.000=140.960;
#STOPS:;
#BGCHANGES:;
#FGCHANGES:;

//--------------- dance-single - M. Puls ----------------
#NOTES:
     dance-single:
     M. Puls:
     Beginner:
     1:
     0.069044,0.115411,0,0,0,58,58,0,0,0,0,0.069044,0.115411,0,0,0,58,58,0,0,0,0:
0000
0000
0000
0000
,
0000
0000
0000
0000
,
0000
0000
0000
0000
,
0000
0000
0000
0000
,
0100
0000
0000
0000
,
0000
0000
0000
0000
,
0100
0000
0000
0000
,
0010
0000
0000
0000
,
0010
0000
0000
0000
,
0001
0000
0000
0000
,
0000
0000
0000
0000
,
1000
0000
0000
0000
,
0001
0000
0000
0000
,
0010
0000
0000
0000
,
0100
0000
0000
0000
,
1000
0000
0000
0000
,
1000
0000
0000
0000
,
0100
0000
0000
0000
,
0010
0000
0000
0000
,
0001
0000
0000
0000
,
0000
0000
0000
0000
,
1000
0000
0000
0000
,
0001
0000
0000
0000
,
0100
0000
0000
0000
,
0000
0000
0000
0000
,
0001
0000
0000
0000
,
1000
0000
0000
0000
,
0010
0000
0000
0000
,
0000
0000
0000
0000
,
0100
0000
0000
0000
,
0010
0000
0000
0000
,
0100
0000
0000
0000
,
0000
0000
0000
0000
,
1000
0000
0000
0000
,
0001
0000
0000
0000
,
1000
0000
0000
0000
,
0100
0000
0000
0000
,
0100
0000
0000
0000
,
0100
0000
0000
0000
,
0100
0000
0000
0000
,
0000
0000
0000
0000
,
0000
0000
0000
0000
,
0000
1000
0000
0000
,
0000
0100
0000
0000
,
0000
1000
0000
0000
,
0000
0001
0000
0000
,
0000
0010
0000
0000
,
0000
0001
0000
0000
,
0000
0000
0000
0000
,
0000
0001
0000
0000
,
0000
1000
0000
1000
,
0000
1000
0000
0000
,
0000
1000
0000
0000
,
0000
0001
0000
0001
,
0000
0001
0000
0000
,
0000
0000
0000
0000
,
0000
0100
0000
0000
,
0000
0010
0000
0000
,
0000
0100
0000
0000
,
0000
0010
0000
0000
,
0000
1000
0000
0000
,
0000
0001
0000
0000
,
0000
1000
0000
0000
,
0000
0001
0000
0000
,
0000
1000
0000
0000
,
0000
1000
0000
0000
,
0000
0010
0000
0000
,
0000
0100
0000
0000
,
0000
0001
0000
0000
,
0000
1000
0000
0000
;

//--------------- dance-single - R. McKanna ----------------
#NOTES:
     dance-single:
     R. McKanna:
     Easy:
     4:
     0.207133,0.320817,0.091662,0.099995,0,174,163,11,12,0,0,0.207133,0.320817,0.091662,0.099995,0,174,163,11,12,0,0:
0000
0000
0000
0000
,
0000
0000
0000
0000
,
0000
0000
0000
0000
,
0000
0000
0000
0000
,
0000
0000
0000
0000
,
0000
0000
0000
0000
,
1000
0000
1000
0000
,
0001
0000
0001
0000
,
0100
0000
0100
0000
,
0010
1000
0100
1000
,
0001
0000
0100
0000
,
0010
0010
0010
0000
,
1000
0000
0100
0000
,
0010
0010
0010
0000
,
0001
0100
0010
0010
,
1001
0100
0100
0100
,
0000
1001
0000
0000
1001
0000
0000
0000
,
2000
0000
0100
0000
,
0001
0001
0001
3000
,
0002
0000
0100
0000
,
1000
0000
1000
0000
1000
0000
0000
0003
,
1000
0000
0100
0000
,
0001
0000
0100
0000
,
1000
0001
0100
1000
,
0200
0000
0000
0300
,
1000
0100
1000
0000
,
0010
0100
0010
0000
,
0001
0010
0001
0000
,
1001
0000
1001
0000
,
1000
0010
0100
0100
,
0010
1000
0001
0001
,
2002
0000
0000
0000
,
0000
0000
0000
0000
,
3003
1001
0100
0000
,
0001
0000
0100
0000
,
1000
0000
0100
0000
,
0001
0100
1000
0100
,
1000
1001
0000
0001
,
0000
0100
0000
0010
,
0010
0010
0000
1000
,
0000
0100
0000
0010
,
0010
0010
0000
0001
,
0000
0100
0000
0001
,
1000
0010
0010
0100
,
0100
1001
0000
0000
,
0000
0010
0010
0100
,
0100
0000
1001
0000
0000
1000
0000
0000
,
0000
0000
0100
0000
0000
0100
0000
0000
,
0000
0000
0010
0000
0000
0010
0000
0000
,
0000
0000
0001
0000
0000
0001
0000
0000
,
0000
2000
0000
0010
,
0000
0100
0100
0100
,
3000
0002
0000
0010
,
0000
0100
0100
0100
,
0003
1000
0000
0100
,
0000
0010
0000
0001
,
0000
1000
0100
0010
,
0001
1000
0010
0100
,
0001
0020
0000
0100
,
0000
0001
0001
0100
,
0030
0200
0000
0010
,
0000
1000
1000
0010
,
0300
0001
0000
0100
,
0000
1000
0000
1001
,
0000
1000
0100
1000
,
0010
2000
0000
0000
,
3000
0001
0010
0001
,
0100
0002
0000
0000
,
0003
1000
0100
0010
,
0001
2000
0000
0000
,
3000
0000
0000
0000
;

//--------------- dance-single - R. McKanna ----------------
#NOTES:
     dance-single:
     R. McKanna:
     Medium:
     8:
     0.304747,0.408313,0.083329,0.191657,0,256,246,10,23,0,0,0.304747,0.408313,0.083329,0.191657,0,256,246,10,23,0,0:
0000
0000
0000
0000
,
0000
0000
0000
0000
,
0000
0000
0000
0000
,
0000
0000
0000
0000
,
0000
0000
0000
0000
,
0000
0000
0000
0000
,
1000
0000
0000
0010
0000
0000
0100
0000
,
0001
0000
0000
0010
0000
0000
0100
0000
,
1000
0000
0000
0010
0000
0000
0000
0000
,
1001
0110
1010
0101
,
1001
0000
0000
0000
1000
1000
1000
0001
,
0000
0000
0100
0000
0001
0001
0001
1000
,
0000
0000
0100
0000
1000
1000
1000
0001
,
0000
0000
0100
0000
0001
0001
0001
0000
,
0010
0010
0100
0001
,
1001
0010
1000
0010
,
0000
0100
0000
0010
0100
0000
0010
0000
,
0200
0000
0000
0301
0000
0001
0100
0001
,
0000
0001
0000
0100
0000
0000
0100
0000
,
1000
0010
0100
0000
0001
0000
0001
0010
,
0000
0100
0000
1000
0000
0000
0000
0000
,
2000
0000
0000
3002
0000
0000
0000
0000
,
0203
0000
0000
0302
0000
0000
0003
0000
,
1000
0100
1000
0001
1000
0100
1000
0001
,
2000
0000
0000
0000
0000
3000
0000
0000
,
1000
0000
0000
1001
0000
0000
0010
0000
,
0010
0000
0000
1001
0000
0000
0001
0000
,
1000
0010
0100
0100
,
1001
0000
0001
0001
0000
1000
1000
0000
,
0001
0000
0000
1000
0000
1000
0000
0000
,
1000
0001
0100
0100
,
2000
0000
0010
0000
,
0002
0000
0000
0000
,
3003
0000
0001
0000
1000
0100
0000
0000
,
0000
0100
0010
0000
0010
0001
0000
0000
,
0000
0001
0100
0000
0100
0010
0000
0000
,
0000
0010
1000
0000
0100
0000
0010
0000
,
0001
0000
1000
0000
0000
0000
0100
0100
,
0100
1000
0000
0000
0100
0000
0100
0100
,
0100
0010
0000
0000
0001
0000
0010
0010
,
0010
0100
0000
0000
0001
0000
0100
0100
,
0100
0001
0000
0000
0001
0000
0010
0010
,
0010
0100
0000
0000
0001
0000
0100
0100
,
0100
0010
1000
0100
,
0002
0000
0000
0000
,
0003
1000
0010
0001
,
0100
0000
2000
0000
0000
3100
0000
0000
,
0100
0000
0002
0000
0000
0103
0000
0000
,
0100
0000
2000
0000
0000
3010
0000
0000
,
0010
0000
0002
0000
0000
0013
0000
0000
,
1001
0000
0200
0000
0000
0301
0000
0001
,
0100
0001
0000
0001
0000
0100
0000
0000
,
0100
0000
0001
0010
0100
0000
1000
0000
,
1000
0100
0000
0010
0000
0001
0000
0000
,
0000
0000
2000
0000
0000
3020
0000
0000
,
0000
0000
2030
0000
0000
3020
0000
0000
,
0030
0000
0100
0001
0100
0010
0100
0001
,
0100
0010
2000
0000
0000
0000
0000
0000
,
3000
0000
0020
0000
0000
0130
0000
0001
,
1000
0001
0000
1000
0000
0001
0000
0000
,
0100
0000
1000
0010
0100
0000
0001
0000
,
0001
0100
0000
0010
0000
1000
0000
0000
,
0000
0000
1000
0001
1000
0100
0010
0100
,
0000
1000
0000
0000
0100
0010
0000
0001
,
0000
0000
0001
0100
0001
1000
0001
0100
,
0001
1000
0002
0000
0000
0000
0000
0000
,
0003
0000
1000
0100
1000
0001
1000
0100
,
1000
0001
2000
0000
0000
0000
0000
3000
,
0000
0000
0010
0100
0001
0010
0100
1000
,
0010
0100
0002
0000
0000
0000
1000
0000
,
1003
0000
0000
0000
;

//--------------- dance-single - R. McKanna ----------------
#NOTES:
     dance-single:
     R. McKanna:
     Hard:
     10:
     0.395218,0.466643,0.283319,0.174991,0,332,298,34,21,0,0,0.395218,0.466643,0.283319,0.174991,0,332,298,34,21,0,0:
0000
0000
0000
0000
,
0000
0000
0000
0000
,
0000
0000
0000
0000
,
0000
0000
0000
0000
,
0000
0000
0000
0000
,
0000
0000
0000
0000
,
1000
0001
0100
0010
0000
0010
0100
0000
,
0001
1000
0100
0010
0000
0010
0100
0000
,
1000
0001
0100
0010
0000
0010
0100
0000
,
1001
0100
0010
0100
,
1001
0000
0000
0000
1000
0100
1000
0020
,
0000
0130
0000
0000
0001
0100
0001
2000
,
0000
0000
3000
0000
0100
0001
0010
0200
,
0000
1300
0000
0000
0001
1000
0010
0000
,
1000
0100
1000
0010
0100
0000
0001
0000
,
0100
0000
0010
0000
1000
0100
0100
1000
,
0000
1001
0000
0100
0010
0000
1001
0000
,
1000
0100
1000
0100
0000
0001
0100
0001
,
0000
0100
0000
1001
0000
0000
0001
0000
,
0001
0010
0001
0010
1000
0010
1000
0010
,
0000
0001
0000
0100
0000
0000
0100
0000
,
1000
0000
1000
0001
0000
0001
0000
0000
,
0100
0000
0100
0001
0000
0001
0000
0000
,
1001
0110
1010
0110
,
0202
0000
0000
0303
,
1000
0100
0010
0001
0000
0001
0010
0000
,
0010
0100
1000
0010
0000
0100
0001
0000
,
1000
0100
0010
0000
0100
0000
0001
0000
,
0010
0001
0100
0010
0000
1000
1000
0000
,
0001
0010
0001
1000
0000
1000
0000
0000
,
1000
0001
0010
0000
0100
0000
0100
0000
,
2000
0000
3002
0000
,
0200
0000
0000
0000
,
0303
0000
0001
0000
1000
0100
0000
0100
,
0000
0100
1000
0000
0001
0100
0000
0100
,
0000
0100
0001
0000
1000
0100
0000
0100
,
0000
0100
1000
0000
0100
0000
0010
0000
,
0001
0000
1001
0000
0000
0000
0001
0100
,
0001
0020
0000
0130
0000
0000
1000
0100
,
1000
0002
0000
0000
0003
0000
0100
1000
,
0010
0200
0000
0301
0000
0000
1000
0001
,
0010
2002
0000
0000
3003
0000
0100
0001
,
0010
0200
0000
0310
0000
0000
0100
1000
,
0010
0000
0100
0001
0010
0001
0200
0000
,
0020
0000
0000
0000
,
0330
0000
0100
0001
0010
0001
0100
0000
,
0010
0000
1001
0000
0100
0010
0000
0010
,
0100
0000
1000
0000
0001
0010
0000
0100
,
1000
0000
1001
0000
0010
0100
0000
0010
,
1000
0000
0001
0100
1000
0100
0000
0100
,
1001
0000
0001
0100
0001
0100
0000
1000
,
0100
1000
0000
0100
0000
1001
0000
0000
,
1000
0000
1000
0010
1000
0010
0001
0010
,
0001
0010
0000
1000
0000
0100
0000
0000
,
0100
0000
0001
0000
0001
1000
0000
1000
,
0000
0000
0100
0000
0100
1000
0000
1000
,
0000
1001
0110
0011
,
0110
2200
0000
0000
,
3300
0000
1000
0010
1000
0010
0000
0001
,
0010
0001
0000
0010
0000
1001
0000
0000
,
0001
0000
0001
0100
0001
0100
1000
0100
,
1000
0100
0000
0001
0000
0010
0000
0000
,
0010
0000
1000
0000
1000
0001
0000
0001
,
0000
0100
0000
0000
0100
0010
0000
0010
,
0000
1001
0110
1010
,
0110
0000
1000
0100
0010
0001
2000
0000
,
3001
0101
1010
0110
,
1001
0000
0001
0010
0100
1000
0002
0000
,
1003
1010
0101
0011
,
1100
0000
1000
0010
0100
0001
2000
0000
,
3100
0000
0000
0000
;

//--------------- dance-double - M. Emirzian ----------------
#NOTES:
     dance-double:
     M. Emirzian:
     Easy:
     1:
     0.095233,0.173741,0.049998,0.108328,0,80,74,6,13,0,0,0.095233,0.173741,0.049998,0.108328,0,80,74,6,13,0,0:
00000000
00000000
00000000
00000000
,
00000000
00000000
00000000
00000000
,
00000000
00000000
00000000
00000000
,
00000000
00000000
00000000
00000000
,
00000000
00000000
00000000
00000000
,
00000000
10010000
10010000
00000000
,
20000000
30000000
00000000
00000000
,
00020000
00030000
00000000
00000000
,
00002000
00003000
00000000
00000000
,
00000002
00000003
00000000
00000000
,
00001000
00000000
00000000
00000000
,
00000100
00000000
00000000
00000000
,
00100000
00000000
00000000
00000000
,
01000000
00000000
00000000
00000000
,
10000000
00000000
00010000
00000000
,
10000000
00000000
00000000
00000000
,
00001000
00000000
00010000
00000000
,
00000010
00000000
00000000
00000000
,
00000100
00000000
00000000
00000000
,
00000001
00000000
00000000
00000000
,
00001000
00000000
00000000
00000000
,
00010000
00000000
00000000
00000000
,
10000000
00000000
00000000
00000000
,
01000000
00000000
00100000
00000000
,
00022000
00000000
00000000
00033000
,
00010000
00000000
00000000
00000000
,
00000100
00000000
00000000
00000000
,
00000010
00000000
00000000
00000000
,
00000001
00000000
00000000
00000000
,
00001000
00000000
00000000
00000000
,
00010000
00000000
00000000
00000000
,
20000000
00000000
00000000
00000000
,
00000000
00000000
30000000
00000000
,
00000000
00001000
00000000
00000000
,
00000000
00010000
00000000
00000000
,
00000000
00001000
00000000
00000000
,
00000000
00000010
00000000
00000000
,
00000000
00000100
00000000
00000000
,
00000000
00100000
00000000
00000000
,
00000000
10000000
00000000
00000000
,
00000000
01000000
00000000
00000000
,
00000000
00001000
00000000
00000000
,
00000000
00000100
00000000
00000000
,
00000000
00000001
00000000
00000010
,
00000000
00000100
00000000
00000000
,
00000000
00010000
00000000
00001000
,
00000000
00010000
00000000
00000000
,
00000000
01000000
00000000
00000000
,
00000000
10000000
00000000
00000000
,
00000000
00010000
00000000
00000000
,
00000000
00001000
00000000
00000000
,
00000000
00000001
00000000
00000000
,
00000000
00000100
00000000
00000000
,
00000000
00100000
00000000
00000000
,
00000000
01000000
00000000
00000000
,
00000000
10000000
00000000
00000000
,
00000000
00010000
00000000
00000000
,
00000000
00001000
00000000
00000100
,
00000000
00000010
00000000
00000000
,
00000000
00000001
00000000
00000000
,
00000000
00001000
00000000
00000000
,
00000000
00010000
00000000
00000000
,
10000000
00000000
00000000
00000000
,
01000000
00000000
00000000
00000000
,
00000000
00001000
00000000
00010000
,
00000000
00022000
00033000
00000000
,
00000000
00000010
00000000
00000100
,
00000000
00000220
00000330
00000000
,
00000000
00100000
00000000
01000000
,
00000000
02200000
03300000
00000000
;

//--------------- dance-double - M. Emirzian ----------------
#NOTES:
     dance-double:
     M. Emirzian:
     Medium:
     6:
     0.459501,0.550181,0.841625,0.066663,0,386,285,101,8,0,0,0.459501,0.550181,0.841625,0.066663,0,386,285,101,8,0,0:
00000000
00000000
00000000
00000000
,
00000000
00000000
00000000
00000000
,
00000000
00000000
00000000
00000000
,
00000000
00000000
00000000
00000000
,
00000000
00000000
00000000
00000000
,
00000000
00000000
10000000
00010000
01000000
00000000
10010000
00000000
,
01000000
00100000
00001000
00010000
,
00000100
00001000
00000010
00000000
00001001
00000000
00001001
00000000
,
00000100
00000010
00010000
00000000
00001000
00000000
01000000
00000000
,
00010000
10000000
01000000
00000000
10010000
00000000
10010000
00000000
,
00100000
01000000
00010000
00000000
01000000
00000000
00001000
00010000
,
00000100
00000000
00001000
00000000
00000010
00000100
00000001
00000000
,
00000001
00000000
00001000
00000000
00000100
00000010
00000100
00000000
,
00001000
00000000
00000001
00000000
00000100
00000010
00010000
00000000
,
00001000
00000000
01000000
00000000
00010000
10000000
01000000
00000000
,
00110000
00110000
00101000
00101000
,
00010000
00000100
00001000
00000000
00001010
00000000
00001010
00000000
,
00000010
00000010
00000010
00000000
00001001
00000000
00000110
00000000
,
00001001
00011000
00101000
00011000
,
01100000
00000000
01000000
01000000
01000000
00000000
10010000
00000000
,
01100000
10010000
01100000
01001000
,
00011000
00010100
00011000
00010100
,
00010010
00000000
00001010
00000000
00000100
00000100
00000100
00000000
,
00001001
00000000
00000110
00000000
00001001
00001001
00001001
00000000
,
00002002
00000000
00000000
00003003
,
00000010
00001000
00000100
00000000
00010000
00001000
00100000
00000000
,
00010000
01000000
00100000
00000000
10000000
01000000
00100000
00000000
,
01010000
00110000
00101000
00011000
,
00010010
00011000
00010010
00001010
,
00001000
00000100
00000010
00000000
00000001
00000100
00000010
00000000
,
00001000
00000100
00010000
00000000
00011000
00000000
00010100
00000000
,
00010000
00000000
00000000
00000000
,
00000000
00000000
00000000
00000000
,
00000000
00000000
00010000
00001000
01000000
00000000
00100000
10000000
,
01000000
00100000
00001000
00011000
,
00010010
00000000
00001000
00000010
00000100
00000000
00000001
00000000
,
00000100
00000010
00001000
00000000
00000100
00000000
00011000
00000000
,
01100000
00000000
01010000
00000000
10000000
00010000
01000000
00000000
,
00100000
00000000
11000000
00000000
10100000
00000000
01000000
00001000
,
00010000
00000000
00001000
00010000
00000100
00000000
00001010
00000000
,
00001100
00000000
00000010
00000001
00000100
00000000
00000010
00000000
,
00001000
00001100
00001100
00010000
00001000
00000000
01001000
00000000
,
01010000
00000000
00100000
10000000
01000000
00000000
00100000
00010000
,
10000000
00000000
01000000
00100000
00001000
00000000
00010000
00000000
,
00000100
00000010
00000001
00000100
,
00000010
00000010
00000010
00000100
,
00000100
00000000
00000010
00000000
00000000
00010000
00000000
00000000
,
00001000
00000000
00010000
00000000
00000000
00001000
00000000
00000000
,
01000000
00000000
00100000
00000000
00000000
10000000
00000000
00000000
,
01000000
00000000
00100000
00000000
00000000
00001000
00000000
00000000
,
00010000
00001100
00001010
00000101
,
00000010
00000010
00000010
00000000
00001001
00000000
00000110
00000000
,
00010010
00000000
00011000
00000000
00101000
00000000
01000000
01000000
,
01000000
10010000
01100000
10010000
,
01100000
01001000
00011000
00010010
,
00011000
00000000
00010000
00010000
00010000
00000000
00001100
00000000
,
00000011
00001100
00000100
00010000
,
00011000
00000000
00101000
00000000
00011000
00000000
00001000
00100000
,
00010000
00000000
01000000
00100000
10000000
00000000
01010000
00000000
,
01010000
00000000
00100000
00001000
00010000
00000000
00011000
00000000
,
00011000
00000000
00010000
00000100
00001000
00000000
00001010
00000000
,
00001010
00000000
00000100
00000001
00000010
00000000
00001001
00000000
,
00000110
00001001
00010100
00011000
,
00101000
00000000
00001000
00001000
00001000
00000000
01000000
01000000
,
01000000
00000000
00100000
10000000
01000000
00000000
00100000
00000000
,
10010000
10010000
20020000
00000000
30030000
00000000
00000000
00000000
,
00000000
00010000
01000000
00001000
,
00011000
00011000
00022000
00000000
00033000
00000000
00000000
00000000
,
00000000
00001000
00010000
00000010
,
00001001
00001001
00002002
00000000
00003003
00000000
00000000
00000000
;

//--------------- dance-double - M. Emirzian ----------------
#NOTES:
     dance-double:
     M. Emirzian:
     Hard:
     8:
     0.622588,0.807876,0.833292,0.041665,0,523,423,100,5,4,0,0.622588,0.807876,0.833292,0.041665,0,523,423,100,5,4,0:
00000000
00000000
00000000
00000000
,
00000000
00000000
00000000
00000000
,
00000000
00000000
00000000
00000000
,
00000000
00000000
00000000
00000000
,
00000000
00000000
00000000
00000000
,
00000000
10010000
00011000
00001001
,
00001000
00000100
00000010
00000100
00001000
00000100
00000010
00000100
,
00001000
00010010
00001100
00011000
,
01000000
00100000
00010000
00100000
01000000
00100000
00010000
00100000
,
01000000
00000000
10000000
00010000
01000000
00001000
00011000
00011000
,
00011000
00000000
00010010
00000000
00001100
00000000
0000MM10
00000001
,
00000100
00000010
00000100
00000001
00000100
00000010
00000100
00000000
,
00001000
00000100
00000010
00000100
00001000
00000100
00000010
00000100
,
00001000
00000000
00010000
00100000
01000000
00100000
00010000
00100000
,
01000000
00100000
00010000
00000000
00001000
01000000
00010000
00100000
,
10010000
10010000
10010000
00000000
00011000
00011000
00011000
00000000
,
00001001
00001001
00001001
00000010
00000100
00001000
00000001
00000100
,
00000010
00001000
00000100
00000010
00000001
00000100
00000010
00010000
,
00011000
00011000
00011000
00001000
01001000
01001000
01001000
00010000
,
00100000
01000000
10000000
00100000
01000000
00010000
10000000
01000000
,
00110000
00110000
00110000
00100000
00101000
00101000
00101000
00010000
,
00000100
00001000
00000010
00000100
00000001
00001000
00000100
00010000
,
00011000
00011000
00011000
00001000
01001000
01001000
01001000
00010000
,
00001000
01000000
00010000
10000000
01010000
01010000
01010000
01010000
,
02020000
00000000
00000000
03030000
,
00100000
10000000
01000000
00100000
01000000
10000000
01000000
00100000
,
01000000
10000000
00100000
01000000
00100000
00010000
00100000
01000000
,
00100000
00010000
00001000
00000010
00000100
00000010
00001000
00000010
,
00000100
00000010
00000001
00000100
00000010
00000100
00000001
00000100
,
00000010
00000100
00000001
00001000
00000100
00000010
00000100
00001000
,
00000100
00000010
00000100
00001000
00000010
00000100
00001000
00000100
,
00000010
00000000
00000000
00000000
,
00000000
00000000
00000000
00000000
,
00000000
00000000
00100000
01000000
10000000
01000000
00100000
01000000
,
10000000
01000000
00100000
00000000
00101000
00000000
00011000
00000000
,
00001010
00000000
00000100
00000001
00000010
00000100
00000010
00000001
,
00000010
00000100
00000010
00000000
00000001
00000100
00000010
00001000
,
00010100
00010100
00010100
00000000
00001000
00000000
00010000
00000000
,
01000000
00100000
00010000
00100000
01000000
00100000
00010000
00100000
,
01000000
00000000
10000000
00100000
01000000
00100000
10000000
00100000
,
01000000
00100000
00010000
00000000
00001000
00000100
00000010
00000100
,
00001010
00001010
00001010
00000000
00000000
00000000
0000M0M1
00000100
,
00000010
00000100
00000001
00000100
00000010
00000100
00000001
00001000
,
00000100
00000010
00000100
00001000
00000010
00000100
00001000
00010000
,
00001000
01000000
00010000
00000000
10000000
00000000
01000000
00000000
,
00100000
00001000
00010000
00000010
,
00001000
00000000
00000001
00000010
00000100
00001000
00000000
00000020
,
00000000
00000130
00000001
00000010
00000100
00020000
00000000
00031000
,
00000000
01000000
00010000
00100000
01000000
20000000
00000000
31000000
,
00000000
00100000
00010000
01000000
00001000
00010000
00000010
00000000
,
00001000
00000010
00000100
00000001
00001000
00000100
00000010
00000001
,
00000100
00000010
00001010
00001010
00001010
00000010
00010010
00010010
,
00010010
00010000
00001000
01000000
00010000
10000000
01000000
00100000
,
00010000
01000000
01001000
01001000
01001000
00001000
00011000
00011000
,
00011000
00010000
00000100
00001000
00000010
00000100
00000001
00001000
,
00000100
00000010
00000011
00000011
00000011
00001000
00001100
00001100
,
00001100
00010000
00001000
01000000
00100000
10000000
00010000
01000000
,
00100000
10000000
10010000
00000000
00011000
00000000
00001001
00000000
,
00001000
00000001
00000010
00000001
00000100
00000010
00001000
00000100
,
00010000
00001000
01001000
01001000
01001000
01000000
01010000
01010000
,
01010000
00100000
10000000
01000000
00100000
00001000
00010000
00000100
,
00001000
00000010
00001010
00001010
00001010
00000010
00010010
00010010
,
00010010
00010000
00001000
01000000
00010000
10000000
00100000
00000000
,
01000000
00001000
00010000
00000100
,
00010000
00001000
00010000
00000010
00001000
00000001
00001001
00001001
,
00001001
00001001
00001001
00000000
00000000
00000000
00000000
00000000
,
00000000
00000000
00010000
00001000
01000000
00100000
10010000
10010000
,
10010000
10010000
10010000
00000000
00000000
00000000
00000000
00000000
,
00000000
00000000
00010000
00000100
00001000
00000010
00001001
00001001
,
00001001
00001001
00001001
00000000
00000000
00000000
00000000
00000000
;

//--------------- lights-cabinet - ----------------
#NOTES:
     lights-cabinet:
     :
     Easy:
     1:
     0.445216,0.612469,0.408313,0.174991,0,374,320,49,21,0,3,0.445216,0.612469,0.408313,0.174991,0,374,320,49,21,0,3:
000000
000000
000000
000000
,
000000
000000
000000
000000
,
100000
001100
000000
011000
000000
001100
000000
000000
,
100000
001100
000000
011000
000000
001100
000000
000100
,
100000
001100
000000
011000
100000
001100
000000
011000
,
100000
001000
010000
000100
111100
000000
000000
000000
,
100000
000100
010000
001000
000000
001000
010000
000000
,
000100
100000
010000
001000
000000
001000
010000
000000
,
100000
000100
010000
001000
000000
001000
010000
000000
,
100100
010000
001000
010000
,
100100
000000
000000
000000
100000
010000
100000
002000
,
000000
013000
000000
000000
000100
010000
000100
200000
,
000000
000000
300000
000000
010000
000100
001000
020000
,
000000
130000
000000
000000
000100
100000
001000
000000
,
100000
010000
100000
001000
010000
000000
000100
000000
,
010000
000000
001000
000000
100000
010000
010000
100000
,
000000
100100
000000
010000
001000
000000
100100
000000
,
100000
010000
100000
010000
000000
000100
010000
000100
,
000000
010000
000000
100100
000000
000000
000100
000000
,
000100
001000
000100
001000
100000
001000
100000
001000
,
000000
000100
000000
010000
000000
000000
010000
000000
,
100000
000000
100000
000100
000000
000100
000000
000000
,
010000
000000
010000
000100
000000
000100
000000
000000
,
100100
011000
101000
011000
,
020200
000000
000000
030300
,
100000
010000
001000
000100
000000
000100
001000
000000
,
001000
010000
100000
001000
000000
010000
000100
000000
,
100000
010000
001000
000000
010000
000000
000100
000000
,
001000
000100
010000
001000
000000
100000
100000
000000
,
000100
001000
000100
100000
000000
100000
000000
000000
,
100000
000100
001000
000000
010000
000000
010000
000000
,
110000
000000
001100
000000
,
222200
000000
333300
000000
,
000000
000000
000100
000000
100000
010000
000000
010000
,
000000
010000
100000
000000
000100
010000
000000
010000
,
000000
010000
000100
000000
100000
010000
000000
010000
,
000000
010000
100000
000000
010000
000000
001000
000000
,
000100
000000
100100
000000
000000
000000
000100
010000
,
000100
100000
001000
010000
000100
000000
100000
010000
,
100000
000200
000000
000000
000300
000000
010000
100000
,
001000
020000
000000
030100
000000
000000
100000
000100
,
001000
200200
000000
000000
300300
000000
010000
000100
,
001000
020000
000000
031000
000000
000000
010000
100000
,
001000
000000
010000
000100
001000
000100
020000
000000
,
002000
000000
000000
000000
,
033000
000000
010000
000100
001000
000100
010000
000000
,
001000
000000
100100
000000
010000
001000
000000
001000
,
010000
000000
100000
000000
000100
001000
000000
010000
,
100000
000000
100100
000000
001000
010000
000000
001000
,
100000
000000
000100
010000
100000
010000
000000
010000
,
100100
000000
000100
010000
000100
010000
000000
100000
,
010000
100000
000000
010000
000000
100100
000000
000000
,
100000
000000
100000
001000
100000
001000
000100
001000
,
000100
001000
000000
100000
000000
010000
000000
000000
,
010000
000000
000100
000000
000100
100000
000000
100000
,
000000
000000
010000
000000
010000
100000
000000
100000
,
000000
100100
011000
001100
,
011000
220000
000000
000000
,
330000
000000
100000
001000
100000
001000
000000
000100
,
001000
000100
000000
001000
000000
100100
000000
000000
,
000100
000000
000100
010000
000100
010000
100000
010000
,
100000
010000
000000
000100
000000
001000
000000
000000
,
001000
000000
100000
000000
100000
000100
000000
000100
,
000000
010000
000000
000000
010000
001000
000000
001000
,
000000
100100
011000
101000
,
011000
000000
100000
010000
001000
000100
200000
000000
,
300100
010100
101000
011000
,
100100
000000
000100
001000
010000
100000
000200
000000
,
100300
101000
010100
001100
,
110000
000000
100000
001000
010000
000100
200000
000000
,
311100
000000
000000
000000
;
