#TITLE:No 1 Nation;
#SUBTITLE:;
#ARTIST:Anet;
#TITLETRANSLIT:;
#SUBTITLETRANSLIT:;
#ARTISTTRANSLIT:;
#GENRE:;
#CREDIT:;
#MUSIC:Anet. - No.1 Nation.ogg;
#BANNER:No. 1 Nation.png;
#BACKGROUND:No. 1 Nation-bg.png;
#CDTITLE:;
#SAMPLESTART:77.690;
#SAMPLELENGTH:13.900;
#SELECTABLE:YES;
#OFFSET:-0.094;
#BPMS:0.000=200.000;
#STOPS:160.000=0.600;
#BGCHANGES:;
#FGCHANGES:;

//--------------- dance-single - M. Puls ----------------
#NOTES:
     dance-single:
     M. Puls:
     Beginner:
     1:
     0.095169,0.162329,0.033731,0,0,79,75,4,0,0,0,0.095169,0.162329,0.033731,0,0,79,75,4,0,0,0:
0000
0000
0000
0000
,
0000
0000
0000
0000
,
0000
0000
0000
0000
,
0000
0000
0000
0000
,
0100
0000
0000
0000
,
0000
0000
0000
0000
,
0100
0000
0000
0000
,
0010
0000
0000
0000
,
0010
0000
0000
0000
,
0001
0000
0000
0000
,
0000
0000
0000
0000
,
1000
0000
0000
0000
,
0001
0000
0000
0000
,
0010
0000
0000
0000
,
0100
0000
0000
0000
,
1000
0000
0000
0000
,
1000
0000
0000
0000
,
0100
0000
0000
0000
,
0010
0000
0000
0000
,
0001
0000
0000
0000
,
0000
0000
0000
0000
,
1000
0000
0000
0000
,
0001
0000
0000
0000
,
0100
0000
0000
0000
,
0000
0000
0000
0000
,
0001
0000
0000
0000
,
1000
0000
0000
0000
,
0010
0000
0000
0000
,
0000
0000
0000
0000
,
0100
0000
0000
0000
,
0010
0000
0000
0000
,
0100
0000
0000
0000
,
0000
0000
0000
0000
,
1000
0000
0000
0000
,
0001
0000
0000
0000
,
1000
0000
0000
0000
,
0100
0000
0000
0000
,
0100
0000
0000
0000
,
0100
0000
0000
0000
,
0100
0000
0000
0000
,
0000
0000
0000
0000
,
0000
0000
0000
0000
,
0000
1000
0000
0000
,
0000
0100
0000
0000
,
0000
1000
0000
0000
,
0000
0001
0000
0000
,
0000
0010
0000
0000
,
0000
0001
0000
0000
,
0000
0000
0000
0000
,
0000
0001
0000
0000
,
0000
1000
0000
1000
,
0000
1000
0000
0000
,
0000
1000
0000
0000
,
0000
0001
0000
0001
,
0000
0001
0000
0000
,
0000
0000
0000
0000
,
0000
0100
0000
0000
,
0000
0010
0000
0000
,
0000
0100
0000
0000
,
0000
0010
0000
0000
,
0000
1000
0000
0000
,
0000
0001
0000
0000
,
0000
1000
0000
0000
,
0000
0001
0000
0000
,
0000
1000
0000
0000
,
0000
1000
0000
0000
,
0000
0010
0000
0000
,
0000
0100
0000
0000
,
0000
0001
0000
0000
,
0000
0001
0000
0000
,
0000
0100
0000
0000
,
0000
0010
0000
0000
,
0000
1000
0000
0000
,
0000
0000
0000
0000
,
0000
0001
0000
0000
,
0000
0000
0000
0000
,
0000
1000
0000
0000
,
0000
0100
0000
0000
,
0000
1000
0000
0000
,
0000
0001
0000
0000
,
0000
0010
0000
0000
,
0000
0001
0000
0000
,
0000
1000
0000
0000
,
0000
0010
0000
0000
,
0000
1000
0000
0000
,
0000
0000
0000
0000
,
0000
1001
0000
0000
,
0000
0000
0000
0000
,
0000
1001
0000
0000
,
0000
0000
0000
0000
,
0000
1001
0000
0000
,
0000
0000
0000
0000
,
0000
0000
0000
0000
,
0000
0000
0000
0000
,
0000
0000
0000
0000
,
0000
0000
0000
0000
,
0000
1001
0000
0000
;

//--------------- dance-single - M. Puls ----------------
#NOTES:
     dance-single:
     M. Puls:
     Easy:
     6:
     0.23973,0.365241,0.042163,0.12649,0,199,194,5,15,0,0,0.23973,0.365241,0.042163,0.12649,0,199,194,5,15,0,0:
0000
0000
0000
0000
,
0000
0000
0000
0000
,
0000
0000
0000
0000
,
0000
0000
0000
0000
,
0100
0000
1000
0000
,
0001
0000
1000
0000
,
1000
0001
1000
0100
,
0001
1000
0010
0000
,
1000
0000
0001
1000
,
0001
0000
1000
0001
,
1000
0000
0001
1000
,
0010
0000
0010
0000
,
1000
0010
1000
0100
,
0010
0000
0100
0000
,
0001
0100
1000
0100
,
0002
0000
0003
0000
,
1000
0010
0001
0100
,
0010
1000
0100
0000
,
0001
0100
0000
0100
,
0000
0010
0000
0100
,
1000
0000
0100
0000
,
0100
0000
0010
0000
,
0010
0000
0001
0000
,
0001
0000
1000
0000
,
0001
0000
1000
0000
,
1000
0000
0001
0000
,
0100
0000
0010
0000
,
2002
0000
0000
3003
,
0010
0000
1000
0000
,
0001
0000
0100
0000
,
0010
0000
0001
0000
,
1000
0000
0010
0000
,
1000
0000
0100
0000
,
0100
0000
0010
0000
,
0010
0000
0001
0000
,
0001
0000
0000
0000
,
1000
1000
2000
3000
,
0001
0001
0002
0003
,
0100
0100
0200
0300
,
1000
0010
0001
0100
,
0000
0000
1000
0000
,
0001
1000
0100
0000
,
1000
0100
1000
0000
,
0010
0000
0100
0000
,
1000
0000
0001
0000
,
1000
0000
0001
0000
,
0100
1000
0001
0100
,
1001
0000
0000
0000
,
0001
0000
1000
0000
,
0001
0010
1000
0100
,
0001
0001
0100
1000
,
0100
0002
0000
0003
,
0000
1000
1000
0001
,
0001
0010
1000
0100
,
0001
0001
0100
1000
,
0100
0001
0000
0000
,
1000
0000
0000
0100
,
0000
0000
0000
0010
,
0000
0000
0000
0001
,
0000
0000
0000
0000
,
0000
1000
0000
0000
,
0000
1000
0000
0000
,
0010
0000
0010
0000
,
0100
2002
0000
0000
,
3003
0010
0000
1000
,
0000
0001
0000
0100
,
0000
0010
0000
0001
,
0000
0100
0000
0010
,
0000
1000
0000
0100
,
0000
0100
0000
0010
,
0000
0010
0000
0001
,
0000
0001
0000
0000
,
0000
1000
1000
0020
,
0030
0001
0001
0200
,
0300
0001
0001
0020
,
0030
1000
0001
1000
,
0001
0000
0001
0001
,
1000
0000
1000
0000
,
0010
0000
0010
0000
,
0100
0000
0100
0000
,
1001
0000
1000
0000
,
0010
0000
0100
0000
,
0100
0000
0010
0000
,
0001
0010
0100
1000
,
0000
2000
0000
0000
,
0000
0000
0000
0000
,
3000
0002
0000
0000
,
0000
0000
0000
0000
,
0003
0200
0000
0000
,
0000
0000
0000
0000
,
0300
1000
0000
0000
,
0000
0000
0000
0000
,
0000
0001
0000
0000
,
0000
0000
0000
0000
,
0000
1000
0000
0000
,
0000
0000
0000
0000
,
0000
1001
0000
0000
;

//--------------- dance-single - M. Puls ----------------
#NOTES:
     dance-single:
     M. Puls:
     Medium:
     10:
     0.40236,0.527571,0.168654,0.185519,0,334,314,20,22,0,0,0.40236,0.527571,0.168654,0.185519,0,334,314,20,22,0,0:
0000
0000
0000
0000
,
0000
0000
0000
0000
,
0002
0000
0003
0000
,
2000
0000
3000
0000
,
0100
0010
0000
0000
1000
0000
0100
0000
,
0001
1000
0001
0000
,
1000
0001
1000
0100
,
0001
1000
0010
0000
,
1000
0100
0001
1000
,
0001
0000
1000
0001
,
1000
0100
0001
1000
,
0010
0000
0001
0000
,
1000
0100
0010
0000
0001
0010
0100
0000
,
0010
0100
1000
0000
0100
0010
0001
0000
,
0001
0010
0100
0000
1000
0000
0100
0000
,
0002
0000
1003
0000
,
1000
0100
0010
0000
0001
0010
0100
0000
,
0010
0100
1000
0000
0100
0010
0001
0000
,
0001
0010
0100
0000
1000
0000
0100
0000
,
1000
0010
1000
0100
,
1000
0000
0100
0000
,
0100
0000
0010
0000
,
0010
0000
0001
0000
,
0001
0000
1000
0000
,
0001
0000
1000
0000
,
1000
0100
0001
0100
,
1000
0100
0001
0100
,
2002
0000
0000
3003
,
0010
0100
0010
0000
1000
0000
1000
0000
,
0001
0001
0100
0000
,
0010
1000
0010
0000
0001
0000
0001
0000
,
1000
1000
0010
0000
,
1000
0000
0100
0000
,
0100
0000
0010
0000
,
0010
0000
0001
0000
,
0001
0000
0000
0000
,
1000
0000
1000
0001
0020
0000
0030
0000
,
1001
0000
0001
1000
0200
0000
0300
0000
,
0110
0000
0001
1000
0002
0000
0003
0000
,
1000
0100
0010
0000
0001
0010
0100
0000
,
0000
1000
1100
0001
,
0011
1000
0100
0010
,
1000
0000
0100
0000
1000
0001
1000
0000
,
0010
0011
0100
1100
,
1000
0010
0001
0100
,
1000
1000
0001
0001
,
0100
1000
0001
0100
,
1001
0110
0110
0001
,
0001
1000
1000
0001
,
0001
0000
0010
0100
1000
0000
0100
0010
,
0001
0000
0001
0010
0100
0000
1000
0000
,
0100
0002
0000
1003
,
0000
1000
1000
0001
,
0001
0000
0010
0100
1000
0000
0100
0010
,
0001
0000
0001
0010
0100
0000
1000
0000
,
0100
1001
0100
0010
,
1001
1000
0000
0100
,
0000
0100
0000
0010
,
0000
0010
0000
0001
,
0000
0001
0000
0000
,
0000
1000
0000
0000
,
0000
1001
0100
0001
,
0010
1001
0010
1000
,
0100
2002
0000
0000
,
3003
0000
0010
0100
0010
0000
1000
0000
,
1000
0000
0001
1000
0001
0000
0100
0000
,
0100
0000
0010
1000
0010
0000
0001
0000
,
0001
0000
0100
1000
0100
0000
0010
0000
,
0010
1000
0000
0100
,
0000
0100
0000
0010
,
0000
0010
0000
0001
,
0000
0001
0000
0000
,
0000
0000
1000
0000
1000
0001
0020
0000
,
0030
0000
1001
0000
0001
1000
0200
0000
,
0300
0000
0110
0000
0001
1000
0002
0000
,
0003
0000
1000
0100
0010
0000
0001
0010
,
0100
0000
0000
0000
0001
1000
0001
0000
,
1000
0000
0000
0000
1000
0001
1000
0000
,
0010
0000
0000
0000
0010
0100
0010
0000
,
0100
0000
0000
0000
0100
0010
0100
0000
,
1001
0110
1000
1000
,
0010
0001
0100
0001
,
0100
1000
0010
0000
,
0001
0000
1000
0001
0000
0001
1000
0000
,
0000
0000
1000
0000
0000
1000
0000
0000
,
1000
0000
0001
2000
,
0000
0000
3100
0000
0000
0100
0000
0000
,
0100
0000
0000
0010
0000
0000
0002
0000
,
0000
0000
0103
0000
0000
0100
0000
0000
,
0000
0100
0000
0100
0000
0000
0200
0000
,
0300
2000
0000
0000
,
0000
0200
0000
0000
,
3300
0002
0000
0000
,
0000
0000
0020
0000
0000
0000
0000
0033
,
0000
0200
0000
0000
,
0000
0010
0000
1000
,
0300
1001
0000
0000
;

//--------------- dance-single - M. Puls ----------------
#NOTES:
     dance-single:
     M. Puls:
     Hard:
     11:
     0.493915,0.649318,0.261414,0.337308,0,410,379,31,40,0,0,0.493915,0.649318,0.261414,0.337308,0,410,379,31,40,0,0:
0000
0000
0000
0000
,
0000
0000
0000
0000
,
0002
0000
0003
0000
,
2000
0000
0000
0000
3000
0000
0000
0010
,
0100
0010
0100
0000
1000
0000
0100
0000
,
0001
1000
0002
0000
,
1003
0001
1000
0100
,
0001
0000
1000
0100
0020
0000
0000
0000
,
0031
0100
0001
1000
,
0002
0000
1003
0001
,
1000
0000
0100
0000
1000
0000
1000
0100
,
0020
0000
0031
0000
,
1000
0100
1000
0000
0001
0010
0001
0000
,
0010
0100
1000
1000
0100
0010
0001
0000
,
0001
0010
0100
0000
1000
0000
1000
0000
,
0002
0000
1003
0000
,
1000
0100
1000
0000
0001
0010
0001
0000
,
0010
0100
1000
1000
0100
0010
0001
0000
,
0001
0010
0100
0000
1000
0000
0100
0000
,
1001
0110
0011
1100
,
2000
0000
0100
0000
,
3200
0000
0010
0000
,
0320
0000
0001
0000
,
0032
0000
0000
0000
,
1003
0000
0000
0000
,
1001
0100
0001
0010
,
1001
0010
1000
0100
,
2002
0000
0000
3003
,
0010
0100
0010
0000
1000
0000
1000
0000
,
0001
1000
0001
0000
0100
0000
0100
0000
,
0010
1000
0010
0000
0001
0000
0001
0000
,
0100
1000
0100
0000
0010
0000
0010
0000
,
2000
0000
0100
0000
,
3200
0000
0010
0000
,
0320
0000
0001
0000
,
0032
0000
0000
0000
,
1003
0000
1000
0001
0010
0020
0030
0000
,
1001
0000
0001
1000
0100
0200
0300
0000
,
0110
0000
0001
1000
0001
0002
0003
0000
,
1000
0100
0010
0010
0100
1000
0001
1000
,
0010
0100
1100
0100
,
0011
1000
0100
0011
,
1000
0000
0100
0000
1000
0001
1000
0000
,
0010
0011
0100
1100
,
1000
0100
0010
0000
0001
0010
0100
0000
,
1000
0010
1000
0000
0001
0100
0001
0000
,
0100
1000
0001
0100
,
1001
0110
0011
1001
,
1001
0000
0001
0010
0001
0000
1000
0100
,
1000
0000
0100
0010
0001
0001
0010
0100
,
1000
0000
1000
0100
0010
0000
0001
0000
,
0010
2000
0000
3001
,
0000
0000
0001
0010
0001
0000
1000
0100
,
1000
0000
0100
0010
0001
0001
0010
0100
,
1000
0000
1000
0100
0010
0000
0001
0000
,
0010
1001
0110
1100
,
0011
0002
0000
0010
,
0000
0023
0000
0100
,
0000
0230
0000
1000
,
0000
2300
0000
0000
,
0000
3001
0000
0000
,
0000
1001
0010
1000
,
0100
1001
0100
0001
,
0010
2002
0000
0000
,
3003
0000
0010
0100
0010
0000
1000
0000
,
1000
0000
0001
1000
0001
0000
0100
0000
,
0100
0000
0010
1000
0010
0000
0001
0000
,
0001
0000
0100
1000
0100
0000
0010
0000
,
0010
2000
0000
0100
,
0000
3200
0000
0010
,
0000
0320
0000
0001
,
0000
0032
0000
0000
,
0000
0000
1003
0000
1000
0001
0010
0020
,
0030
0000
1001
0000
0001
1000
0100
0200
,
0300
0000
0110
0000
0001
1000
0001
0002
,
0003
0000
1000
0100
0010
0010
0100
1000
,
0001
0000
0001
0000
0001
1000
0001
0000
,
1000
0000
1000
0000
1000
0001
1000
0000
,
0010
0000
0010
0000
0010
0100
0010
0000
,
0100
0000
0100
0000
0100
0010
0100
0000
,
1001
0010
1001
0000
1000
0000
0100
0000
,
0010
0000
0001
0010
0100
0000
0001
0000
,
0100
0000
1000
0100
0010
0000
0000
0000
,
0001
0000
1000
0001
1000
0001
1000
0000
,
0000
0000
1000
0000
0010
0001
0000
0010
,
1000
0000
0100
0001
0000
0010
0200
0000
,
0300
0000
0001
0000
0100
1000
0000
0100
,
0001
0000
0010
1000
0000
0100
0020
0000
,
0030
0000
0100
0000
1000
0010
0000
1000
,
0100
0000
0001
0010
0000
1000
0002
0000
,
0003
2000
0010
0100
,
0010
0100
0010
0100
,
0010
3002
0010
1000
,
0010
1000
0010
1000
,
0010
2003
0100
0001
,
0100
0001
0100
0001
,
3100
0011
0000
0000
;

//--------------- dance-single - M. Puls ----------------
#NOTES:
     dance-single:
     M. Puls:
     Challenge:
     14:
     0.763762,0.771065,0.345741,0.236116,0.063245,634,593,41,28,0,0,0.763762,0.771065,0.345741,0.236116,0.063245,634,593,41,28,0,0:
0000
0000
0000
0000
,
0000
0000
0000
0000
,
0002
0000
1000
1000
1003
0000
1000
0000
,
2000
0000
0000
0000
0001
0000
0001
0000
3001
0000
0000
0000
0001
0000
0100
0010
,
0100
0000
0010
0000
1000
0100
0010
0001
,
0001
1000
0002
1003
,
1000
0100
0001
0100
1000
0000
0100
0000
,
0001
0000
1000
0100
0020
0000
0031
0000
,
1000
0100
0010
0001
0001
0000
1000
0000
,
0002
0000
1003
0000
0100
0010
0001
0010
,
1000
0100
0100
0010
0001
0000
1000
0100
,
0022
0000
0033
0000
,
1000
0100
1000
1000
0001
0010
0001
0001
,
0010
0000
0100
0000
1000
0001
1000
0000
0100
0000
0010
0000
0001
1000
0001
0000
,
0001
0010
0100
0000
1000
0000
0100
0000
,
0002
0100
1003
1000
,
1000
0100
1000
1000
0001
0010
0001
0001
,
0010
0000
0100
0000
1000
0001
1000
0000
0100
0000
0010
0000
0001
1000
0001
0000
,
0001
0010
0100
0000
1000
1000
0100
0000
,
1001
0100
0010
0000
0010
0100
1100
0000
,
1000
0010
0100
0001
0100
0010
1000
0001
,
0100
0001
1000
0001
1000
0010
0100
0010
,
1000
0010
1000
0001
0100
0001
0001
1000
,
0002
1000
0100
0010
,
1003
0100
1000
0001
0010
0100
1000
0001
,
0100
0010
1000
0001
1000
0010
0100
0001
,
0100
0010
1000
0001
0100
0010
0100
0010
,
2002
0000
0000
3003
,
0010
0100
0010
1000
0001
1000
1000
0010
,
1000
0010
0100
0001
0001
0100
0001
1000
,
0010
1000
0010
0010
1000
0001
1000
0001
,
1000
0010
0100
0001
1000
1000
1000
0001
,
1000
0000
0001
1000
0100
0000
1000
0001
,
0100
0000
0001
0100
0010
0000
1000
0010
,
0100
0001
1000
0001
1000
0000
0010
0000
,
0110
0000
0000
0000
1000
0000
0000
0000
0010
0000
0000
0000
0100
0000
0000
0001
,
1000
0000
0000
0000
1000
0000
0001
0000
0010
0000
0020
0000
0030
0000
0000
1000
,
0001
0000
0000
0000
0001
0000
1000
0000
0100
0000
0200
0000
0300
0000
0000
0010
,
0100
0000
0100
0010
0100
0200
0300
0000
,
1000
0100
0010
0001
0100
0010
1000
0010
,
0100
0110
1100
0110
,
0011
0000
1000
0001
0100
0000
0011
0000
,
0001
1000
0100
0000
1000
0001
1000
0000
,
0010
0011
0110
1100
,
1000
0100
0010
0000
0001
0010
0100
0000
,
1000
0010
1000
0000
0001
0100
0001
0000
,
0001
1000
0100
1000
0001
1000
0100
1000
,
1001
0110
1100
0011
,
1100
0000
0001
0010
0001
0001
1000
0100
,
1000
0000
1000
0000
0100
0000
0010
0000
0001
1000
0001
0000
0010
0000
0100
0000
,
1000
0001
1000
0000
1000
0000
0100
0000
0010
0000
0000
0000
0001
0000
0000
0000
,
2000
0010
3001
0001
,
0001
0000
0001
0010
0001
0001
1000
0100
,
1000
0000
1000
0000
0100
0000
0010
0000
0001
1000
0001
0000
0010
0000
0100
0000
,
1000
0001
1000
0000
1000
0000
0100
0000
0010
0000
0000
0000
0001
0000
0000
0000
,
0010
1001
0010
0100
,
0011
0000
0001
0100
0010
1000
0001
0100
,
0001
1000
0010
1000
0001
1000
0010
1000
,
0001
0100
0010
1000
0001
1000
0010
1000
,
0001
0001
2000
0000
0001
0000
0010
0000
,
0100
0000
3001
0100
0010
1000
0010
0100
,
0001
1000
0010
0100
0001
1000
0010
1000
,
0001
0100
0010
1000
0010
0100
0001
0100
,
0010
1000
2002
0000
0000
0000
0000
0000
,
3003
0000
0100
0010
0100
0010
1000
0001
,
0001
0100
0001
0100
0010
0100
0010
0100
,
0100
0010
1000
0001
0100
0001
1000
0001
,
0001
1000
0010
0100
0010
0000
0100
0100
,
0100
0000
0001
0000
1000
0001
0010
0000
,
0001
1000
0010
0000
0100
0010
1000
0001
,
1000
0001
0100
0000
0001
1000
0010
0000
,
0100
0001
1000
0010
0100
0001
1000
0000
,
0001
0000
0000
1000
0001
0000
0000
0000
0001
0000
1000
0000
0100
0000
0200
0000
,
0300
0000
0000
1000
0001
0000
0000
0000
0001
0000
1000
0000
0100
0000
0200
0000
,
0300
0000
0000
0010
0100
0000
0000
0000
0100
0000
0010
0000
0100
0000
0200
0000
,
0300
0000
1000
0100
0010
0001
0100
0010
,
1000
0010
0100
0000
0001
1000
0001
0000
,
1000
0000
0010
0000
1000
0001
1000
0000
,
0010
0000
1000
0000
0010
0100
0010
0000
,
0100
0000
0001
0000
0100
0010
0100
0000
,
1000
1000
0010
0000
1000
0000
0100
0100
,
0010
0000
0001
0010
0100
0000
1000
1000
,
0010
0000
1000
0100
0010
0000
0001
0001
,
0100
0000
0010
0100
0010
1000
0001
0000
,
1000
0000
1000
0000
0011
0011
0000
1010
,
1010
0000
0101
0101
0000
0010
0200
0000
,
0301
0000
0001
0000
1100
1100
0000
0101
,
0101
0000
1010
1010
0000
0100
0020
0000
,
0030
0000
0100
0000
1010
1010
0000
1100
,
1100
0000
0011
0011
0000
1000
0002
0000
,
0003
0000
0001
1000
0001
1000
0001
1000
,
0001
1000
0001
1000
0001
1000
0001
1000
,
0020
0000
1030
0100
0010
0100
1000
0100
,
0010
0100
1000
0100
0010
0100
1000
0100
,
0020
0000
0031
0010
0100
0010
0001
0010
,
0100
0010
0001
0010
0100
0010
0001
0010
,
2200
0000
0000
3300
0011
0000
0000
0000
0000
0000
0000
0000
0000
0000
0000
0000
;

//--------------- dance-double - M. Emirzian ----------------
#NOTES:
     dance-double:
     M. Emirzian:
     Easy:
     5:
     0.310805,0.365241,0.025298,0.067462,0,258,255,3,8,0,0,0.310805,0.365241,0.025298,0.067462,0,258,255,3,8,0,0:
00000000
00000000
00000000
00000000
,
00000000
00000000
00000000
00000000
,
00000000
00000000
00000000
00000000
,
00000000
00000000
00000000
00000000
,
20000000
00000000
00100000
00000000
,
30100000
00000000
01000000
00000000
,
00020000
00000000
00100000
00000000
,
00130000
00000000
00001000
00000000
,
00020000
00000000
00000100
00000000
,
00030100
00000000
00001000
00000000
,
00000010
00000000
00001000
00000000
,
00000010
00000000
00000100
00000000
,
00000001
00001000
00000100
00000000
,
00010000
00001000
00100000
00000000
,
00010000
01000000
00100000
00000000
,
10000000
00100000
01000000
00000000
,
00010000
10000000
01000000
00000000
,
00100000
00001000
00010000
00000000
,
00000100
00001000
00000010
00000010
,
00000100
00000001
00001000
00000001
,
00000010
00001000
00000000
00010000
,
00100000
00000000
10000000
00010000
,
00000000
10000000
01000000
00000000
,
00010000
00001000
00000000
00010000
,
00000100
00000000
00001000
00000010
,
00000000
00000100
00000001
00000000
,
00000010
00000100
00000000
00010000
,
00001000
00000000
00100000
01000000
,
00000000
10000000
00010000
00000000
,
01000000
00100000
00000000
10000000
,
00100000
00000000
00010000
00001000
,
00000000
00010000
00000010
00000000
,
00001000
00000100
00000000
00000010
,
00000001
00000000
00000100
00000010
,
00000000
00000100
00001000
00000000
,
00010000
00001000
01000000
00010000
,
10000000
00000000
10000000
00000000
,
00100000
00000000
00100000
00000000
,
01000000
00000000
01000000
00000000
,
00002000
00000000
00010000
00000000
,
00013000
00000200
00000000
00010000
,
00000000
00010300
00000000
00000100
,
00000000
00000020
00000000
00000001
,
00000000
00000031
00000000
00000001
,
00000000
00002000
00000000
00000100
,
00000000
00003100
00000000
00010000
,
00000000
00002000
00000000
01000000
,
00000000
01003000
00000000
00010000
,
00000000
10000000
00100000
01000000
,
00000000
00010000
01000000
00100000
,
00000000
10000000
01000000
00100000
,
00000000
00001000
00010000
00000010
,
00000000
00001000
00000100
00000010
,
00000000
00000001
00001000
00000100
,
00000000
00000010
00000001
00000100
,
00000000
00000010
00010000
00001000
,
00011000
00001000
00010000
00000000
,
00100000
10000000
00000000
01000000
,
00100000
00000000
00001000
00010000
,
00000000
00000010
00001000
00000000
,
00000001
00000100
00000000
00000010
,
00001000
00000000
00000100
00000010
,
00000000
00000001
00000100
00000000
,
00001000
00010000
00000000
00001000
,
01000000
00000000
00010000
00100000
,
00000000
01000000
10000000
00000000
,
00010000
01000000
00000000
00100000
,
10000000
00000000
00010000
01000000
,
00000000
00001000
00010000
00000000
,
00000010
00001000
00000000
00000100
,
00000010
00000000
00000001
00001000
,
00000100
00000010
00000001
00001000
,
00000010
00000100
00000000
00000100
,
00000000
00001000
00000000
00001000
,
00000000
00010000
00000000
00010000
,
00000000
00100000
10000000
00010000
,
10000000
01000000
00100000
00010000
,
00100000
00001000
00010000
00001000
,
00010000
00000100
00001000
00000100
,
00001000
00000010
00000100
00000010
,
00000100
00000001
00001000
00000001
,
00001000
00000100
00000010
00000100
,
00000010
00010000
00001000
00010000
,
00001000
01000000
00100000
01000000
,
00100000
10000000
00000000
10000000
,
00000000
00100000
00000000
00100000
,
00100000
01000000
00000000
01000000
,
00000000
00001000
00000000
00010000
,
00010000
00000100
00000000
00001000
,
00000000
00000010
00000000
00000100
,
00000100
00000001
00000000
00000100
,
00000000
00001000
00001000
00001000
,
00000000
00010000
00000000
00100000
,
00000000
10000000
10000000
10000000
,
00000000
00010000
00000000
01000000
,
00000000
00001000
00001000
00001000
,
00011000
00010010
00000000
00000000
;

//--------------- dance-double - M. Emirzian ----------------
#NOTES:
     dance-double:
     M. Emirzian:
     Medium:
     7:
     0.457775,0.486988,0.101192,0.118058,0,380,368,12,14,0,0,0.457775,0.486988,0.101192,0.118058,0,380,368,12,14,0,0:
00000000
00000000
00000000
00000000
,
00000000
00000000
00000000
00000000
,
00000000
00000000
00000000
00000000
,
00000000
00000000
00000000
00000000
,
00000100
00010000
00001000
01000000
,
00002000
00000000
00023000
00000000
,
00031000
01000000
00100000
10000000
,
00020000
00000000
00230000
00000000
,
00301000
00010000
00000010
00001000
,
00000200
00000000
00000320
00000000
,
00000031
00001000
00000100
00000010
,
00001000
00000000
00010000
00000000
00001000
00100000
00001000
00100000
,
00001000
01000000
00100000
10000000
,
00010000
01000000
00100000
01000000
,
00001000
00010000
00001000
00010000
,
00000100
00000010
00000100
00001000
,
00000001
00000100
00000010
00001000
,
00000100
00000010
00000100
00010000
,
00001000
01000000
00100000
10000000
,
00010000
01000000
20020000
30030000
,
10000000
10000000
01000000
01000000
,
00010000
00000000
00010000
00000000
00001000
00010000
00001000
00000000
,
00010000
00010000
00001000
00001000
,
00000100
00000000
00000100
00000000
00000001
00001000
00000001
00000000
,
00000010
00000010
00001000
00001000
,
00010000
00000000
00010000
00000000
00100000
01000000
00100000
00000000
,
10000000
10000000
00100000
00100000
,
00010000
00000000
00010000
00000000
00001000
00010000
00001000
00000000
,
00000010
00000010
00000001
00000001
,
00000100
00000000
00000100
00000000
00000010
00010000
00000010
00000000
,
00001000
00001000
00000100
00000100
,
00000010
00000010
00001000
00001000
,
00010000
00010000
00100000
00100000
,
10000000
00000000
10000000
00000000
01000000
00100000
01000000
00000000
,
10000000
10000000
01000000
01000000
,
00010000
00000000
00010000
00000000
00001000
00010000
00001000
00010000
,
00000100
00000000
00001001
00000000
,
00001000
00000010
00000100
00000000
,
00000001
00000100
00001000
00010000
,
00100000
01000000
00100000
10000000
,
01000000
00100000
00010000
01000000
,
00100000
20000000
00000000
30020000
,
00000000
00130000
00001000
00010000
,
00000010
00002000
00000000
00003200
,
00000000
00000310
00000001
00000100
,
00000020
00002000
00000030
00003100
,
00010000
00001000
00100000
00001000
,
00010000
00000000
00000100
00000000
00010000
00000000
00001000
00100000
,
00010000
00100000
00010000
01000000
,
00100000
10000000
01000000
00100000
,
01000000
00100000
00001000
00010000
,
00001000
00000100
00000010
00001000
,
00000100
00000010
00000001
00001000
,
00000100
00000010
00001000
00010000
,
00001000
00010000
00100000
01000000
,
00100000
10000000
00010000
00100000
,
01000000
10000000
10000000
00100000
,
00100000
00000000
00010000
00000000
00010000
00000000
00001000
00010000
,
00001000
00000010
00000010
00000001
,
00000001
00000000
00000100
00000000
00000100
00000000
00001000
00000100
,
00001000
00010000
00010000
01000000
,
01000000
00000000
10000000
00000000
10000000
00000000
00010000
10000000
,
00010000
10000000
10000000
00100000
,
00100000
00000000
00010000
00000000
00010000
00000000
00001000
00010000
,
00001000
00000010
00000010
00000001
,
00000001
00000100
00000100
00001000
,
00001000
00010000
00010000
01000000
,
01000000
00000000
10000000
00000000
10000000
00000000
00100000
00010000
,
00100000
00010000
00010000
00001000
,
00001000
00000010
00000010
00000001
,
00000001
00000100
00000100
00001000
,
00001000
00000000
00010000
00001000
00010000
00000000
00001000
01000000
,
00001000
01000000
00010000
00000000
01000000
00000000
00100000
00000000
,
00000000
10000000
00010000
01000000
,
00000000
00100000
10000000
00010000
,
10000000
10000000
10000000
10000000
,
10000000
01000000
10000000
00100000
,
00010000
00001000
00000010
00000001
,
00000100
00001001
00000010
00000100
,
00001000
00010000
00001000
01000000
,
00100000
01000000
00001000
00010000
,
00100000
10000000
01000000
00010000
,
00001000
00000100
00000001
00001000
,
00000010
00001001
00000010
00001000
,
00010000
00000000
00001000
00000000
00000000
01000000
00000000
00000000
,
00100000
00000000
00000000
10000000
00000000
00000000
10010000
00000000
,
01100000
00000000
01000000
00000000
00000000
00010000
00000000
00000000
,
00100000
00000000
00000000
00001000
00000000
00000000
00011000
00000000
,
00010010
00000000
00000010
00000000
00000000
00001000
00000000
00000000
,
00000100
00000000
00000000
00000010
00000000
00000000
00001001
00000000
,
00000110
00000100
00000100
00001000
,
00001000
00010000
00010000
00100000
,
10010000
10000000
10000000
01000000
,
01000000
00010000
00010000
00001000
,
00001100
00000100
00000100
00000001
,
00000001
00000000
00000010
00000000
00000010
00000000
00001000
00010000
,
00001000
00100000
01000000
00000000
00000000
00000000
00000000
00000000
;

//--------------- dance-double - M. Emirzian ----------------
#NOTES:
     dance-double:
     M. Emirzian:
     Hard:
     9:
     0.707142,0.6899,0.497529,0.067462,0,587,528,59,8,1,0,0.707142,0.6899,0.497529,0.067462,0,587,528,59,8,1,0:
00000000
00000000
00000000
00000000
,
00000000
00000000
00000000
00000000
,
00000000
00000000
00000000
00000000
,
00000000
00000000
00000000
00000000
,
00001000
01000000
00010000
10000000
,
01010000
00000000
00100000
00000000
10000000
00010000
00100000
00000000
,
00001000
00010000
00000010
00001000
,
00010100
00000000
00000010
00000000
000M0100
00000001
00000010
00000100
,
00001000
00000010
00010000
00001000
,
01001000
00000000
00100000
00000000
01000000
10000000
00100000
00000000
,
01000000
00010000
00100000
01000000
,
10010000
00110000
00101000
00011000
,
00000100
00001000
00000010
00001000
00000100
00000000
00000010
00000000
,
00000001
00000100
00000001
00000010
00000100
00000000
00010000
00000000
,
00001000
01000000
00001000
00010000
00001000
00000000
00011000
00000000
,
01001000
00011000
00101000
00110000
,
01000000
10000000
00100000
10000000
01000000
00000000
00100000
00000000
,
00010000
01000000
00010000
00100000
00001000
00000000
00010000
00000000
,
00000100
00001000
00000010
00001000
00000100
00000000
00000011
00000000
,
00001001
00001100
00010100
00011000
,
00100000
10000000
01000000
00000000
00100000
00010000
01000000
00000000
,
00100000
00010000
00001000
00000000
01000000
00100000
00010000
00000000
,
00001000
00000010
00000100
00000000
00010000
00000100
00000010
00000000
,
00000001
00000100
00000010
00000000
00001000
00000100
00000010
00001000
,
00010000
01000000
10000000
00000000
00010000
01000000
00100000
00000000
,
10000000
00100000
01000000
00000000
00001000
00010000
01000000
00000000
,
00100000
00010000
01000000
00000000
00100000
00010000
00001000
00000000
,
01000000
00100000
00010000
00000000
00001000
00010000
00000010
00001000
,
00000100
00000010
00000001
00000000
00000100
00000010
00010000
00000000
,
00001000
00000010
00000100
00000000
00010000
00000010
00001000
00000000
,
00000100
00000010
00001000
00000000
00010000
01000000
10000000
00000000
,
00100000
01000000
10000000
00000000
00010000
00100000
10000000
01000000
,
00100000
00010000
01000000
00000000
01000000
00100000
10000000
00000000
,
01000000
10000000
00100000
00000000
00010000
00001000
01000000
00000000
,
00100000
00010000
00001000
00000000
00000010
00000100
00001000
00000000
,
00000100
00000010
00000001
00001000
00000100
00000010
00001000
00010000
,
00100000
10100000
01000000
00110000
,
01000000
00000000
00101000
00000000
00010000
00000010
00001000
00000000
,
00000100
00000011
00001000
00010100
,
00001000
00000000
01001000
00000000
00010000
01000000
00100000
10000000
,
00010000
01000000
00100000
10000000
,
01000000
00000000
00110000
00000000
01000000
00000000
00001000
00010000
,
00000010
00001000
00000100
00000010
,
00000001
00000000
00000110
00000000
00010000
00000000
00001000
00010000
,
00000010
00010000
00001000
00000000
01000000
00000000
00100000
00000000
,
10000000
00000000
10010000
00000000
01000000
00000000
00100000
00010000
,
01000000
00100000
10000000
01000000
,
00100000
00110000
00101000
00011000
,
00010010
00000000
00001000
00000100
00000001
00000100
00001000
00000000
,
00000001
00000000
00000100
00001000
00010000
00001000
01000000
00000000
,
00010000
00000000
01000000
00100000
10000000
01000000
10000000
00000000
,
01010000
01001000
00011000
00010100
,
00001100
00000000
00000010
00000001
00000100
00001000
00000100
00000000
,
00000001
00000000
00000010
00000100
00010000
00001000
01000000
00100000
,
10000000
00000000
01000000
00100000
00010000
01000000
00100000
00000000
,
10100000
10010000
01010000
01001000
,
00011000
00000000
00001000
00000100
00000010
00000000
00010000
00000100
,
00000010
00000000
00000001
00000100
00000010
00000000
00001000
00000010
,
00000100
00000000
00001000
00010000
00100000
00000000
01000000
00001000
,
00010000
00000000
01000000
10000000
00100000
00000000
01000000
00010000
,
00100000
01000000
10000000
00100000
00010000
00000000
00001000
00010000
,
00100000
00000000
01000000
00010000
00100000
00000000
01000000
00010000
,
00001000
00000000
00100000
01000000
00010000
00000000
00001000
00000100
,
00000010
00000000
00010000
00000100
00000010
00000000
00000001
00000100
,
00000010
00010000
00001000
01000000
00100000
00000000
10000000
00010000
,
00100000
00000000
01000000
10000000
00100000
00000000
00010000
00001000
,
00100000
00000000
01000000
00010000
00001000
00000000
00000100
00000010
,
00001000
00000000
00000001
00000010
00000100
00000000
00001000
00000001
,
00000100
00001000
00010000
01000000
00100000
00000000
00010000
01000000
,
10000000
00000000
00100000
10000000
01000000
00000000
00010000
00100000
,
01000000
00000000
10000000
01000000
00100000
00000000
00001000
00010000
,
00000010
00000000
00001000
00000100
00000010
00000001
00001000
00000010
,
00010000
00001000
00000100
00000000
00000101
00000000
00001000
00000000
,
00010100
00000000
00001000
00000000
01010000
00000000
00100000
10000000
,
01000000
00100000
00101000
00010000
,
00010010
00000100
00001001
00000010
,
00001001
00000000
00000100
00000010
00010000
00001000
00010000
00100000
,
10000000
00010000
01000000
00100000
10000000
01000000
00100000
00010000
,
00100000
00001000
00010000
00001000
00000010
00000001
00001000
00000100
,
00000010
00000001
00000100
00000010
00010000
00000100
00010000
00001000
,
00010000
00000010
00010000
00001000
00010000
01000000
10000000
00100000
,
01000000
00001000
00100000
00001000
00010000
00001000
01000000
00001000
,
00010000
00000010
00000100
00000001
00001000
00000100
00000010
00000001
,
00000100
00000010
00010000
00001000
00100000
01000000
10000000
00000000
,
00110000
00000000
01000000
00000000
10000000
20000000
00000000
30100000
,
00200000
00000000
01300000
02000000
00000000
03001000
00001000
00000000
,
00011000
00000000
00010010
00000000
00001000
00002000
00000000
00003100
,
00000200
00000000
00000310
00000020
00000000
00000031
00000001
00000000
,
00001100
00000000
00010100
00000000
00001000
00001000
00002000
00000000
,
01003000
01000000
02000000
00000000
03100000
00000000
10000000
00000000
,
11000000
00000000
00100000
01000000
00010000
00000000
00100000
00001000
,
00010000
00000000
00011000
00000000
00010100
00000000
00001000
00000010
,
00000100
00000000
00000100
00000001
00000010
00000000
00000100
00010000
,
00001000
00000000
00010100
00000000
00011000
00000000
00100000
00010000
,
01000000
00000000
00100000
10000000
01000000
00000000
10000000
01000000
,
00100000
00000000
00110000
00000000
00101000
00001000
00010000
00000010
,
00001000
00000100
00000010
00000000
00000000
00000000
00000000
00000000
;

//--------------- dance-double - M. Emirzian ----------------
#NOTES:
     dance-double:
     M. Emirzian:
     Challenge:
     10:
     0.793878,0.730483,0.758943,0.050596,0,659,569,90,6,3,0,0.793878,0.730483,0.758943,0.050596,0,659,569,90,6,3,0:
00000000
00000000
00000000
00000000
,
00000000
00000000
00000000
00000000
,
00000000
00000000
00000000
00000000
,
00000000
00000000
00000000
00000000
,
10000000
01000000
00100000
00010000
00200000
00000000
00310000
01000000
,
00010000
00100000
00001000
00000000
00011000
00000000
00010010
00000000
,
00001000
00000100
00000010
00000001
00000020
00000000
00000130
00001000
,
00000010
00001000
00000100
00000000
00M01001
00000000
00001100
00000000
,
00010000
00001000
01000000
00010000
00200000
00000000
00301000
00010000
,
00100000
01000000
00010000
00000000
10100000
00000000
10010000
00000000
,
00100000
01000000
10000000
00100000
01000000
00010000
10000000
00010000
,
01100000
00101000
00011000
00010100
,
00001000
00000010
00001000
00000100
00000010
00000001
00000010
00000000
,
00000100
00001000
00000010
00000000
00000100
00000000
00000001
00000000
,
00000010
00000100
00010000
00001000
00010000
01000000
00100000
00000000
,
00101000
00110000
11000000
10010000
,
01000000
00100000
10000000
01000000
00100000
00010000
01000000
00000000
,
00100000
01000000
00001000
00000000
10000000
00000000
01000000
00000000
,
00100000
00010000
10000000
01000000
00010000
00001000
00000010
00000000
,
00000110
00010010
00001100
00000011
,
00000100
00000010
00001000
00000100
00000010
00000001
00000100
00000000
,
00000010
00010000
00001000
00000100
00000010
00000100
00000001
00000000
,
00000010
00000100
00010000
00100000
00010000
00001000
01000000
00000000
,
00100000
10000000
01000000
00000000
00110000
00000000
10010000
00000000
,
01000000
00100000
00010000
00001000
00100000
01000000
00010000
00000000
,
00001000
00010000
01000000
00100000
00001000
01000000
00100000
00000000
,
10000000
01000000
00100000
00001000
00000010
00000001
00000100
00000000
,
00000001
00000100
00000010
00000000
00010010
00000000
00001100
00000000
,
00000010
00001000
00010000
00000010
00000100
00001000
00000100
00000000
,
00000001
00000010
00000100
00001000
00000010
00000100
00000001
00000000
,
00000100
00001000
00100000
00010000
10000000
01000000
00010000
00000000
,
10000000
00100000
00010000
00000000
11000000
00000000
00110000
00000000
,
10000000
00100000
01000000
00001000
00010000
00100000
00010000
00000000
,
00001000
00010000
01000000
10000000
00010000
00100000
00001000
00000000
,
00000100
00000001
00000010
00000001
00001000
00000100
00000010
00000000
,
00001000
00000010
00000001
00000000
00001100
00000000
00001010
00000000
,
00000100
00000000
00000101
00000000
00000010
00001000
00010000
00000000
,
01001000
00000000
00110000
00000000
10000000
00100000
00010000
00000000
,
01010000
00000000
00101000
00000000
00010000
01000000
10000000
00000000
,
00100000
10000000
01000000
00010000
10000000
00100000
00010000
01000000
,
10010000
M00M0000
00100000
10000000
01000000
10000000
00200000
00000000
,
01300000
00010000
00100000
00001000
00010000
00000000
00010010
00000000
,
00011000
00000000
00000100
00001000
00000010
00001000
00000200
00000000
,
00000310
00000001
00000100
00000010
00001000
00000000
00001001
00000000
,
00000011
00000000
00000100
00010000
00001000
00100000
02000000
00000000
,
03100000
00010000
01000000
00010000
00100000
00000000
11000000
00000000
,
00110000
00000000
01000000
10000000
00100000
01000000
00010000
00100000
,
01000000
11000000
01100000
00101000
,
01010000
00000000
00001000
00100000
00001000
00000010
00000001
00000100
,
00000010
00000000
00001000
00000100
00000010
00000000
00000001
00000000
,
00000100
00000000
00000010
00010000
00001000
00000100
00000001
00001000
,
00000100
00000101
00001100
00010010
,
00011000
00000000
00001000
01000000
00010000
00100000
01000000
10000000
,
00010000
00000000
01000000
00100000
00010000
00000000
10000000
00000000
,
01000000
00000000
00010000
00100000
10000000
00010000
01000000
10000000
,
00010000
01001000
00011000
00010010
,
00001100
00000000
00000010
00000001
00001000
00000010
00010000
00001000
,
00000010
00000000
00000001
00001000
00000100
00000001
00001000
00000010
,
00000001
00000000
00000100
00000010
00010000
00100000
10000000
00010000
,
00100000
00000000
01000000
10000000
00100000
00000000
01010000
00000000
,
00110000
00000000
00100000
01000000
10000000
00010000
00100000
00001000
,
00010000
00000000
00100000
10000000
00100000
01000000
00001000
00100000
,
01000000
00000000
00010000
00000100
00000010
00000001
00000010
00000100
,
00001000
00000000
00000001
00000100
00000010
00000000
00001010
00000000
,
00001001
00000000
00000010
00000100
00010000
00001000
00000100
00000010
,
00001000
00000000
00000100
00000010
00001000
00100000
00001000
00010000
,
01000000
00000000
10000000
00100000
00010000
10000000
01000000
00010000
,
00100000
00000000
01000000
10000000
00100000
00000000
01010000
00000000
,
10100000
00000000
10000000
01000000
00100000
00001000
00010000
00100000
,
01000000
00000000
00001000
00000100
00000001
00001000
00000100
00010000
,
00001000
00000000
00000100
00000010
00001000
00000100
00000010
00000001
,
00000010
00000000
00000001
00000100
00000010
00000000
00001010
00000000
,
00010010
00000000
00001000
00000000
01001000
00000000
00010000
01000000
,
00100000
00000000
10010000
00000000
01010000
00000000
00001000
00100000
,
00010000
00000000
01001000
00000000
00010100
00000000
00001000
00000100
,
00000010
00000000
00000001
00001000
00000001
00001000
00000001
00001000
,
00000001
00000010
00001000
00010000
00001000
00100000
01000000
00010000
,
00001000
01000000
00100000
10000000
01000000
00010000
10000000
00100000
,
00001000
00010000
00000010
00001000
00000100
00000010
00000001
00001000
,
00000010
00010000
00001000
00000100
00000010
00010000
00100000
01000000
,
00001000
01000000
00010000
00100000
01000000
10000000
00010000
00100000
,
00001000
00010000
00000100
00000010
00001000
00000010
00000001
00001000
,
00000100
00000001
00001000
00010000
00000010
00010000
00100000
01000000
,
00010000
00100000
01000000
10000000
00100000
01000000
00010000
00000000
,
10010000
00000000
11000000
00000000
00100000
01010000
00000000
00100000
,
00101000
00000000
00001000
00011000
00000000
00000100
00001010
00000000
,
00001100
00000000
00000011
00000000
00000100
00001001
00000000
00000100
,
00001010
00000000
00000010
00010010
00000000
00001000
00010100
00000000
,
00011000
00000000
01001000
00000000
00100000
10010000
00000000
01000000
,
00110000
00000000
01000000
01001000
00000000
00100000
01100000
00000000
,
10010000
00000000
00100000
10000000
01000000
00000000
00100000
00010000
,
01000000
00000000
01010000
00000000
01001000
00000000
00001000
00010000
,
00000100
00000000
00000010
00000001
00000100
00000000
00000010
00001000
,
00000100
00000000
00000011
00000000
00001001
00000000
00001000
00000010
,
00010000
00000000
00001000
00010000
00000100
00000000
00011000
00000000
,
00101000
00000000
01100000
00000000
00100000
10000000
00010000
01000000
,
10000000
00100000
10010000
00000000
00000000
00000000
00000000
00000000
;

//--------------- lights-cabinet - ----------------
#NOTES:
     lights-cabinet:
     :
     Easy:
     1:
     0.774604,1.055141,1.028789,0.016865,0,643,443,122,2,0,39,0.774604,1.055141,1.028789,0.016865,0,643,443,122,2,0,39:
000000
000000
000000
000000
,
000000
000000
000000
000000
,
110000
000000
110000
000000
,
001100
000000
001100
000000
,
010000
001000
010000
000000
100000
000000
010000
000000
,
000100
100000
000100
000100
,
100000
000100
100000
010000
,
000100
000000
100000
010000
001000
000000
000000
000000
,
000100
010000
000100
100000
,
000100
000100
100100
011000
,
100000
000000
010000
000000
100000
000000
100000
010000
,
001000
000000
000100
000100
,
100000
010000
100000
000000
000100
001000
000100
000000
,
001000
010000
100000
100000
010000
001000
000100
000000
,
000100
001000
010000
000000
100000
000000
100000
000000
,
000100
011000
100000
011000
,
100000
010000
100000
000000
000100
001000
000100
000000
,
001000
010000
100000
100000
010000
001000
000100
000000
,
000100
001000
010000
000000
100000
000000
010000
000000
,
100100
011000
001100
110000
,
100100
111100
011000
111100
,
100100
111100
011000
111100
,
011000
001100
110000
001100
,
111100
111100
111100
000000
,
100100
111100
011000
111100
,
100100
111100
011000
111100
,
011000
001100
110000
001100
,
111100
111100
111100
000000
,
001000
010000
001000
000000
100000
000000
100000
000000
,
000100
100000
000100
000000
010000
000000
010000
000000
,
001000
100000
001000
000000
000100
000000
000100
000000
,
010000
100000
010000
000000
001000
000000
001000
000000
,
100100
001000
010000
000100
100000
010000
100000
000100
,
001000
000100
100000
010000
100000
000100
001000
000100
,
100000
011000
000100
011000
,
000100
111100
111100
111100
,
100000
000000
100000
000100
001000
001000
000000
000000
,
100100
000000
000100
100000
010000
010000
000000
000000
,
011000
000000
000100
100000
000100
000100
000000
000000
,
100000
010000
001000
001000
010000
100000
000100
100000
,
200200
300300
011000
000000
110000
000000
010000
000000
,
001100
100000
010000
001100
,
100000
000000
010000
000000
100000
000100
100000
000000
,
001000
001100
010000
110000
,
100000
010000
001000
000000
000100
001000
010000
000000
,
100000
001000
100000
000000
000100
010000
000100
000000
,
010000
100000
000100
010000
,
100100
011000
111100
111100
,
111100
000000
000100
001000
000100
000000
100000
010000
,
100000
000000
010000
001000
000100
000100
001000
010000
,
100000
000000
100000
010000
001000
000000
000100
010000
,
001000
100100
011000
100100
,
000000
000000
000100
001000
000100
000000
100000
010000
,
100000
000000
010000
001000
000100
000100
001000
010000
,
100000
000000
100000
010000
001000
000000
000100
000000
,
001000
100100
011000
110000
,
011000
100100
111100
011000
,
111100
100100
111100
011000
,
111100
011000
001100
110000
,
001100
111100
111100
111100
,
000000
100100
111100
011000
,
111100
100100
111100
011000
,
111100
011000
001100
110000
,
001100
111100
111100
111100
,
000000
000000
001000
010000
001000
000000
100000
000000
,
100100
000000
011000
100000
000100
000000
010000
000000
,
010100
000000
001000
100000
001000
000000
100100
000000
,
100100
000000
000100
100000
001000
000000
100000
010000
,
100000
000000
000100
000000
011000
000000
000100
100000
,
011000
010000
111100
011000
,
110000
000000
000100
001000
000100
000000
100000
010000
,
100000
000100
111100
111100
,
111100
000000
100000
000000
100000
000100
001000
001000
,
000000
000000
100100
000000
000100
100000
010000
010000
,
000000
000000
011000
000000
000100
100000
000100
000100
,
000000
000000
100000
010000
001000
001000
010000
100000
,
000100
000000
000100
000000
000100
100000
000100
000000
,
100000
000000
100000
000000
100000
000100
100000
000000
,
001000
000000
001000
000000
001000
010000
001000
000000
,
010000
000000
010000
000000
010000
001000
010000
000000
,
100100
001000
100100
000000
100000
000000
010000
000000
,
001000
000000
000100
001000
010000
000000
000100
000000
,
010000
000000
100000
010000
001000
000000
000000
000000
,
000100
000000
100000
000100
100000
000100
100000
000000
,
000000
000000
100000
000000
001000
000100
000000
001000
,
100000
000000
010000
000100
000000
001000
100100
000000
,
000000
000000
000100
000000
010000
100000
000000
010000
,
000100
000000
001000
100000
000000
010000
100100
000000
,
000000
000000
010000
000000
100000
001000
000000
100000
,
010000
000000
000100
001000
000000
100000
000100
000000
,
000000
100000
001000
010000
,
001000
010000
001000
010000
,
001000
000100
001000
100000
,
001000
100000
001000
100000
,
001000
100000
010000
000100
,
010000
000100
110000
001100
,
110000
111100
000000
000000
;
