#TITLE:Mythology;
#SUBTITLE:;
#ARTIST:Digital Explosion;
#TITLETRANSLIT:;
#SUBTITLETRANSLIT:;
#ARTISTTRANSLIT:;
#GENRE:;
#CREDIT:;
#MUSIC:Mythology.ogg;
#BANNER:mythology.png;
#BACKGROUND:Mythology-bg.png;
#CDTITLE:;
#SAMPLESTART:76.493;
#SAMPLELENGTH:11.840;
#SELECTABLE:YES;
#OFFSET:0.003;
#BPMS:0.000=137.980;
#STOPS:;
#BGCHANGES:;
#FGCHANGES:;

//--------------- dance-single - M. Puls ----------------
#NOTES:
     dance-single:
     M. Puls:
     Beginner:
     1:
     0.074391,0.084028,0,0,0,66,66,0,0,0,0,0.074391,0.084028,0,0,0,66,66,0,0,0,0:
0000
0000
0000
0000
,
0000
0000
0000
0000
,
0000
0000
0000
0000
,
0000
0000
0000
0000
,
0001
0000
0000
0000
,
0000
0000
0000
0000
,
1000
0000
0000
0000
,
0000
0000
0000
0000
,
0001
0000
0000
0000
,
0010
0000
0000
0000
,
0001
0000
0000
0000
,
1000
0000
0000
0000
,
0100
0000
0000
0000
,
1000
0000
0000
0000
,
0100
0000
0000
0000
,
0010
0000
0000
0000
,
0100
0000
0000
0000
,
1000
0000
0000
0000
,
1000
0000
0000
0000
,
0001
0000
0000
0000
,
0001
0000
0000
0000
,
1000
0000
0000
0000
,
0100
0000
0000
0000
,
0010
0000
0000
0000
,
0001
0000
0000
0000
,
1000
0000
0000
0000
,
0100
0000
0000
0000
,
1000
0000
0000
0000
,
0001
0000
0000
0000
,
0010
0000
0000
0000
,
0001
0000
0000
0000
,
0001
0000
0000
0000
,
0010
0000
0000
0000
,
0100
0000
0000
0000
,
1000
0000
0000
0000
,
1000
0000
0000
0000
,
0100
0000
0000
0000
,
1000
0000
0000
0000
,
0001
0000
0000
0000
,
0010
0000
0000
0000
,
0001
0000
0000
0000
,
0100
0000
0000
0000
,
0010
0000
0000
0000
,
0100
0000
0000
0000
,
0010
0000
0000
0000
,
1000
0000
0000
0000
,
0100
0000
0000
0000
,
0001
0000
0000
0000
,
0010
0000
0000
0000
,
0001
0000
0000
0000
,
0100
0000
0000
0000
,
0010
0000
0000
0000
,
1000
0000
0000
0000
,
0010
0000
0000
0000
,
0100
0000
0000
0000
,
0001
0000
0000
0000
,
0010
0000
0000
0000
,
0010
0000
0000
0000
,
0100
0000
0000
0000
,
0100
0000
0000
0000
,
0001
0000
0000
0000
,
0001
0000
0000
0000
,
1000
0000
0000
0000
,
1000
0000
0000
0000
,
1000
0000
0000
0000
,
0100
0000
0000
0000
,
1000
0000
0000
0000
,
0001
0000
0000
0000
,
0010
0000
0000
0000
,
0001
0000
0000
0000
,
0100
0000
0000
0000
,
0010
0000
0000
0000
;

//--------------- dance-single - M. Puls ----------------
#NOTES:
     dance-single:
     M. Puls:
     Easy:
     4:
     0.206267,0.284039,0.04734,0.14991,0,183,177,6,19,0,0,0.206267,0.284039,0.04734,0.14991,0,183,177,6,19,0,0:
0000
0000
0000
0000
,
0000
0000
0000
0000
,
0000
0000
0000
0000
,
0000
0000
0000
0000
,
1000
0000
0000
0000
,
0001
0000
0000
0000
,
0100
0000
0000
0000
,
0010
0000
0000
0000
,
1000
0001
0100
0000
,
0001
1000
0100
0000
,
1000
0000
0100
0000
,
0001
0000
0100
0000
,
0100
0010
0100
0000
,
1000
0001
1000
0000
,
0001
0001
0001
0000
,
1000
1000
1000
0000
,
0010
0001
0010
0001
,
0010
0001
0000
0000
,
0100
1000
0100
1000
,
0100
1000
0001
1000
,
0010
0000
1000
0100
,
1000
0001
0010
0001
,
1001
0000
1001
0000
,
1001
0000
0100
0000
,
1001
0000
1000
1000
,
0100
0000
0001
0001
,
0010
0000
0100
0100
,
0010
0000
0010
0010
,
0100
0000
1000
0100
,
0010
0000
0001
0001
,
0001
1000
0010
1000
,
0001
0010
0100
1000
,
0100
0000
0001
0001
,
0010
0000
1000
1000
,
0100
0000
0010
0010
,
0100
0000
0100
0100
,
0010
0000
0001
0010
,
0100
0000
1000
1000
,
1000
0001
0100
0001
,
1000
0100
0010
0001
,
0010
0000
0000
0000
,
1000
0000
0000
0000
,
0001
0000
0000
0000
,
0100
0000
0000
0000
,
0010
1000
0001
0100
,
0010
0100
0010
1000
,
0002
0000
0003
1000
,
0100
0001
1000
0010
,
0100
0010
0100
0001
,
2000
0000
3000
0001
,
1000
0000
0001
0000
,
0001
0000
1000
0000
,
2000
0000
3002
0000
,
0003
1000
0010
1000
,
0002
0000
2003
0000
,
3000
0001
0100
0001
,
1001
0000
1001
0000
,
2000
0000
0000
0000
,
3002
0000
0000
0000
,
0203
0000
0000
0000
,
0320
0000
0000
0000
,
0030
1000
1000
0100
,
0100
0010
0010
0001
,
0001
1000
1000
0010
,
0010
0100
0100
0001
,
0001
2000
3002
0203
,
0320
0000
0100
0000
,
0230
0000
0010
0000
,
0320
0000
0100
0000
,
0230
0000
0010
0000
,
0320
0000
0100
0000
,
0230
0000
0000
0000
,
0300
0000
0000
0000
;

//--------------- dance-single - M. Puls ----------------
#NOTES:
     dance-single:
     M. Puls:
     Medium:
     8:
     0.367448,0.511271,0.11046,0.362939,0.11046,326,312,14,46,0,0,0.367448,0.511271,0.11046,0.362939,0.11046,326,312,14,46,0,0:
0000
0000
0000
0000
,
0000
0000
0000
0000
,
0000
0000
0000
0000
,
0000
0000
0000
0000
,
0010
0000
0000
0000
,
1000
0000
0000
0100
,
0110
0000
0001
0000
,
1000
0001
0001
1000
,
2000
0000
3200
0000
0310
0001
0100
0000
,
0002
0000
0023
0000
0130
1000
0010
0000
,
1000
0000
0001
0100
0010
0200
0000
0300
,
0002
0000
0023
0000
0130
1000
0010
0000
,
2000
0000
3200
0000
0310
0001
0100
0000
,
0001
0000
1000
0010
0100
0020
0000
0030
,
1100
0000
0010
0001
0000
0000
0011
0000
,
1000
0000
1100
0000
0010
0001
0010
0000
,
0001
0000
0100
0000
0001
0000
0010
0001
,
0000
0100
0000
0001
0000
0100
0000
0000
,
0001
0000
1000
0010
1000
0001
0010
0001
,
0000
0100
0000
0001
0010
0100
1000
0000
,
0001
0000
0010
0000
0001
1000
0100
1000
,
0000
0010
0000
1000
0000
0010
0000
0000
,
1000
0000
1000
0000
0001
1000
0100
1000
,
0000
0010
0000
1000
0100
0010
0001
0000
,
1001
0000
0000
0000
1000
0000
0000
0100
0010
0000
0000
0100
0010
0000
0000
0000
,
1100
0000
0000
0000
0011
0000
0000
1000
0010
0000
0000
1000
0010
0000
0000
0000
,
0011
0000
0000
0000
1100
0000
0000
0001
0100
0000
0000
0001
0100
0000
0000
0000
,
1001
0100
0010
0000
0110
0000
0001
1000
,
0002
0000
0013
0000
0001
0200
0010
0310
,
0010
0000
0000
1000
0100
0000
0000
1000
0100
0000
0000
0000
0000
0000
0000
0000
,
1000
0000
0100
0000
1000
0010
0100
0000
,
0100
0000
0000
0001
0010
0000
0000
0001
0010
0000
1000
0000
0100
0000
1000
0000
,
0100
0000
0000
0000
0000
0000
0000
1000
0100
0000
0000
0010
0001
0000
0000
0000
,
0010
0000
0000
0000
0000
0000
0000
0001
0010
0000
0000
0100
1000
0000
0000
0000
,
0100
0000
0000
0000
0000
0000
0000
1000
0100
0000
0000
0010
0001
0000
0000
0000
,
0010
1000
0001
0000
0010
0100
1000
0000
,
2000
0000
3100
0000
1000
0020
0100
0130
,
0100
0000
0000
0001
0010
0000
0000
0001
0010
0000
0000
0000
0000
0000
0000
0000
,
0001
0000
0010
0000
0001
0100
0010
0000
,
0010
0000
0000
1000
0100
0000
0000
1000
0100
0000
0001
0000
0010
0000
0001
0000
,
0010
0000
0000
0000
0000
0000
0000
0001
0010
0000
0000
0100
1000
0000
0000
0000
,
0100
0000
0000
0000
0000
0000
0000
1000
0100
0000
0000
0010
0001
0000
0000
0000
,
0010
0000
0000
0001
0100
0000
0000
0100
1000
0000
0000
1000
0100
0000
0000
0100
,
0010
0001
1000
0000
0100
0010
0001
0000
,
2000
0000
0001
0000
3010
0000
1000
0001
,
0200
0000
0000
0300
,
0002
0000
1000
0000
0103
0000
0001
1000
,
0020
0000
0000
0030
,
2000
0000
0001
0000
3010
0000
1000
0001
,
0200
0000
0300
0010
0200
0000
0300
0000
,
0002
0000
1000
0000
0103
0000
0001
1000
,
0010
1000
0200
0300
,
2000
0000
0001
0000
3001
0000
0001
1000
,
0020
0000
0030
0100
0020
0000
0030
0000
,
2000
0000
0001
0000
3010
0000
1000
0001
,
0100
0001
0020
0030
,
1001
0000
1001
0000
2002
0000
0000
3003
,
0200
0000
0000
0300
0020
0000
0000
0030
,
2000
0100
0200
0300
,
3002
0010
0020
0030
,
1003
1000
0001
0100
0001
0001
1000
0100
,
2000
0000
0000
3000
0002
0000
0000
0003
,
1000
1000
0100
0000
0001
0001
0100
0000
,
1000
0100
0010
0001
1000
0100
0010
0001
,
0002
0000
0000
0003
2000
0000
0000
3000
,
0001
0010
0100
1000
0001
0010
0100
1000
,
2000
0000
0000
0000
0001
0000
0000
0001
,
3002
0000
0000
0000
0100
0000
0000
0100
,
0203
0000
0000
0000
0010
0000
0000
0010
,
0320
0000
1000
0000
,
1030
0100
2000
0000
0000
0000
0000
0000
,
3001
0010
0002
0000
0000
0000
1000
0000
,
0003
0000
0000
0000
;

//--------------- dance-single - R. McKanna ----------------
#NOTES:
     dance-single:
     R. McKanna:
     Hard:
     12:
     0.637961,0.73722,0.386609,0.01578,0.276149,566,517,49,2,0,0,0.637961,0.73722,0.386609,0.01578,0.276149,566,517,49,2,0,0:
0000
0000
0000
0000
,
0000
0000
0000
0000
,
0000
0000
0000
0000
,
0000
0000
0000
0000
,
2000
0001
0001
0001
,
3001
0000
0000
0110
,
0002
1000
1000
1000
,
1003
0000
0000
0110
,
1000
1000
0001
0000
1000
1000
0100
0000
,
0001
0001
1000
0000
0001
0001
0010
0000
,
1000
0100
0010
0000
0100
0010
0001
0000
,
0001
0010
0100
0000
0010
0100
1000
0000
,
0001
0001
0100
0000
0001
0001
0010
0000
,
1000
1000
0010
0000
1000
1000
0100
0000
,
0001
0100
0010
0000
0100
0010
1000
0000
,
1000
0010
0100
0000
0010
0100
0001
0000
,
1000
0000
1000
0000
1000
0000
0100
1000
0000
1000
0010
0000
0100
0000
0001
0000
,
0010
0000
0001
0000
0010
0000
0100
1000
0000
0000
0000
0000
0000
0000
0000
0000
,
0010
0000
0010
0000
0010
0000
0100
0001
0000
0001
1000
0000
0100
0000
0010
0001
,
0000
0000
0001
0000
0001
0000
1000
0100
0000
0000
0100
0000
0110
0000
0010
0000
,
0001
0000
0001
0000
0001
0000
0010
0001
0000
0001
0100
0000
0010
0000
1000
0000
,
0100
0000
1000
0000
0100
0000
0010
0001
0000
0000
0000
0000
0000
0000
0000
0000
,
0100
0000
0100
0000
0100
0000
0010
1000
0000
1000
0001
0000
0010
0000
0100
1000
,
0000
0000
0100
0000
0000
1000
0000
0000
0001
0000
0000
0010
0000
0000
0000
0000
,
0001
0000
1000
0000
0001
1000
0000
0000
1001
0000
0000
1000
0001
0000
1000
0000
,
0001
0000
0010
0000
0001
0010
0000
0000
0011
0000
0000
0010
0001
0000
0010
0000
,
0100
0000
1000
0000
0100
1000
0000
0000
1100
0000
0000
1000
0100
0000
1000
0000
,
0001
0000
1000
0000
0001
1000
0000
0000
0011
0000
0000
0010
0001
0000
0010
0000
,
0001
0000
0010
0000
0100
1000
0000
0000
0011
0000
0000
1000
0100
0000
0010
0000
,
0001
0000
1000
0000
0010
0100
0000
0000
0011
0000
0000
0100
0010
0000
1000
0000
,
0001
0000
0100
0000
0010
1000
0000
0000
0101
0000
0000
1000
0010
0000
0100
0000
,
0001
0000
1000
0000
0100
1000
0000
0000
1001
0000
0000
0000
1001
0000
0000
0000
,
1000
0000
0001
0000
1000
0001
0000
0000
1001
0000
0000
0001
1000
0000
0001
0000
,
1000
0000
0100
0000
1000
0100
0000
0000
1100
0000
0000
0100
1000
0000
0100
0000
,
0010
0000
0001
0000
0010
0001
0000
0000
0011
0000
0000
0001
0010
0000
0001
0000
,
1000
0000
0001
0000
1000
0001
0000
0000
1100
0000
0000
0100
1000
0000
0100
0000
,
1000
0000
0100
0000
0010
0001
0000
0000
1100
0000
0000
0001
0010
0000
0100
0000
,
1000
0000
0001
0000
0100
0010
0000
0000
1100
0000
0000
0010
0100
0000
0001
0000
,
1000
0000
0010
0000
0100
0001
0000
0000
1010
0000
0000
0001
0100
0000
0010
0000
,
1000
0000
0001
0000
0010
0001
0000
0000
1001
0000
0010
0000
1001
0000
0000
0000
,
0001
0000
1000
0000
0001
0100
0000
0000
1001
0000
0000
0100
0001
0000
1000
0000
,
1000
0000
0001
0000
1000
0100
0000
0000
1001
0000
0000
0100
1000
0000
0001
0000
,
0001
0000
1000
0000
0010
1000
0000
0000
1001
0000
0000
1000
0010
0000
1000
0000
,
1000
0000
0001
0000
0100
0001
0000
0000
1001
0000
0000
0001
0100
0000
0001
0000
,
1000
0100
0010
0100
1000
0010
0100
0001
,
0100
0001
1000
0100
0010
1000
0010
0100
,
1000
0010
0100
0010
1000
0100
0010
0001
,
0010
0001
1000
0010
0100
1000
0100
0010
,
1000
0100
0001
0100
1000
0100
0001
0100
,
0010
0000
0100
0000
0010
0000
0100
0000
1000
0000
0100
0000
1000
0100
1000
0000
,
0100
0001
0100
0010
0001
0100
1000
0100
,
0001
0000
0010
0000
0100
0000
0001
0000
0100
0000
1000
0000
0001
1000
0001
0000
,
0001
0100
1000
0100
0001
0100
1000
0100
,
0010
0000
0100
0000
0010
0000
0100
0000
0001
0000
0100
0000
0001
0100
0001
0000
,
0010
1000
0010
0100
1000
0010
0001
0010
,
1000
0000
0100
0000
0010
0000
1000
0000
0010
0000
0001
0000
1000
0001
1000
0000
,
1000
0000
0100
0000
0001
0100
0001
0000
0100
0000
1000
0000
0010
0001
0010
0000
,
1000
0000
0100
0000
0001
0000
1000
0000
0010
0000
0001
0000
0100
1000
0100
0000
,
0001
0000
0010
0000
1000
0010
1000
0000
0010
0000
0001
0000
0100
1000
0100
0000
,
0001
0010
1000
0001
0100
1000
0010
0100
,
0001
0010
0110
0100
1000
0010
0110
0100
,
0001
1000
1100
0100
1000
0001
0101
0100
,
0001
0100
0110
0010
1000
0100
0110
0010
,
0001
1000
1010
0010
1000
0001
0011
0010
,
0001
0100
0110
0100
0001
0100
1100
0100
,
0001
0010
0110
0010
0001
0010
1010
0010
,
0001
0100
1100
0100
0010
1000
1100
1000
,
0100
0001
0101
0001
0100
1000
1100
1000
,
0100
0010
0100
0000
0110
0000
0100
0000
1000
0100
1000
0000
1100
0000
1000
0000
,
0010
1000
0010
0000
1010
0000
0010
0000
0100
0010
0100
0000
0110
0000
0100
0000
,
0001
0100
0001
0000
0101
0000
0001
0000
0010
0001
0010
0000
0011
0000
0010
0000
,
0100
0010
0100
0000
0110
0000
0100
0000
1000
0010
1000
0000
1010
0000
1000
0000
;

//--------------- dance-single - M. Emirzian ----------------
#NOTES:
     dance-single:
     M. Emirzian:
     Challenge:
     16:
     0.836338,0.936516,0.749548,0,0.848173,742,647,95,0,0,0,0.836338,0.936516,0.749548,0,0.848173,742,647,95,0,0,0:
0000
0000
0000
0000
,
0000
0000
0000
0000
,
0000
0000
0000
0000
,
0000
0000
0000
0000
,
1000
0000
0010
0000
0100
0001
0010
0000
0100
0000
1000
0000
0010
1000
0100
0000
,
0010
0000
0001
0000
0100
0001
0010
0000
0100
0000
1001
0000
0110
0000
0000
0000
,
0100
0000
1000
0000
0001
0100
1000
0000
0001
0000
0010
0000
1000
0010
0001
0000
,
1000
0000
0010
0000
1000
0100
0001
0000
0100
0000
1001
0000
0001
0100
0000
0001
,
0010
0001
0100
1000
0100
0001
0011
0000
,
1010
0010
0001
0100
1000
0100
0101
0000
,
1100
0100
0001
0010
1000
0010
1010
0000
,
0011
0000
0010
0000
0001
0000
0100
0000
1000
0000
0100
0000
0001
0010
0000
0001
,
0100
1000
0100
0001
1000
0010
0011
0000
,
1010
0010
1000
0100
0001
0100
1100
0000
,
0101
0100
1000
0010
0001
0010
0011
0000
,
1010
0000
0010
0000
1000
0000
0100
0000
0010
0000
0001
0000
0100
1000
0000
0100
,
0001
0000
0010
0000
0100
1000
0000
0010
0000
0100
0001
0000
0010
0000
0100
0000
,
1000
0000
0010
0000
0100
0000
0001
0010
0000
0000
0100
0000
1001
0000
0000
0000
,
0100
0000
0010
0000
1000
0100
0000
0010
0000
0001
0100
0000
0010
0000
1000
0000
,
0001
0000
0010
0000
0100
0000
1000
0010
0000
0000
0100
0000
0001
0010
0000
0100
,
1000
0000
0001
0000
0100
1000
0000
0100
0000
0001
1000
0000
0010
0000
0001
0000
,
0010
0000
1000
0000
0100
0000
0010
0001
0000
0000
0100
0000
1010
0000
0000
0000
,
0100
0000
0010
0000
0001
0100
0000
0010
0000
1000
0100
0000
0010
0000
0001
0000
,
1000
0000
0010
0000
0100
0001
0000
0010
0100
0000
1000
0001
0000
0000
1000
0000
,
0100
0000
1010
0000
0000
0011
0000
0000
1010
0000
0000
1100
0000
0000
0110
0000
,
1001
0000
0110
0000
0000
1100
0000
0010
0100
0000
0000
0011
0000
0000
1100
0000
,
0000
0000
0101
0000
0000
1100
0000
0000
0101
0000
0000
0110
0000
0000
1001
0000
,
0110
0000
1001
0000
0000
1100
0000
0010
0001
0000
0100
0010
0000
1000
0100
0000
,
0010
0000
0011
0000
0000
0101
0000
0000
0011
0000
0000
0101
0000
0000
0110
0000
,
1001
0000
0110
0000
0000
1001
0000
0010
0100
0000
0000
1001
0000
0000
1010
0000
,
0000
0000
0011
0000
0000
1010
0000
0000
0011
0000
0000
0110
0000
0000
1001
0000
,
0110
0000
1001
0000
0000
0101
0000
0010
1000
0000
0100
0010
0000
0001
1000
0000
,
0100
0000
1001
0000
0000
0110
0000
0000
1100
0000
0000
0110
0000
0000
0011
0000
,
1001
0000
0110
0000
0000
0101
0000
0010
1000
0000
0000
1100
0000
0000
0011
0000
,
0000
0000
1010
0000
0000
0011
0000
0000
0101
0000
0000
1100
0000
0000
0101
0000
,
1001
0000
1010
0000
0000
0011
0000
1000
0100
0000
0010
0001
0000
0100
0010
0000
,
1000
0000
0110
0000
0000
1100
0000
0000
0101
0000
0000
0110
0000
0000
1010
0000
,
0011
0000
1001
0000
0000
0101
0000
0010
1000
0000
0000
1100
0000
0000
0101
0000
,
0000
0000
1100
0000
0000
0110
0000
0000
1001
0000
0000
0110
0000
0000
0101
0000
,
1001
0000
1010
0000
0000
0101
0000
0010
0100
0000
1000
0010
0000
0100
0001
0000
,
0010
0000
1001
0000
0000
0110
0000
0000
1100
0000
0000
0101
0000
0000
0100
0000
,
1000
0000
0010
0000
0000
0100
0000
0001
1000
0000
0000
0100
0000
0000
0010
0000
,
0000
0000
0001
0000
0000
0100
0000
0000
0010
0000
0000
1000
0000
0000
0100
0000
,
0010
0000
0001
0000
0100
0010
1000
0100
,
0010
0001
1000
0010
0001
0010
1000
0001
,
0010
0100
1000
0001
0100
0010
1000
0100
,
0010
0001
0010
1000
0010
0100
1000
0001
,
0100
0010
0001
0010
0100
0001
0010
0100
,
1000
0000
0001
0100
0010
0000
1000
0100
0010
0000
0001
0100
0000
0010
1000
0000
,
0001
0000
0100
0010
1000
0000
0100
0010
0001
0000
0100
0010
0000
0010
1000
0000
,
0100
0000
0010
0001
0100
0000
0010
1000
0100
0000
1000
0001
0000
0010
0100
0000
,
1000
0000
0001
0100
0010
0000
0100
0001
0010
0000
0100
1000
0000
0001
0100
0000
,
1001
0000
0010
1000
0100
0000
1000
0001
0010
0000
0100
1000
0000
0001
0010
0000
,
0100
0000
1000
0010
0100
0000
0010
1000
0100
0000
0010
0001
0000
0100
0010
0000
,
1001
0000
0100
0010
1000
0000
0001
0010
0100
0000
1000
0010
0000
0100
0001
0000
,
0010
0000
0100
1000
0010
0000
0100
0001
0010
0000
0001
0000
0100
0000
0010
0000
,
1000
0010
0100
0000
0001
0000
0010
0000
0100
1000
0001
0000
1000
0000
0010
0000
,
0100
0001
0010
0000
0100
1000
0001
0000
0010
0100
1000
0000
0010
0000
0100
0000
,
0001
0010
0100
0000
1000
0000
0010
0000
0100
0001
0010
0000
0100
0000
1000
0000
,
0010
0100
0001
0000
0010
0100
1000
0000
0010
0100
0001
0000
0010
0000
0100
0000
,
1000
0010
0001
0010
0100
0010
1000
0100
0010
0001
0100
0010
1000
0100
0001
0100
,
1000
0100
0010
1000
0010
0001
0010
0100
1000
0010
0100
0001
0100
1000
0100
0000
,
0001
0100
0010
1000
0010
0100
0001
0010
0100
1000
0010
0100
0001
0010
1000
0010
,
0001
0010
0100
1000
0010
0001
0010
0100
0010
1000
0100
0010
0001
0100
0010
0000
,
0100
0001
0100
1000
0001
0010
1000
0100
1000
0010
0100
0001
0010
0100
1000
0001
,
0010
0100
1000
0001
0100
1000
0100
0010
1000
0010
0100
0001
0010
0100
1000
0000
,
0001
0100
1000
0100
0001
0100
0010
1000
0010
0001
0010
0100
0010
1000
0001
0010
,
0100
1000
0010
0100
0001
0100
0010
1000
0100
0010
0001
0010
0100
1000
0001
0000
,
0100
0010
1000
0100
1000
0010
1000
0100
1000
0100
0010
0001
0100
0001
0010
0001
,
0100
1000
0100
0001
0100
1000
0100
0001
0010
0100
1000
0010
0100
0001
1000
0100
,
1000
0001
0010
0100
1000
0010
0001
0010
1000
0100
0010
0001
1000
0100
0010
0100
,
0010
0001
0100
0010
1000
0100
0001
0100
1000
0100
0001
0100
1000
0100
0010
0001
;

//--------------- dance-double - M. Emirzian ----------------
#NOTES:
     dance-double:
     M. Emirzian:
     Easy:
     4:
     0.22092,0.255414,0,0.00789,0,196,196,0,1,0,0,0.22092,0.255414,0,0.00789,0,196,196,0,1,0,0:
00000000
00000000
00000000
00000000
,
00000000
00000000
00000000
00000000
,
00000000
00000000
00000000
00000000
,
00000000
00000000
00000000
00000000
,
10000000
00000000
01000000
00000000
,
00100000
00010000
00100000
00000000
,
00001000
00000000
00010000
00000000
,
00000100
00001000
00000100
00000000
,
00000010
00000000
00000001
00000000
,
00000010
00000000
00000100
00000000
,
00010000
00000000
00001000
00000000
,
01000000
00000000
00100000
00000000
,
10000000
00000000
01000000
00000000
,
00100000
00000000
00001000
00000000
,
00010000
00000000
00000100
00000000
,
00000010
00000001
00000010
00000000
,
00000100
00000000
00001000
00000000
,
00000010
00010000
00001000
00000000
,
01000000
00000000
00100000
00000000
,
10000000
01000000
00100000
00000000
,
00001000
00000000
00010000
00000000
,
00000100
00001000
00000010
00000000
,
00000100
00000000
00000001
00000000
,
00000010
00000100
00001000
00000010
,
00010000
00010000
00001000
00000000
,
01000000
01000000
00100000
10000000
,
00000000
01000000
01000000
00100000
,
00000000
00001000
00010000
00010000
,
00000000
00000100
00000010
00000010
,
00000000
00000001
00000100
00000100
,
00000010
00000000
00010000
00001000
,
00001000
00000000
01000000
00100000
,
00100000
00000000
10000000
00000000
,
01000000
00100000
00010000
00000000
,
00100000
00000000
00001000
00000000
,
00010000
00000100
00001000
00000000
,
00000010
00000000
00000100
00000000
,
00000001
00000010
00000100
00000000
,
00001000
00000000
00000001
00000000
,
00000100
00000010
00010000
00000000
,
00001000
00010000
00001000
00000000
,
01000000
00010000
01000000
00000000
,
00100000
10000000
00100000
00000000
,
01000000
00010000
00100000
01000000
,
10000000
00000000
10000000
00000000
,
00010000
00100000
00010000
00000000
,
00100000
00000000
00100000
00000000
,
00001000
00010000
00001000
00000000
,
00000100
00000000
00000100
00000000
,
00000001
00000010
00000001
00000010
,
00000100
00000000
00000100
00000000
,
00010000
00001000
00010000
00001000
,
01000000
00000000
01000000
00000000
,
00100000
10000000
00100000
01000000
,
00010000
00000000
00010000
00000000
,
00100000
00001000
00010000
00001000
,
00000100
00000100
00000001
00000001
,
00000010
00000010
00000100
00000000
,
00001000
00001000
00000010
00000010
,
00010000
00010000
00001000
00000000
,
01000000
01000000
00100000
00100000
,
10000000
10000000
01000000
00000000
,
00100000
00100000
00001000
00001000
,
00010000
00010000
00000100
00000000
,
00001000
00001000
00000010
00000010
,
00000100
00000100
00000001
00000000
,
00000010
00000010
00000100
00000100
,
00010000
00010000
00001000
00000000
,
01000000
01000000
00100000
00100000
,
10000000
10000000
01000000
00100000
,
00010000
00000000
01000000
00000000
,
00001000
00000000
00000000
00000000
00010000
00000000
00000000
00000000
00000010
00000000
00000000
00000000
00002000
00000000
00000000
00003000
;

//--------------- dance-double - M. Emirzian ----------------
#NOTES:
     dance-double:
     M. Emirzian:
     Medium:
     8:
     0.475653,0.510827,0.362939,0.04734,0.011835,422,376,46,6,0,0,0.475653,0.510827,0.362939,0.04734,0.011835,422,376,46,6,0,0:
00000000
00000000
00000000
00000000
,
00000000
00000000
00000000
00000000
,
00000000
00000000
00000000
00000000
,
00000000
00000000
00000000
00000000
,
20000000
00000000
31000000
00010000
,
00001000
00000010
00001000
00000000
,
00020000
00000000
00031000
00000100
,
00001000
00010000
00000010
00000000
,
00010000
00000000
00001000
00010000
00001000
00000000
00010000
00000000
,
00001000
00010000
00001000
00000000
00010000
00100000
00010000
00000000
,
00100000
10000000
00100000
00000000
10000000
01000000
10000000
00000000
,
01000000
00010000
01000000
00000000
00010000
00001000
00010000
00000000
,
00001000
00000010
00001000
00000000
00000010
00000001
00000010
00000000
,
00000001
00000100
00000001
00000000
00000100
00001000
00000100
00000000
,
00001000
00010000
00001000
00000000
00010000
01000000
00010000
00000000
,
01000000
10000000
01000000
00010000
01000000
10000000
00100000
00000000
,
10010000
00000000
10000000
00000000
01000000
00000000
00100000
00001000
,
00100000
00000000
00000000
00000000
00010000
00000000
00000000
02000000
00000000
00000000
00000000
00000000
03001000
00000000
00000000
00000000
,
00011000
00000000
00010000
00000000
00000100
00010000
00000100
00000000
,
00001000
00000000
00000010
00001000
00000100
00001000
00000020
00000000
,
00000130
00000000
00000001
00000000
00001000
00000000
00000100
00010000
,
00000100
00000000
00000000
00000000
00001000
00000000
00000000
00000020
00000000
00000000
00000000
00000000
00000130
00000000
00000000
00000000
,
00010010
00000000
00001000
00000000
00010000
00000000
00000100
00010000
,
00000100
00000000
00001000
00000100
00001000
00000010
00000100
00000001
,
00000020
00000130
00001000
00000001
,
00001100
00001000
00011000
00101000
,
01010000
00100000
10000000
01000000
,
00100000
00000000
00001000
00010000
00001000
00000000
00000010
00001000
,
00000010
00000001
00000100
00000000
00000010
00000000
00001000
00000000
,
00010010
00001000
00101000
01010000
,
01100000
00010000
01000000
10000000
,
01000000
00000000
00010000
01000000
00010000
00000000
00100000
00001000
,
00010000
01000000
00000000
00010000
00001000
00000000
00010000
00000100
,
00000010
00000000
00000001
00000100
00001000
00000000
00010000
01000000
,
10000000
00000000
00100000
00000000
10000000
00000000
01000000
00010000
,
00001000
00000000
00010000
00001000
00000010
00000001
00000100
00000010
,
00000100
00000100
00000000
00000000
00000100
00000000
00000001
00000000
,
00000100
00001010
00000100
00010100
,
00011000
01001000
00110000
01000000
,
10000000
00000000
00100000
00010000
00100000
00000000
00010000
00001000
,
00100000
00000000
01000000
00000000
00010000
00000000
00001000
00010000
,
00001000
00000000
00000100
00001000
00000100
00000001
00000010
00000000
,
00000100
00001000
00000001
00000100
00000010
00001000
00000100
00000010
,
00001000
00010000
00001000
00010000
01000000
10000000
00100000
00000000
,
10000000
01000000
00100000
00000000
00010000
01000000
00100000
00000000
,
10000000
01000000
00100000
00001000
00010000
00001000
00000100
00000000
,
00000001
00000010
00000100
00000000
00001000
00000010
00000100
00000000
,
00000001
00000100
00001000
00010000
00001000
00000100
00000010
00000000
,
00001000
00000000
00000100
00000000
00010000
00001000
01000000
00000000
,
00001000
00000000
00010000
00000000
00100000
01000000
00010000
00000000
,
01000000
00000000
00100000
00000000
01000000
00100000
10000000
00000000
,
01000000
00000000
00100000
00000000
01000000
00100000
00010000
00100000
,
00001000
00000000
00010000
00000000
00001000
00000100
00000010
00001000
,
00000100
00000010
00000100
00000010
00000001
00000100
00000010
00000000
,
00000100
00000000
00000001
00000000
00000010
00000100
00001000
00000000
,
00000010
00000100
00000001
00000100
00000010
00001000
00000100
00010000
,
00011000
00101000
01010000
10010000
,
01100000
01000000
10000000
00100000
00010000
00100000
10000000
00000000
,
01010000
00101000
00011000
00010010
,
00001010
00001000
00000100
00000001
00000100
00001000
00000010
00000000
,
00000101
00001001
00001100
00010010
,
00011000
00001000
00010000
01000000
00010000
00001000
00010000
00000000
,
01010000
01100000
11000000
00110000
,
01001000
01000000
00001000
00010000
00100000
00010000
00001000
00000000
,
00010010
00001100
00000011
00001001
,
00000110
00000100
00000001
00000010
00001000
00000010
00000001
00000000
,
00000110
00010100
00011000
01001000
,
01100000
01000000
00010000
00100000
10000000
00100000
00010000
00000000
,
10000000
01000000
00010000
01000000
10000000
01000000
00100000
00000000
,
00010000
01000000
00100000
00010000
00001000
00010000
00001000
00000000
,
00000100
00000001
00000010
00001000
00000010
00000001
00000100
00001000
,
00010000
00000000
00001000
00000000
00000100
00000000
00001000
00000000
00010000
00000000
01000000
00000000
10000000
00000000
00010000
01000000
;

//--------------- dance-double - M. Emirzian ----------------
#NOTES:
     dance-double:
     M. Emirzian:
     Hard:
     9:
     0.639089,0.681103,0.260369,0.02367,0.489179,567,534,33,3,3,0,0.639089,0.681103,0.260369,0.02367,0.489179,567,534,33,3,3,0:
00000000
00000000
00000000
00000000
,
00000000
00000000
00000000
00000000
,
00000000
00000000
00000000
00000000
,
00000000
00000000
00000000
00000000
,
10000000
00000000
00100000
00000000
01000000
00000000
00000000
00000000
00210000
00000000
00000000
00000000
00310000
00000000
00001000
00M00000
,
00000010
00000000
00001000
00000000
00010000
00000000
00000000
00000000
00001020
00000000
00000000
00000000
00000130
00000000
00000000
000000M0
,
00001000
00000000
00000001
00000000
00000100
00000000
00000000
00000000
00001200
00000000
00000000
00000000
00001300
00000000
00010000
00000M00
,
01000000
00000000
00010000
00000000
00001000
00000000
00000000
00000000
00101000
00000000
00000000
00000000
01000000
00100000
00000000
00100000
,
00010000
00001000
00010000
00000000
01000000
10000000
00100000
00000000
,
00010000
00001000
00010000
00000000
01000000
10000000
00100000
00000000
,
01000000
00010000
10000000
00000000
01000000
00010000
00001000
00000000
,
00010000
00000000
00000010
00000000
00001000
00000000
00000100
00000000
00000001
00000000
00000100
00000000
00001000
00000001
00000000
00000001
,
00000100
00001000
00010000
00001000
00000010
00001000
00010000
00000000
,
00001000
00000100
00000001
00000000
00000010
00001000
00010000
00000000
,
00100000
10000000
01000000
00000000
00010000
00001000
00000100
00000000
,
00000001
00000000
00000010
00000000
00000100
00000000
00000000
00000000
00001001
00000000
00001000
00000000
00000001
00000100
00000000
00000100
,
00000010
00000000
00001000
00000000
00000010
00000000
00000000
00000100
00000000
00000000
00000001
00000000
00000100
00000000
00001000
00000000
,
00010000
00000000
01000000
00000000
00100000
00000000
00000000
00010000
00000000
00000000
00000000
00000000
01000000
00000000
00000000
00000000
,
00100000
00000000
10000000
00000000
01000000
00000000
00000000
00010000
00000000
00000000
01000000
00000000
10000000
00000000
00100000
00000000
,
01000000
00000000
00001000
00000000
00010000
00000000
00000000
00001000
00000000
00000000
00000100
00000000
00000010
00000000
00000000
00000000
,
00001000
00000000
00000100
00000000
00000001
00000000
00000000
00000100
00000000
00000000
00001000
00000000
00000010
00000000
00001000
00000000
,
00000100
00000000
00000010
00000000
00000001
00000000
00000000
00000100
00000000
00000000
00001000
00000000
00010000
00000000
00100000
00000000
,
10000000
00000000
00100000
00000000
01000000
00000000
00000000
00010000
00000000
00000000
00100000
00000000
01000000
00000000
10000000
00000000
,
00100000
00000000
00010000
00000000
00100000
10000000
00000000
01000000
00100000
00000000
00010000
01000000
00000000
00000000
00010000
00000000
,
10000000
00000000
01100000
00000000
00000000
01001000
00000000
00000000
00011000
00000000
00000000
00010100
00000000
00000000
00001000
00000000
,
00000010
00000000
00000100
00000000
00000000
00000001
00000000
00000010
00000100
00000000
00000000
00001000
00000000
00000000
00000001
00000000
,
00000000
00000000
00001001
00000000
00000000
00000010
00000000
00000000
00000100
00000000
00000000
00001000
00000000
00000000
00000001
00000000
,
00000100
00000000
00001000
00000000
00010000
00000000
00001000
00000000
00000010
00000100
00000010
00000000
00001000
00000000
00010000
00000000
,
00000000
00000000
00100000
00000000
00000000
00011000
00000000
00000000
00010000
00000000
00000000
00001000
00000000
00000000
00000100
00000000
,
00001000
00000000
00010000
00000000
00000000
01010000
00000000
00000000
01000000
00000000
00000000
10000000
00000000
00000000
00100000
00000000
,
00000000
00000000
00110000
00000000
00000000
00010000
00000000
00000000
00001000
00000000
00000000
00010000
00000000
00000000
01000000
00000000
,
10000000
00000000
00100000
00000000
00010000
00000000
00100000
00000000
10000000
00010000
10000000
00000000
01000000
00000000
00010000
00000000
,
00001000
00000000
00011000
00000000
00000000
00010010
00000000
00000000
00011000
00000000
00000000
01001000
00000000
00000000
00001000
00000000
,
00010000
00000000
00000010
00000000
00000000
00010100
00000000
00000000
00011000
00000000
00000000
00101000
00000000
00000000
00011000
00000000
,
00000000
00000000
00000110
00000000
00000000
00000101
00000000
00000000
00001010
00000000
00000000
00001001
00000000
00000000
00000001
00000000
,
00000010
00000000
00001000
00000000
00000010
00000000
00000001
00000000
00000100
00000010
00000100
00000000
00001000
00000000
00010000
00000000
,
01000000
00000000
00100000
00000000
00010000
00000000
01000000
00000000
00100000
00000000
00000000
01000000
00000000
00000000
00010000
00000000
,
10000000
01000000
00010000
01000000
10000000
00100000
01000000
00001000
,
00000000
00000000
00011000
00000000
00000000
00010010
00000000
00000000
00001100
00000000
00000000
00000011
00000000
00000000
00001010
00000000
,
00001000
00000000
00000010
00000000
00000001
00000000
00001000
00000000
00000010
00000100
00000010
00000000
00001000
00000000
00000001
00000000
,
00000100
00000000
00001000
00000000
00010000
00000000
00000100
00000000
00010000
00000000
00000000
00001000
00000000
00000000
00000100
00000000
,
00001000
00000000
00010000
00000000
00000000
00001000
00000000
00100000
00010000
00000000
00000000
01000000
00000000
00000000
00100000
00000000
,
10000000
00010000
00100000
00000000
01000000
10000000
00100000
00000000
,
01000000
00010000
00100000
10000000
00100000
00010000
01000000
00100000
,
00010000
00000000
00001000
00000000
00010000
00000000
00000000
00001100
00000000
00000000
00001000
00000000
00000100
00000000
00000001
00000000
,
00000010
00000100
00000010
00001000
00010000
00001000
00000100
00000000
,
00000001
00000000
00000100
00000000
00001000
00000000
00000000
00011000
00000000
00000000
00010000
00000000
00100000
00000000
10000000
00000000
,
01000000
00100000
01000000
00010000
01000000
10000000
00100000
00000000
,
10000000
01000000
00000000
00100000
00010000
00000000
00010000
00000000
00100000
00000000
00000000
01000000
00000000
00100000
00010000
00000000
,
01000000
00001000
00000000
00010000
00000000
00001000
00010000
00000000
00000010
00001000
00000000
00000100
00000000
00000010
00000001
00000000
,
00000100
00000000
00000000
00000010
00001000
00000000
00001000
00000000
00000100
00000000
00000000
00000010
00000000
00001000
00000010
00000000
,
00000100
00010000
00000000
00001000
00010000
00000000
00000100
00000000
00010000
00001000
00000000
00100000
00000000
00100000
01000000
00000000
,
10000000
00100000
00000000
01000000
00010000
00000000
00010000
00000000
10000000
00000000
00000000
00100000
00000000
01000000
00001000
00000000
,
00010000
00001000
00000000
00000010
00000000
00000100
00001000
00000000
00000100
00000010
00000000
00000001
00000000
00000001
00001000
00000000
,
00000010
00000100
00000000
00001000
00000000
00000000
00010000
00000000
00001000
00000000
00000000
00100000
00000000
00001000
00010000
00000000
,
00100000
01000000
00000000
00010000
00100000
00000000
01000000
00000000
10000000
00010000
00000000
01000000
00000000
01000000
00100000
00000000
,
10000000
01000000
00010000
01000000
10000000
00100000
01000000
00001000
,
00010000
00001000
00010000
00000000
01000000
00000000
00010000
00000000
00001000
00010000
00001000
00000000
00000010
00000000
00000001
00000000
,
00000100
00000010
00000100
00001000
00000100
00000010
00010000
00001000
,
00100000
00010000
00100000
00000000
01000000
00000000
10000000
00000000
01000000
00100000
01000000
00000000
10000000
00000000
00010000
00000000
,
01000000
00001000
01000000
00000000
00001000
00010000
00001000
00000000
00000010
00000000
00000001
00000000
00000100
00000000
00000010
00000000
,
00001000
00000100
00001000
00000000
00000010
00010000
00000010
00000000
00010000
00000000
00001000
00000000
00000100
00000000
00001000
00000000
,
00010000
00001000
00010000
00000000
00001000
01000000
00001000
00000000
00010000
00000000
01000000
00000000
10000000
00000000
00100000
00000000
,
01000000
00010000
01000000
00000000
00100000
10000000
00100000
00000000
01000000
00000000
00001000
00000000
00010000
00000000
00000100
00000000
,
00010000
00000010
00010000
00000000
00000010
00001000
00000010
00000000
00000101
00000000
00001000
00000000
00000010
00000000
00000100
00000000
,
00000010
00001000
00000010
00000000
00010000
00000010
00010000
00000000
00001000
00000000
00000100
00000000
00001000
00000000
00010000
00000000
,
00100000
01000000
00100000
00000000
00010000
00001000
00010000
00000000
01000000
00000000
10000000
00000000
00100000
00000000
00010000
00000000
,
00100000
10000000
00100000
00000000
01000000
00010000
01000000
00000000
00100000
10000000
01000000
00100000
00010000
00000000
00100000
00000000
,
00001000
00010000
00001000
00000000
00010000
00000100
00010000
00000000
00001000
00000000
00000100
00000000
00000001
00000000
00000100
00000000
,
00000010
00001000
00000010
00000000
00010000
00000010
00010000
00000000
00001000
00010000
00001000
01000000
00010000
00000000
00100000
00000000
,
00010000
01000000
00100000
00000000
10000000
01000000
00100000
00000000
01000000
00000000
10000000
00000000
01000000
00000000
00010000
00000000
,
00001000
00000100
00000010
00000000
00000100
00000001
00000010
00000000
00000100
00001000
00000010
00000100
00000010
00000100
00001000
00010000
;

//--------------- dance-double - M. Emirzian ----------------
#NOTES:
     dance-double:
     M. Emirzian:
     Challenge:
     10:
     0.722497,0.936516,0.260369,0.03156,0.804778,641,608,33,4,15,0,0.722497,0.936516,0.260369,0.03156,0.804778,641,608,33,4,15,0:
00000000
00000000
00000000
00000000
,
00000000
00000000
00000000
00000000
,
00001000
0000M200
00000000
00000010
00000000
00001000
00000000
00010300
,
00000000
00000000
00001000
00000000
00000000
00000000
00000100
00000000
00000000
00000000
00001000
00000000
00010000
00100000
00000000
00100000
,
10000000
M2000000
00000000
10000000
00000000
00010000
00000000
13000000
,
00010000
002M0000
00000000
01000000
00000000
00010000
00000000
00301000
,
00010000
000M0020
00000000
00000100
00000000
00001000
00000000
00000031
,
00000010
00000000
00001000
00000000
00000100
00000000
00001000
00000000
00000010
00000000
00010000
00000000
00001000
00010000
00000000
00010000
,
00000100
00010000
00001000
01000000
00100000
10000000
01000000
00000000
,
00110000
001M0000
00010000
00001000
00000100
00001000
00010000
00000000
,
00001010
0000M010
00001000
00010000
01000000
00010000
00001000
00000000
,
00010000
00000000
00000010
00000000
00001000
00000000
00000010
00000000
00000100
00000000
00000001
00000000
00000010
00000100
00000000
00000100
,
00010000
00001000
00010000
00000010
00000100
00001000
00010000
00000000
,
00110000
001M0000
00010000
00001000
00000010
00001000
00010000
00000000
,
00001100
0000M100
00010000
00001000
01000000
00001000
00010000
00000000
,
00010000
00000000
00100000
00000000
00010000
00000000
00001000
00000000
00100000
00000000
01000000
00000000
10000000
00010000
00000000
00010000
,
01000000
00000000
10000000
00000000
01000000
00100000
00000000
00100000
00000000
00100000
10000000
00000000
01000000
00000000
00010000
00000000
,
00001000
00000000
00000100
00000000
00000001
00000000
00000100
00000010
00000000
00000000
00000000
00000000
00011000
00000000
00000000
00000000
,
00000000
00000000
10000000
00000000
01000000
00100000
00000000
01000000
00000000
00010000
01000000
00000000
00010000
00000000
00001000
01000000
,
00000000
00000000
01000000
00000000
00001000
00000000
00001000
00010000
00000000
00000000
00010000
00000000
00000010
00000000
000M0010
00000000
,
00000000
00000000
00000001
00000000
00000010
00001000
00000000
00001000
00000000
00001000
00000100
00000000
00010000
00000000
00001000
00000000
,
01000000
00000000
00100000
00000000
10000000
00000000
00010000
01000000
00000000
00000000
00000000
00000000
00011000
00000000
00000000
00000000
,
00000000
00000000
00000001
00000000
00000100
00001000
00000000
00000100
00000000
00000010
00001000
00000000
00000100
00000000
00000010
00000100
,
00000000
00000000
00010000
00000000
00001000
01000000
00000000
01000000
00100000
00000000
00000000
10010000
00000000
00000000
00000000
00000000
,
MM000000
00000000
11000000
00000000
00000000
00100000
00000000
00010000
10000000
00000000
00000000
01100000
00000000
00000000
00010000
00000000
,
01000000
00000000
00001000
00000000
00000000
00010000
00000000
00000010
00010000
00000000
00000000
00011000
00000000
00000000
00100010
00000000
,
00000000
00000000
00010010
00000000
00000000
00000001
00000000
00000010
00001000
00000000
00000000
00000110
00000000
00000000
00000100
00000000
,
00010000
00000000
00000010
00000000
00000000
00000100
00000000
00000010
00000100
00000000
00001000
00010000
00000000
00100000
01000000
00000000
,
00000000
00000000
00010000
00000000
10000000
00000000
01000000
00000000
00010000
00000000
00000000
00001000
00000000
00000000
01000000
00000000
,
00100000
00000000
00010000
00000000
00000000
00001000
00000000
00010000
00000100
00000000
00000000
00000110
00000000
00000000
00000011
00000000
,
00000000
00000000
00010100
00000000
00000000
00001100
00000000
00000010
00010000
00000000
00000000
00001100
00000000
00000000
00010000
00000000
,
00000100
00000000
00001000
00000000
00000000
00000010
00000000
00000010
00000100
00000000
00001000
00010000
00000000
00100000
01000000
00000000
,
00000000
00000000
01001000
00000000
00000000
01000000
00000000
00010000
10000000
00000000
00000000
11000000
00000000
00000000
00100000
00000000
,
00010000
00000000
01000000
00000000
00000000
00001000
00000000
00010000
00000100
00000000
00000000
00011000
00000000
00000000
01000100
00000000
,
00000000
00000000
00010100
00000000
00000000
00000010
00000000
00000100
00001000
00000000
00000000
00000101
00000000
00000000
00000010
00000000
,
00010000
00000000
00001000
00000000
00000000
01000000
00000000
00100000
01000000
00000000
00001000
00010000
00000000
00000100
00000010
00000000
,
00000000
00000000
00000100
00000000
00010000
00000000
00001000
00000000
01000000
00000000
00000000
00110000
00000000
00000000
01000000
00000000
,
10000000
00000000
00100000
00000000
00000000
00010000
00000000
00100000
01000000
00000000
00000000
01001000
00000000
00000000
00011000
00000000
,
00000000
00000000
01000100
00000000
00000000
00010000
00000000
00001000
00000010
00000000
00000000
00000110
00000000
00000000
00000001
00000000
,
00000100
00000000
00001000
00000000
00000000
00000010
00000000
00000100
00000010
00000000
00010000
00001000
00000000
01000000
00100000
00000000
,
00000000
00000000
11000000
00000000
00000000
01000000
00000000
00010000
10000000
00000000
00000000
01010000
00000000
00000000
00100000
00000000
,
00001000
00000000
00010000
00000000
00000000
00000100
00000000
00010000
00001000
00000000
00000000
00001100
00000000
00000000
00000001
00000000
,
00000010
00000100
00001000
00000100
00010000
00000010
00000100
00001000
,
00010000
00001000
01000000
00010000
00100000
00010000
01000000
00100000
,
10000000
00010000
10000000
00010000
00000000
10000000
01000000
00100000
00010000
00000000
00100000
00000000
00010000
00000000
10000000
01000000
,
10000000
00000000
01000000
00100000
01000000
00000000
00100000
00010000
00000000
00010000
00100000
00000000
00001000
00010000
00001000
00010000
,
00000100
00000000
00001000
00000000
00000010
00000100
00000010
00000000
00001000
00000001
00000000
00000001
00000010
00000000
00000100
00000000
,
00010000
00000100
00001000
00000010
00000100
00001000
00010000
00000100
,
00010000
00001000
00000000
00001000
01000000
00000000
01000000
00000000
00010000
01000000
000M0000
01000000
00000000
01000000
00100000
00000000
,
10000000
00010000
00000000
01000000
00000000
00010000
00100000
00000000
00001000
00010000
00000000
00000100
00000000
00010000
00001000
00000000
,
00000100
00000010
00000000
00000010
00001000
00000000
00000001
00000000
00000010
00000100
000000M0
00000100
00000000
00000100
00001000
00000000
,
00000010
00010000
00000000
00010000
00001000
00000000
00010000
00000000
00000100
00001000
00000000
00000100
00010000
00000100
00001000
00000000
,
00000010
00010000
00000000
00010000
00001000
00000000
01000000
00000000
00100000
00010000
00M00000
00010000
00000000
00010000
10000000
00000000
,
01000000
00010000
00000000
10000000
00000000
01000000
00100000
00000000
00001000
00010000
00000000
00000100
00000000
00000100
00001000
00000000
,
00000001
00000100
00000000
00000100
00001000
00000000
00000100
00000000
00000010
00001000
000000M0
00001000
00000000
00001000
00000001
00000000
,
00000010
00000100
00000000
00010000
00001000
00000000
00010000
00000000
00000010
00010000
00000000
00001000
00010000
00001000
01000000
00000000
,
00010000
01000000
00100000
00000000
10000000
00000000
00010000
00000000
00100000
00001000
00010000
00000000
00001000
00000000
01000000
00000000
,
00010000
10000000
00010000
00000000
01000000
00100000
01000000
00000000
00010000
01000000
00001000
00000000
00010000
00000000
00000100
00000000
,
00001000
00000000
00000010
00001000
00000010
00000000
00000100
00000000
00000001
00000000
00000010
00000100
00000010
00000000
00001000
00000000
,
00000010
00000000
00000100
00001000
00000100
00001000
00000001
00000000
00000100
00000000
00000010
00001000
00000010
00000000
00010000
00000000
,
00001000
00000000
00010000
00000100
00000000
00000100
00010000
00000000
00001000
00000000
01000000
00001000
00000000
00001000
01000000
00000000
,
00001000
00000000
00100000
00010000
00000000
10000000
00100000
00000000
01000000
00010000
01000000
00000000
00001000
00000000
00010000
00000000
,
01000000
00000000
00100000
00010000
00100000
00000000
00001000
00000000
00010000
00000000
00000010
00001000
00000010
00000000
00001000
00000000
,
00000100
00000010
00000000
00000001
00001000
00000001
00000000
00000100
00000010
00000100
00000000
00000001
00001000
00000001
00001000
00000000
,
00000100
00000000
00000010
00000100
00001000
00000000
00000010
00010000
00001000
00000000
00010000
00000100
00001000
00000000
00000100
00000000
,
00010000
00000000
00001000
01000000
00010000
00000000
01000000
00100000
00010000
00000000
00100000
10000000
00010000
00000000
00100000
00000000
,
01000000
00000000
00100000
00001000
00000000
00001000
00010000
00000000
00000100
00010000
00001000
00000000
00010000
00000000
00000010
00000000
,
00001000
00000000
00000001
00000010
00000001
00000000
00000100
00000000
00000010
00000000
00000100
00000010
00000100
00000000
00001001
00000000
,
00000001
00000100
00000001
00000100
00000010
00001000
00000010
00001000
00000100
00001000
00000100
00010000
00001000
00010000
00001000
01000000
,
00001000
01000000
00010000
01000000
00010000
10000000
01000000
10000000
01000000
00100000
00010000
00100000
00010000
01000000
00001000
01000000
,
00001000
00010000
00000100
00010000
00000100
00001000
00000100
00000010
00000100
00000010
00000001
00001000
00000001
00001000
00000010
00000100
,
00000001
00001000
00000100
00000000
00000010
00000001
00000100
00000000
00000010
00010000
00001000
00010000
00001000
01000000
00010000
00100000
;

//--------------- lights-cabinet - ----------------
#NOTES:
     lights-cabinet:
     :
     Easy:
     1:
     0.503832,0.567092,0.528629,0,0.11835,447,368,67,0,0,6,0.503832,0.567092,0.528629,0,0.11835,447,368,67,0,0,6:
000000
000000
000000
000000
,
000000
000000
000000
000000
,
000000
000000
000000
000000
,
000000
000000
000000
000000
,
111100
011000
000100
010000
,
100100
001000
010000
010100
,
001000
100000
010100
100000
,
101000
010100
000100
100100
,
101000
000000
010000
000000
101000
000100
010000
000000
,
010100
000000
001000
000000
010000
100000
001000
000000
,
100100
000000
000100
010000
001000
010000
001000
000000
,
100100
000000
001000
000000
010000
100000
001000
000000
,
100000
000000
011000
000000
001000
000100
110000
000000
,
000100
000000
101000
001000
010000
001000
100000
000000
,
110000
000000
001000
000100
100000
000000
001100
000000
,
100000
000000
110000
000000
001000
000100
001000
000100
,
100000
000000
010100
000000
100000
000100
001000
000100
,
000000
010000
000000
000100
000000
010000
000100
000000
,
101000
000000
110000
001000
100100
010000
001000
100100
,
000000
000000
010100
100000
000000
000000
000100
000000
001000
000000
010000
000000
100000
000000
000000
000000
,
100100
000000
001000
000000
000100
100000
010000
100000
,
000100
001000
000100
100000
000000
101000
000000
000000
,
100100
000000
011000
000100
100000
011000
000100
100000
,
000000
000000
001000
000100
000000
000000
100000
000000
010000
000000
001000
000000
000100
000000
000000
000000
,
100100
000000
000000
000000
100000
000000
000000
010000
001000
000000
000000
010000
001000
000000
000000
000000
,
110000
000000
000000
000000
001100
000000
000000
100000
001000
000000
000000
100000
001000
000000
000000
000000
,
001100
000000
000000
000000
110000
000000
000000
000100
010000
000000
000000
000100
010000
000000
000000
000000
,
100100
010000
001000
000000
011000
000000
000100
100000
,
000100
000000
001000
000000
000100
010000
001000
001000
,
001000
000000
000000
100000
010000
000000
000000
100000
010000
000000
000000
000000
000000
000000
000000
000000
,
100000
000000
010000
000000
100000
001000
010000
000000
,
010000
000000
000000
000100
001000
000000
000000
000100
001000
000000
100000
000000
010000
000000
100000
000000
,
010000
000000
000000
000000
000000
000000
000000
100000
010000
000000
000000
001000
000100
000000
000000
000000
,
001000
000000
000000
000000
000000
000000
000000
000100
001000
000000
000000
010000
100000
000000
000000
000000
,
010000
000000
000000
000000
000000
000000
000000
100000
010000
000000
000000
001000
000100
000000
000000
000000
,
001000
100000
000100
000000
001000
010000
100000
000000
,
100000
000000
010000
000000
100000
001000
010000
010000
,
010000
000000
000000
000100
001000
000000
000000
000100
001000
000000
000000
000000
100100
000000
000000
000000
,
000100
000000
001000
000000
000100
010000
001000
000000
,
001000
000000
000000
100000
010000
000000
000000
100000
010000
000000
000100
000000
001000
000000
000100
000000
,
001000
000000
000000
000000
000000
000000
000000
000100
001000
000000
000000
010000
100000
000000
000000
000000
,
010000
000000
000000
000000
001100
000000
000000
100000
010000
000000
000000
001000
000100
000000
000000
000000
,
001000
000000
000000
000100
010000
000000
000000
010000
100000
000000
000000
100000
010000
000000
000000
010000
,
001000
000100
100000
000000
010000
001000
000100
000000
,
100000
000000
000100
000000
001000
000000
100000
000100
,
010000
110000
011000
111100
,
000100
000000
100000
000000
010000
000000
000100
100000
,
001000
110000
011000
111100
,
100000
000000
000100
000000
001000
000000
100000
000100
,
010000
000000
000000
001000
010000
000000
011000
000000
,
000100
000000
100000
000000
010000
000000
000100
100000
,
001000
100000
010000
111100
,
000100
000000
100000
000000
010000
000000
000100
100000
,
001000
000000
000000
010000
001000
000000
111100
000000
,
100000
000000
000100
000000
001000
000000
100000
000100
,
010000
000100
001000
000000
,
100100
011000
100100
000000
,
010000
001100
110000
111100
,
100000
010000
010000
001100
,
100000
011000
011000
000000
,
100000
100000
000100
010000
000100
000100
100000
010000
,
100000
011000
100100
011000
,
100000
100000
010000
000000
000100
000100
010000
000000
,
100000
010000
001000
000100
100000
010000
001000
000100
,
000100
011000
100000
011000
,
000100
001000
010000
100000
000100
001000
010000
000100
,
100000
000000
100100
000000
011000
000000
100100
010000
,
000100
000000
100000
010000
001000
000100
100000
100000
,
000100
011000
100000
011000
,
000100
001000
010000
100000
010000
001000
000100
100000
,
001000
010000
000100
000000
100000
010000
100000
000000
,
000100
001000
000100
100000
001000
010000
000100
100000
;
