#TITLE:My Favourite Game;
#SUBTITLE:;
#ARTIST:Natalie Browne;
#TITLETRANSLIT:;
#SUBTITLETRANSLIT:;
#ARTISTTRANSLIT:;
#GENRE:;
#CREDIT:;
#MUSIC:My Favourite Game.ogg;
#BANNER:My Favourite Game.png;
#BACKGROUND:My Favourite Game-bg.png;
#CDTITLE:;
#SAMPLESTART:1.770;
#SAMPLELENGTH:13.760;
#SELECTABLE:YES;
#OFFSET:0.003;
#BPMS:0.000=136.000
,100.000=68.000
,124.000=136.000
;
#STOPS:;
#BGCHANGES:;
#FGCHANGES:;

//--------------- dance-single - M. Puls ----------------
#NOTES:
     dance-single:
     M. Puls:
     Beginner:
     1:
     0.069872,0.12788,0.016303,0,0,60,58,2,0,0,0,0.069872,0.12788,0.016303,0,0,60,58,2,0,0,0:
0000
0000
0000
0000
,
0000
0000
0000
0000
,
0000
0000
0000
0000
,
0000
0000
0000
0000
,
0000
0000
0000
0000
,
1000
0000
0000
0000
,
0000
0000
0000
0000
,
0001
0000
0000
0000
,
1000
0000
0000
0000
,
0100
0000
0000
0000
,
0010
0000
0000
0000
,
0001
0000
0000
0000
,
1000
0000
0000
0000
,
0001
0000
0000
0000
,
0001
0000
0000
0000
,
0001
0000
0000
0000
,
0100
0000
0000
0100
,
0000
0000
0000
0000
,
1000
0000
0000
0000
,
0001
0000
0000
0000
,
0001
0000
0000
0000
,
0010
0000
0000
0000
,
0100
0000
0000
0000
,
1000
0000
0000
0000
,
0001
0000
0000
0000
,
1000
0000
0000
0000
,
1000
0000
0000
0000
,
0001
0000
0000
0000
,
0001
0000
1000
0000
,
1000
0000
0100
0000
,
0010
0000
0001
0000
,
0100
0000
0000
0000
,
0000
0000
0000
0000
,
1000
0000
0000
0000
,
1000
0000
0000
0000
,
1000
0000
0000
0000
,
0010
0000
0000
0010
,
0000
0000
0000
0000
,
1000
0000
0000
0000
,
0100
0000
0000
0000
,
1000
0000
0000
0000
,
0001
0000
0000
0000
,
0010
0000
0000
0000
,
0001
0000
0000
0000
,
0100
0000
0000
0000
,
0010
0000
0000
0000
,
0100
0000
0000
0000
,
1000
0000
0000
0000
,
1000
0000
0000
0000
,
0001
0000
0000
0000
,
0001
0000
0000
0000
,
0000
0000
0000
0000
,
0000
0000
0000
0000
,
1001
0000
0000
0000
,
0000
0000
0000
0000
,
1000
0000
1000
0000
,
0001
0000
0001
0000
,
0000
0000
0000
0000
,
0000
0100
0000
0100
,
0000
0000
0000
0000
,
0010
0000
0000
0000
,
0100
0000
0000
0000
,
0100
0000
0000
1001
;

//--------------- dance-single - R. McKanna ----------------
#NOTES:
     dance-single:
     R. McKanna:
     Easy:
     3:
     0.160705,0.230183,0.024455,0.065213,0,138,135,3,8,0,0,0.160705,0.230183,0.024455,0.065213,0,138,135,3,8,0,0:
0000
0000
0000
0000
,
0000
0000
0000
0000
,
0000
0000
0000
0000
,
0000
0000
0000
0000
,
0000
0000
0000
0000
,
1000
0000
0001
0000
,
1000
1000
1000
0000
,
0001
0000
1000
0000
,
0001
0001
0001
0000
,
0100
0000
0010
0000
,
0100
0100
0100
0000
,
0010
0000
0100
0000
,
0010
0010
0010
0000
,
0000
0001
0001
0000
,
0000
0100
0100
0000
,
0000
0010
0010
0000
,
0000
1000
0000
0100
,
1000
0000
0010
0000
,
0100
0100
0100
0000
,
0001
0000
0010
0000
,
0100
0100
0100
0000
,
0010
0000
0100
0000
,
1000
1000
1000
0000
,
0100
0000
0010
0000
,
0001
1000
1000
0010
,
0200
0001
0001
0301
,
0020
0100
0100
0130
,
2000
0010
0010
3010
,
0002
0100
0100
0103
,
2000
0000
0200
3300
,
0002
0000
0020
0033
,
0001
0000
1000
0000
,
0001
0000
0100
0000
,
0001
0010
0010
0000
,
0000
0100
0100
0000
,
0000
0010
0010
0000
,
0000
0001
0000
1000
,
0001
0000
0010
0000
,
0001
0000
0100
0000
,
0010
0000
1000
0000
,
0100
0000
1000
0000
,
0010
0000
0100
0000
,
0001
0000
0010
0000
,
0100
0000
1000
0000
,
0001
0000
0100
0000
,
0010
0000
1000
0000
,
0001
0000
1000
0000
,
0100
0000
1000
0000
,
0001
0000
0100
0000
,
1000
0000
1000
0000
,
0001
0000
1000
0000
,
0001
0000
0001
0000
,
1000
0000
0001
0000
,
0100
0000
0100
0000
,
1001
0000
0001
0000
,
1000
0001
0001
0000
,
0000
0010
0010
0000
,
0000
0100
0100
0000
,
0000
1000
0000
0001
,
0000
0010
0010
0000
,
0000
0100
0100
0000
,
0000
1000
1000
0000
,
0000
1001
0000
1001
;

//--------------- dance-single - R. McKanna ----------------
#NOTES:
     dance-single:
     R. McKanna:
     Medium:
     6:
     0.260854,0.282456,0.024455,0.317916,0,224,221,3,39,0,0,0.260854,0.282456,0.024455,0.317916,0,224,221,3,39,0,0:
0000
0000
0000
0000
,
0000
0000
0000
0000
,
0000
0000
0000
0000
,
0000
0000
0000
0000
,
0000
0000
0000
0000
,
0001
1000
0010
0010
,
0100
0001
0010
0000
0010
0000
0000
0000
,
0010
0001
0010
0100
,
0100
1000
0010
0000
0010
0000
0100
0000
,
0001
1000
0010
0010
,
1000
0010
0100
0000
0100
0000
0000
0000
,
0010
1000
0100
0010
,
0010
0001
0100
0000
0100
0000
0010
0000
,
1001
0000
0001
0000
0001
0020
0000
0000
,
0130
0000
1000
0000
1000
0020
0000
0000
,
0130
0000
0001
0000
0001
0200
0000
0000
,
0310
2000
3010
0200
,
0301
0001
0100
0100
,
0010
1000
0100
0000
0100
0000
0000
0000
,
1000
1000
0010
0010
,
1000
0001
0100
0000
0100
0000
0110
0000
,
1000
1000
0100
0100
,
0010
0100
1000
0000
0010
0000
0000
0000
,
0100
0100
0001
0001
,
0010
0100
1000
0000
0010
0000
0100
0000
,
0002
0000
0010
0000
2003
0000
0100
0010
,
3001
0010
0100
0010
,
0002
0000
0100
0000
2003
0000
0010
0100
,
3002
1000
1000
1003
,
2000
0100
0010
0001
0000
0001
3000
0000
,
0002
0010
0100
1000
0000
0000
0003
0000
,
2000
0000
3002
0000
,
2003
3100
0002
0103
,
1001
0000
1000
0000
1000
0200
0000
0000
,
0310
0000
0001
0000
0001
0200
0000
0000
,
0310
0000
1000
0000
1000
0020
0000
0000
,
0130
0002
0103
0020
,
1030
0100
0010
0002
,
0000
0000
0010
0000
0000
0000
0000
0003
,
2000
0100
0001
3010
,
0000
0001
0000
0001
,
0100
0000
0000
0010
0000
0000
0100
0000
,
0002
0000
0003
0010
,
1000
0100
0001
0010
,
1000
0100
0001
0010
,
2000
0000
3001
0100
,
0002
0000
1003
0100
,
1000
0010
0001
0100
,
1000
0010
0001
0100
,
2000
0100
0010
0001
,
0000
0001
3000
0001
,
0002
0010
0100
1000
,
0000
0010
1003
0010
,
0001
0100
1000
0100
,
0002
0000
0000
0000
,
1003
0000
1000
0000
1000
0020
0000
0000
,
0130
0000
0001
0000
0001
0020
0000
0000
,
0130
0000
1000
0000
1000
0200
0000
0000
,
0310
0002
0013
0200
,
1300
0000
0001
0000
0001
0200
0000
0000
,
0310
0000
1000
0000
1000
0200
0000
0000
,
0310
0000
0001
0000
0001
0020
0000
0000
,
0130
2000
3100
0020
,
0030
0000
0000
0000
;

//--------------- dance-single - K. Ward ----------------
#NOTES:
     dance-single:
     K. Ward:
     Hard:
     10:
     0.374978,0.462201,0.269006,0.277157,0.036683,322,289,33,34,4,0,0.374978,0.462201,0.269006,0.277157,0.036683,322,289,33,34,4,0:
0000
0000
0000
0000
,
0000
0000
0000
0000
,
0000
0000
0000
0000
,
0000
0000
0000
0000
,
0000
0000
0000
0000
,
0001
0001
1000
0000
0010
0000
0110
0000
,
1000
1000
0100
0000
0010
0000
1001
0000
,
0100
0100
0010
0000
0100
0000
0011
0000
,
0100
1100
0010
0101
,
0001
0010
0200
0000
1300
0000
1100
0000
,
1000
0100
0020
0000
0130
0000
1001
0000
,
0100
0010
0100
0000
1000
0100
0010
0000
,
0100
0000
0000
0000
0001
0000
0000
0000
0000
0020
0000
0000
0000
0000
0000
0000
0000
0000
0030
0000
0000
0000
0000
0000
,
1001
0001
0100
0010
1000
1000
0200
0000
,
0310
0010
0001
1000
0010
0010
0200
0000
,
1300
1000
0100
0010
1000
0000
0002
0000
,
0023
0130
0200
0310
,
1001
0000
0010
0000
0100
0000
0000
0001
0010
0000
0001
0000
1000
0000
0000
0000
,
1000
0000
0100
0000
1000
0000
0000
0010
0100
0000
0001
0000
0010
0000
0000
0000
,
0100
0000
0010
0000
0001
0000
0000
1000
0100
0000
1000
0000
0100
0000
0000
0000
,
0010
0100
1000
0000
0100
0010
0001
0000
,
0002
1003
2000
3001
,
0200
0000
0310
0000
0001
0010
0100
0000
,
1000
0100
0010
0000
0100
1000
0001
0000
,
0100
0010
0100
1000
0200
0000
1000
0000
,
0310
0100
0100
0000
0010
1000
1000
0000
,
0100
0000
0010
0000
0100
0000
0010
0000
0001
0000
0010
0000
0001
0100
0001
0000
,
1000
0100
0100
0000
0100
0010
0010
0000
,
0200
2300
3020
0130
,
1010
0100
0010
0200
0000
0301
0000
0000
,
0010
0100
0010
0002
0000
0000
1003
0000
,
0200
0000
0010
0000
,
1000
0000
0000
0000
0310
0000
0100
M00M
,
1001
1000
0010
0000
0100
0000
0011
0000
,
0100
0100
1000
0000
0100
0000
1010
0000
,
0100
0100
0010
0000
0100
0000
1001
0000
,
0200
1300
0002
0013
,
0100
1000
0100
0000
0001
0010
0001
0000
,
1000
0010
0100
0001
0010
0100
0010
0000
,
0001
1010
0100
0011
,
0100
0000
1001
0000
0100
0010
0100
1000
,
0100
1010
0100
0011
,
0100
0000
1001
0000
0010
0100
1000
0000
,
0100
1100
0010
0101
,
0010
1000
0100
0001
0100
1000
0100
0000
,
0020
0100
0001
0130
,
2000
0001
0010
0100
,
3200
0010
1000
0010
,
0320
0001
0100
0001
,
0032
0000
2000
0003
,
0020
3000
0200
0030
,
0002
0300
2003
0000
,
0100
0000
3100
0000
0010
0100
0010
0000
,
1000
0001
1000
0001
1000
0000
0001
1000
0001
1000
0001
0000
0100
0000
0000
0000
,
1001
0000
0000
0000
,
1001
0100
0010
0000
0010
0101
0000
0000
,
0010
0100
0010
0000
0100
1010
0000
0000
,
0100
0010
1000
0000
0010
0101
0000
0000
,
0002
0013
2000
3100
,
1001
0010
0100
0000
0110
1010
0000
0000
,
0100
0010
0001
0000
0011
0101
0000
0000
,
0100
0001
0010
0000
0010
0101
0000
0000
,
0002
0013
2000
3100
,
MM00
0000
0000
0000
;

//--------------- dance-single - K. Ward ----------------
#NOTES:
     dance-single:
     K. Ward:
     Challenge:
     15:
     0.698716,0.895157,0.277157,0.220096,0.582846,600,566,34,27,77,0,0.698716,0.895157,0.277157,0.220096,0.582846,600,566,34,27,77,0:
0000
0000
0000
0000
,
0000
0000
0000
0000
,
0000
0000
0000
0000
,
0000
0000
0000
0000
,
0000
0000
0000
0000
,
1000
0100
1000
0000
0010
0000
0100
0000
0001
0000
0100
0000
0010
0000
1000
0000
,
0100
1000
0100
0000
1000
0000
0010
0000
0100
0000
0001
0000
0100
0000
0001
0000
,
0100
0010
0100
0000
0001
0000
1000
0000
0010
0000
1000
0000
0010
0000
0100
0000
,
0001
0010
0001
0000
0100
0010
0100
0000
0010
1000
0010
0000
0100
0010
0100
0000
,
0001
0010
0001
0000
0100
0000
0010
0000
1000
0000
0010
0000
0100
0000
0001
0000
,
0010
0001
0010
0000
0001
0000
0100
0000
0010
0000
1000
0000
0010
0000
1000
0000
,
0010
0100
0010
0000
1000
0000
0001
0000
0100
0000
0001
0000
0100
0000
0010
0000
,
1000
0100
1000
0000
0010
0100
0010
0000
0100
0001
0100
0000
0010
0100
0010
0000
,
2001
0001
0001
0001
0001
0001
3001
0000
,
0210
0010
0010
0010
0010
0010
0310
0000
,
1002
1000
1000
1000
1000
1000
1003
0000
,
0110
0MM0
0110
MM00
1100
00MM
0011
0MM0
,
1000
0100
0010
0001
1000
0100
0010
0001
1000
0000
1000
0000
0001
0000
1000
0000
,
0001
0010
0100
1000
0001
0010
0100
1000
0001
0000
1000
0000
0001
0000
1000
0000
,
0010
1000
0001
0100
0010
1000
0001
0100
0010
0000
0010
0000
0100
0000
0010
0000
,
0100
0001
1000
0010
0100
0001
1000
0010
0200
0000
0001
0000
0301
0000
0001
0000
,
1000
0100
0010
0001
0010
0100
1000
0100
0010
0001
0010
0100
2000
0000
0000
0000
,
3001
0010
0100
1000
0100
0010
0001
0010
0100
1000
0100
0010
0002
0000
0000
0000
,
1003
0010
0100
0110
1000
0001
0011
1000
,
0001
0100
0001
0000
1000
0010
0100
0000
0001
0100
0001
0000
2000
0000
0001
0000
,
3001
0100
0010
1000
0010
0100
0001
0100
0010
1000
0010
1000
0010
0100
0001
0010
,
0001
0000
1000
0000
1000
0000
0010
0000
0100
0000
0100
0000
0001
0000
0010
0000
0010
0000
0001
0000
0001
0000
0100
0000
0010
0000
1000
0000
0010
0100
0010
0100
,
0001
0100
0010
1000
0010
0100
0001
1000
0010
0100
0010
1000
0010
0100
0001
0010
,
0002
1000
1000
1003
0200
0010
0010
0310
0002
0100
0100
0103
0020
0100
0100
0130
,
0001
0010
1000
0010
0001
0100
1000
0100
,
0001
0010
1000
0010
0001
0100
1000
0100
,
2MMM
0MMM
0MMM
0MMM
32MM
M0MM
M0MM
M0MM
,
M3M2
MMM0
MMM0
MMM0
2MM3
0MMM
0MMM
0MMM
,
3001
0010
0001
0000
0100
0000
0010
0000
1000
0100
1000
0000
0010
0000
0100
0000
,
0001
0100
0001
0000
0100
0000
0010
0000
1000
0010
1000
0000
0010
0000
0100
0000
,
0001
1000
0001
0000
0100
0000
0010
0000
1000
0001
1000
0000
0010
0000
0100
0000
,
0110
0MM0
0110
MM00
1100
00MM
0011
0MM0
,
1000
0000
1000
0000
0010
0000
0010
0000
0100
0000
0100
0000
0001
0010
0001
0000
,
1000
0000
1000
0000
0010
0000
0010
0000
0100
0000
0100
0000
0010
0100
0001
0000
,
0001
0100
0100
1000
1000
0100
0100
0001
,
0001
0000
0010
0000
0010
0000
0001
0000
0100
0000
0100
0000
0001
0010
0001
0000
,
0010
0001
0011
0100
0100
0001
0011
0100
,
0010
0010
1010
0010
0010
0100
0011
0001
,
0001
1000
1100
0010
0110
0100
0101
0001
,
1100
0001
0011
0100
0110
0010
1010
0001
,
2010
0010
0010
0001
0010
0010
0010
3001
,
0210
0010
0010
0001
0010
0010
0010
0301
,
0020
0032
0203
2300
,
3020
0032
0203
2300
,
3001
0010
1000
0010
0001
0010
1000
0010
,
0100
1000
0100
0010
0100
1000
0100
0010
,
0001
0100
0001
0100
1000
0100
1000
0001
,
0100
0010
1000
0100
0010
0100
1000
0001
,
1000
0100
1000
0100
1000
0000
0001
0010
0001
0010
0001
0000
0100
0010
0100
0010
,
0200
0000
0000
0000
0000
0000
0002
0000
0000
0303
0000
0M0M
,
1000
0010
1000
0010
0100
0001
0100
0001
1000
0010
1000
0010
0100
0001
0100
0001
,
1000
0100
1000
0100
1000
0001
1000
0001
0010
0001
0010
0001
0100
0010
0100
0010
,
1000
0001
1000
0001
0100
0010
0100
0010
1000
0001
1000
0001
0100
0010
0100
0010
,
0110
1MM0
0110
MM01
1100
01MM
0011
0MM1
,
0001
0100
0001
0100
0010
1000
0010
1000
0001
0100
0001
0100
0010
1000
0010
1000
,
0001
0010
0001
0010
0001
1000
0001
1000
0100
1000
0100
1000
0010
0100
0010
0100
,
0001
1000
0001
1000
0010
0100
0010
0100
0001
1000
0001
1000
0010
0100
0010
0100
,
0110
0MM1
0110
10MM
0011
MM10
1100
0000
;

//--------------- dance-double - M. Emirzian ----------------
#NOTES:
     dance-double:
     M. Emirzian:
     Easy:
     2:
     0.135085,0.179031,0,0.008152,0,116,116,0,1,0,0,0.135085,0.179031,0,0.008152,0,116,116,0,1,0,0:
00000000
00000000
00000000
00000000
,
00000000
00000000
00000000
00000000
,
00000000
00000000
00000000
00000000
,
00000000
00000000
00000000
00000000
,
00000000
00000000
00000000
00000000
,
00000000
10000000
00000000
00100000
,
00000000
01000000
00000000
00001000
,
00000000
00010000
00000000
00000010
,
00000000
00001000
00000100
00000000
,
00000000
00000010
00000000
00000001
,
00000000
00001000
00000000
00000010
,
00000000
00001000
00000000
00000100
,
00000000
00010000
00001000
00000000
,
00000000
01000000
00000000
00010000
,
00000000
00100000
00000000
01000000
,
00000000
10000000
00000000
00010000
,
00000000
01000000
00000000
00001000
,
00000000
00010000
00000000
00000010
,
00000000
00001000
00000000
00000100
,
00000000
00000010
00000000
00000001
,
00000000
00001000
00000010
00000000
,
00000000
00010000
00000000
00001000
,
00000000
01000000
00000000
00010000
,
00000000
00100000
00000000
01000000
,
00000000
10000000
00010000
00000000
,
01000000
00000000
00100000
10000000
,
01000000
00000000
00100000
00000000
,
00001000
00000000
00010000
00000010
,
00001000
00000000
00000100
00000000
,
00000010
00000000
00000000
00000000
,
00000001
00000000
00000000
00000000
,
00000100
00000000
00000100
00000000
,
00000100
00000010
00010000
00001000
,
00010000
00100000
00000000
10000000
,
00000000
00010000
00000000
00100000
,
00000000
01000000
00000000
10000000
,
00000000
00010000
00000000
01000000
,
00000000
00001000
00000000
00010000
,
00010000
00000000
00000000
00000100
,
00000000
00000010
00000010
00000000
,
00000000
00000001
00000000
00000100
,
00000100
00000000
00000000
00000010
,
00000000
00010000
00010000
00000000
,
00000000
00001000
00000000
01000000
,
01000000
00000000
00100000
00000000
,
00000000
10000000
00000000
01000000
,
01000000
00000000
00000000
00010000
,
00000000
00000000
00001000
00001000
,
00000000
00000000
00000100
00000000
,
00000001
00000001
00000000
00001000
,
00000000
00000010
00000000
00000100
,
00000000
00000001
00000000
00000100
,
00000000
00001000
00000000
00010000
,
00002000
00000000
00000000
00000000
,
00000000
00000000
00000000
00000000
,
00003000
01000000
00000000
00100000
,
00000000
10000000
00000000
01000000
,
00000000
00100000
00000000
00010000
,
00000000
01000000
00000000
00001000
,
00000000
00010000
00000000
00000100
,
00000000
00001000
00000000
00000010
,
00000000
00000100
00000000
00000001
,
00000000
00000010
00000000
00000100
;

//--------------- dance-double - M. Emirzian ----------------
#NOTES:
     dance-double:
     M. Emirzian:
     Medium:
     5:
     0.293461,0.332487,0.008152,0.032607,0,252,251,1,4,0,0,0.293461,0.332487,0.008152,0.032607,0,252,251,1,4,0,0:
00000000
00000000
00000000
00000000
,
00000000
00000000
00000000
00000000
,
00000000
00000000
00000000
00000000
,
00000000
00000000
00000000
00000000
,
00000000
00000000
00000000
00000000
,
10000000
00000000
10000000
00000000
10000000
00000000
10000000
00100000
,
00100000
00000000
00100000
00000000
00100000
00000000
00100000
01000000
,
01000000
00000000
01000000
00000000
01000000
00000000
01000000
00001000
,
00010000
00000000
00001000
00000000
00010000
00000100
00001000
00000000
,
00000010
00000000
00000010
00000000
00000010
00000000
00000010
00000100
,
00000100
00000000
00000100
00000000
00000100
00000000
00000100
00000001
,
00000001
00000000
00000001
00000000
00000001
00000000
00000001
00000010
,
00000100
00000000
00001000
00000010
00010000
00000000
00001000
00000000
,
00010000
00000000
01000000
00000000
10000000
00000000
00100000
10000000
,
01000000
00000000
10000000
00000000
00100000
00000000
01000000
00100000
,
00010000
00000000
00001000
00000000
00010000
00000000
00001000
00010000
,
01000000
00000000
00010000
00001000
00000100
00000000
00000001
00000000
,
00000010
00000000
00000010
00000000
00000010
00000000
00000010
00000010
,
00000100
00000000
00000100
00000000
00000100
00000000
00000100
00000100
,
00010000
00000000
00010000
00000000
00010000
00000000
00010000
00001000
,
01000000
00000000
00001000
00010000
00100000
00000000
10000000
00000000
,
00100000
00000000
00100000
00000000
00100000
00000000
00100000
01000000
,
01000000
00000000
01000000
00000000
01000000
00000000
01000000
01000000
,
00001000
00000000
00001000
00000000
00001000
00000000
00001000
00010000
,
00000100
00000000
00000010
00000001
00001000
00000000
00001001
00000000
,
00000100
00000010
00000001
00001000
,
00000010
00000000
00010000
00001000
,
01000000
00100000
10000000
00010000
,
01000000
00000000
00100000
10000000
,
01000000
00000000
00000000
00000000
,
00010000
00000000
00001000
00000000
,
00000100
00000000
00000001
00000000
,
00001000
00000000
00000010
00000000
00000100
00000001
00000100
00000010
,
00001000
00000000
00000100
00000000
00010000
00000000
00001000
01000000
,
00010000
00000000
00100000
00000000
01000000
00000000
10000000
00100000
,
01000000
00000000
00010000
00000000
00100000
00000000
01000000
10000000
,
00010000
00000000
00100000
00001000
00010000
00000000
00000100
00000000
,
00000010
00000001
00000020
00000100
,
00000030
00001000
00000010
00010000
,
00001000
01000000
00200000
10000000
,
00300000
01000000
00100000
00001000
,
00010000
00001000
00000200
00000001
,
00000300
00000010
00001000
00000100
,
00001000
00000001
00001000
00000100
,
00010000
00001000
01000000
00100000
,
10000000
00010000
10000000
00010000
,
10000000
00010000
01000000
00000000
00100000
00000000
10000000
00000000
,
01000000
00010000
00001000
00000100
,
00000001
00000000
00001000
00000000
00000001
00000100
00000010
00000000
,
00001000
00000100
00000010
00000001
,
00001000
00000010
00010000
00001000
,
00010000
00001000
00010000
01000000
,
10000000
00000000
00010000
00000000
00100000
01000000
10000000
01000000
,
00200000
00000000
00000000
00000000
,
00000000
00000000
00000000
00000000
,
00310000
00000000
01000000
00000000
00100000
00000000
10000000
01000000
,
00100000
00000000
00001000
00000000
00010000
00000000
00001000
00010000
,
00000010
00000000
00010000
00000000
00001000
00000000
00000010
00000001
,
00000100
00000000
00000010
00001000
00000001
00000000
00000100
00000000
,
00001000
00000000
00010000
00000000
00001000
00000000
00010000
01000000
,
10000000
00000000
00100000
00000000
01000000
00000000
00010000
00100000
,
01000000
00000000
10000000
00000000
00100000
00000000
01000000
00001000
,
00010000
00000000
00001000
00000010
00000001
00000000
00000010
00000000
;

//--------------- dance-double - M. Emirzian ----------------
#NOTES:
     dance-double:
     M. Emirzian:
     Hard:
     7:
     0.426217,0.460366,0.358674,0.187489,0.089669,366,322,44,23,0,0,0.426217,0.460366,0.358674,0.187489,0.089669,366,322,44,23,0,0:
00000000
00000000
00000000
00000000
,
00000000
00000000
00000000
00000000
,
00000000
00000000
00000000
00000000
,
00000000
00000000
00000000
00000000
,
00000000
00000000
00000000
00000000
,
10000000
00000000
01000000
00100000
01000000
10000000
00100000
00000000
,
00010000
00000000
00001000
00010000
01000000
00000000
10000000
00000000
,
01000000
00000000
00010000
00001000
00000100
00001000
00010000
00000000
,
00002010
00000000
00000000
00013000
00001000
00000000
00000000
00000000
00002010
00000000
00000000
00013000
00001000
00000000
00000000
00000000
,
00010100
00000000
00001000
00000100
00000010
00000100
00001000
00000000
,
00000101
00000000
00000100
00000010
00001000
00000000
00000101
00000000
,
00000011
00000000
00001000
01000000
00000100
00010000
00001000
00000000
,
00120000
00000000
00000000
00031000
00010000
00000000
00000000
00000000
00120000
00000000
00000000
00031000
00010000
00000000
00000000
00000000
,
01001000
00000000
00010000
00100000
01000000
00100000
00010000
00000000
,
10010000
00000000
00100000
01000000
10000000
00010000
01000000
00000000
,
00101000
00000000
00001000
00010000
00000100
00010000
00001000
00000010
,
00000001
00001000
00000000
00000000
00000100
00000000
00000100
00000000
00000010
00000001
00000000
00000000
00001100
00000000
00000000
00000000
,
00001001
00000000
00000100
00000010
00000100
00001000
00010000
00000000
,
00001100
00000000
00000100
00000001
00001000
00000000
00000011
00000000
,
00001010
00000000
00001000
00010000
00100000
00010000
00001000
00000000
,
01020000
00000000
00000000
00031000
00010000
00000000
00000000
00000000
01020000
00000000
00000000
00031000
00010000
00000000
00000000
00000000
,
00101000
00000000
00010000
01000000
00100000
01000000
00010000
00000000
,
00110000
00000000
01000000
10000000
00010000
00000000
01100000
00000000
,
01010000
00000000
00010000
00001000
00000010
00001000
00010000
00000000
,
00002100
00000000
00000000
00013000
00001000
00000000
00000000
00000000
00002100
00000000
00000000
00013000
00001000
00000000
00000000
00000000
,
00010010
00000000
00000000
00000000
00001000
00000000
00000000
00000000
00000100
00000000
00000010
00000000
00000001
00000000
00000000
00000010
,
00000100
00000000
00000000
00000000
00010000
00000000
00000000
00000000
00100000
00000000
00000000
00000000
10000000
00000000
00000000
01000000
,
00010000
00000100
00000010
00000001
,
00000100
00000000
00000020
00020030
,
02030000
03000000
00000000
00000000
,
20000000
30000000
00002000
00003000
,
00010000
00000000
00001000
00000000
00010000
00000000
00001000
00010000
,
00001000
00000000
00000100
00000001
00000010
00000100
00000010
00000001
,
00001001
00000000
00000100
00000010
00000100
00000001
00001000
00000000
,
00001100
00000000
00010000
00001000
00010000
00000100
01000000
00000000
,
01001000
00000000
00010000
01000000
00100000
10000000
01000000
00100000
,
00010000
10000000
00000000
00000000
00100000
00000000
00100000
00000000
01000000
00010000
00000000
00000000
00100000
00000000
00001000
00000000
,
00010000
00000000
00001000
00000000
00000100
00000000
00000001
00000010
,
00001002
00000100
00000013
00001100
,
00000010
00000000
00010000
00000000
00001000
00000000
00000100
00001000
,
00021000
00100000
00031000
01001000
,
00010000
00000000
01000000
00000000
10000000
00000000
00100000
01000000
,
02010000
00010000
03001000
00011000
,
00000100
00010000
00001000
00000000
01000000
00000100
00010000
00000000
,
00100000
00010000
00001000
00000000
00001100
00000000
00001010
00000000
,
00000100
00000010
00000001
00000000
00001000
00000100
00000010
00000000
,
00000001
00000100
00001000
00000000
00010000
00001000
01000000
00100000
,
20010000
00010000
31000000
00110000
,
10000000
01000000
00010000
00000000
00001000
00010000
00000100
00010000
,
00001000
00000000
00010000
00000000
01000000
00000000
00010000
00001000
,
01000000
00000000
00000000
00000000
00001000
00000000
00010000
00000000
00001000
00000000
00000000
00000000
00120000
00000000
00000000
00031000
,
00010000
00000000
00000000
00000000
00120000
00000000
00000000
00031000
00010000
00000000
00000000
00000000
00002100
00000000
00000000
00013000
,
00001000
00000000
00000000
00000000
00002100
00000000
00000000
00013000
00001000
00000000
00000000
00000000
00001001
00000000
00000000
00000000
,
00000220
00000000
00000000
00000000
,
00000000
00000000
00000000
00000330
,
00000001
00000100
00000010
00000100
00000001
00001000
00000100
00000000
,
00000010
00000100
00001000
00000100
00010000
00000010
00001000
00000000
,
00000100
00010000
00001000
01000000
00100000
01000000
00010000
00100000
,
01000000
10000000
00000000
00000000
00010000
00000000
00010000
00000000
01000000
00100000
00000000
00000000
10000000
00000000
01000000
00000000
,
00100000
01000000
00010000
00001000
00010000
00000100
00000010
00000000
,
00000100
00001000
00000010
00000100
00000010
00001000
00000001
00000000
,
00000010
00000100
00001000
00000010
00000100
00001000
00010000
00100000
,
01000000
00010000
00000000
00000000
00100000
00000000
00100000
00000000
01000000
10000000
00000000
00000000
00010000
00000000
00000000
00000000
;

//--------------- dance-double - M. Emirzian ----------------
#NOTES:
     dance-double:
     M. Emirzian:
     Challenge:
     9:
     0.570618,0.588246,0.122275,0.040758,0.211944,490,475,15,5,2,0,0.570618,0.588246,0.122275,0.040758,0.211944,490,475,15,5,2,0:
00000000
00000000
00000000
00000000
,
00000000
00000000
00000000
00000000
,
00000000
00000000
00000000
00000000
,
00000000
00000000
00000000
00000000
,
00000000
00000000
00000000
00000000
,
00010000
00000000
00100000
00000000
01000000
00000000
10000000
00000000
00010000
00000000
00100000
01000000
10000000
00000000
00100000
00000000
,
01000000
00000000
00100000
00000000
00010000
00000000
00001000
00000000
01000000
00000000
00001000
00010000
00001000
00000000
00000010
00000000
,
00000001
00000000
00001000
00000000
00000100
00000000
00000010
00000000
00000001
00000000
00001000
00000100
00000010
00000000
00000001
00000000
,
00000100
00000000
00000010
00001000
00000010
00000000
00010000
00000000
00001000
00000000
01000000
00010000
01000000
00000000
00100000
00000000
,
10000000
00000000
00010000
00000000
01000000
00000000
00100000
00000000
01000000
00000000
00010000
01000000
00001000
00000000
00010000
00000000
,
00001000
00000000
00000010
00000000
00000001
00000000
00000100
00000000
00000010
00000000
00000100
00000001
00001000
00000000
00000100
00000000
,
00000010
00000000
00000100
00000000
00010000
00000000
00001000
00000000
01000000
00000000
00001000
00010000
00001000
00000000
00100000
00000000
,
01000000
00000000
10000000
01000000
10000000
00000000
00010000
00000000
01000000
00000000
00100000
00000000
10010000
00000000
00000000
00000000
,
10000000
00000000
01000000
00000000
00100000
00000000
00010000
00000000
10000000
00000000
01000000
00000000
00100000
00000000
00010000
00100000
,
00001000
00000000
00010000
00000000
00000100
00000000
00001000
00000000
00000010
00000000
00000100
00000000
00000001
00000000
00001000
00000010
,
00000100
00000000
00000001
00000000
00000010
00000000
00000100
00000000
00000010
00000000
00001000
00000000
00010000
00000000
00100000
01000000
,
00010000
00000000
00100000
00000000
01000000
00000000
10000000
00010000
00100000
00000000
01000000
00000000
11000000
00000000
00000000
00000000
,
00100000
00000000
00010000
00000000
10000000
00000000
01000000
00000000
00100000
00000000
00010000
10000000
01000000
00000000
00100000
00000000
,
00001000
00000000
00010000
00000000
00001000
00000000
00000100
00000000
00000010
00000000
00001000
00000100
00001000
00000000
00000001
00000000
,
00000100
00000000
00000010
00000000
00001000
00000000
00000001
00000000
00000100
00000000
00000010
00010000
00001000
00000000
01000000
00000000
,
00001000
00000000
00010000
00001000
00100000
00000000
00010000
00000000
01000000
00000000
00100000
10000000
00010000
00000000
00100000
00000000
,
01000000
00000000
00100000
00000000
00010000
00000000
01000000
00000000
00100000
00000000
10000000
00010000
00100000
00000000
01000000
00000000
,
00100000
00000000
00001000
00000000
00010000
00000000
00001000
00000000
00000100
00000000
00000001
00000010
00000001
00000000
00000100
00000000
,
00000010
00000000
00010000
00000000
00001000
00000000
00000100
00000000
00000001
00000000
00000010
00000100
00000010
00000000
00000001
00000000
,
00000100
00000000
00000010
00001000
00000010
00000000
00010000
00000000
00001000
00000000
01000000
00010000
10000000
00000000
01100000
00000000
,
10010000
00010000
10000000
01000000
00100000
00010000
01000000
00100000
,
01000000
00001000
00010000
00000010
00001000
00000010
00000100
00001000
,
00010000
00100000
10000000
01000000
00010000
00001000
00000100
00000010
,
00000100
00000001
00000010
00000100
00001000
00000001
00000100
00001000
,
00010000
00000000
00000000
00000000
,
10000000
M0000000
00000001
0000000M
,
00010000
00001000
00010000
00000000
01000000
00000000
00010000
00001000
00010000
00000000
00000100
00000000
00010000
00001000
00010000
00000000
,
00100000
00000000
00010000
00001000
00010000
00000000
00000010
00000000
00010000
00001000
00010000
00000000
00011000
00000000
00001000
00000000
,
00010000
00000000
01000000
00000000
10000000
00000000
00100000
00000000
10000000
00000000
01000000
00000000
00100000
00000000
00010000
00100000
,
01000000
00000000
10000000
00000000
00100000
00000000
01000000
00000000
00001000
00000000
00010000
00000000
00000100
00000000
00000010
00000100
,
00001000
00000000
00000001
00000000
00000010
00000000
00000100
00000000
00001000
00000000
00000010
00000000
00000100
00000000
00000001
00000100
,
00000010
00000000
00010000
00000000
00001000
00000000
00100000
00010000
01000000
00000000
00100000
00000000
10100000
00000000
10010000
00000000
,
01000000
00000000
00100000
00000000
00010000
00000000
10000000
00010000
10000000
00000000
01000000
00000000
01000000
00000000
01100000
00000000
,
00100000
00000000
00010000
00000000
01000000
00000000
00001000
00010000
00001000
00000000
00000100
00000000
00000100
00000000
00000001
00000000
,
00000010
00000100
00001000
00000001
00000100
00000010
00000100
00001000
,
00020000
01000000
00001000
01030000
,
10000000
00000000
00100000
00000000
01000000
00000000
00010000
00100000
00010000
00000000
10000000
00000000
10000000
00000000
10010000
00000000
,
01000000
00000000
00100000
00000000
00001000
00000000
00010000
00001000
00010000
00000000
00100000
00000000
00100000
00000000
00010000
00000000
,
00001000
00000100
00000001
00000010
00000100
00001000
00000001
00000100
,
00000020
00010000
00000100
00010030
,
00000100
00000000
00010000
00000000
00001000
00000000
01000000
00010000
01000000
00000000
00100000
00000000
00100000
00000000
10010000
00000000
,
10000000
00000000
01000000
00000000
00100000
00000000
00010000
10000000
00010000
00000000
01000000
00000000
01000000
00000000
00100000
00000000
,
10000000
01000000
00100000
00010000
01000000
00100000
00010000
00001000
,
00020000
00001000
01000000
00031000
,
00010000
00000000
00100000
00000000
00010000
00000000
00001000
00010000
00001000
00000000
00000100
00000000
00000100
00000000
00000101
00000000
,
00000001
00000000
00000010
00000000
00000100
00000000
00001000
00000001
00001000
00000000
00000010
00000000
00000100
00000000
00001000
00000000
,
00010000
00011000
00001000
00000100
00000001
00001001
00000010
00000100
,
00020000
00001000
00100000
00031000
,
00010000
00001000
00010000
00000000
00000010
00000000
00010000
00001000
00010000
00000000
01000000
00000000
00010000
00001000
00010000
00002000
,
00000000
00000000
00000000
00000000
00000000
00000000
00000000
00003000
,
00010000
00000000
00001000
00000000
01000000
00000000
00100000
00000000
10000000
00000000
01000000
00000000
00010000
00000000
01000000
10000000
,
00010000
00000000
00100000
00000000
01000000
00000000
10000000
00000000
00010000
00000000
00100000
00000000
00001000
00000000
00010000
00001000
,
00010000
00000000
00100000
00000000
00010000
00000000
00001000
00000000
00000100
00000000
00001000
00000000
00010000
00000000
00000010
00001000
,
00000010
00000000
00000100
00000000
00000001
00000000
00000010
00000100
00001000
00000000
00000001
00000000
00001001
00000000
00000000
00000000
,
00000100
00000000
00000010
00000000
00010000
00000000
00001000
00000000
00010000
00000000
01000000
00000000
10000000
00000000
00100000
10000000
,
00100000
00000000
01000000
00000000
00010000
00000000
10000000
00000000
00100000
00000000
01000000
00000000
00010000
00000000
00100000
01000000
,
10000000
00010000
00100000
00001000
00010000
00001000
00000100
00000001
,
00000100
00000010
00001000
00000000
00000001
00000000
00000010
00000000
00000100
00001000
00000001
00000000
00001100
00000000
00000000
00000000
;

//--------------- lights-cabinet - ----------------
#NOTES:
     lights-cabinet:
     :
     Easy:
     1:
     0.47862,0.946309,0.635832,0.016303,0,411,304,78,2,0,15,0.47862,0.946309,0.635832,0.016303,0,411,304,78,2,0,15:
000000
000000
000000
000000
,
100000
001000
100000
000000
000100
001000
000100
000000
,
100000
010000
100000
000000
000100
001000
000100
000000
,
100000
001000
010000
000100
100000
001000
010000
000100
,
100000
111100
000100
111100
,
000100
000100
100000
000000
001000
000000
011000
000000
,
100000
100000
001000
000000
010000
000000
001100
000000
,
010000
010000
001000
000000
100000
000000
011000
000000
,
100000
001100
000100
110000
,
100000
000100
010000
000000
000100
000000
110000
000000
,
100000
001000
010000
000000
000100
000000
001100
000000
,
100000
001000
010000
000000
000100
001000
000100
000000
,
110000
011000
001100
000000
,
000100
000100
010000
001000
100000
100000
010000
000000
,
001000
001000
000100
100000
001000
001000
010000
000000
,
000100
000100
010000
001000
100000
100000
010000
000000
,
001000
000100
010000
001000
,
100000
001000
010000
000000
000100
010000
000100
000000
,
100000
010000
100000
001000
010000
000100
001000
000000
,
000100
010000
001000
000000
100000
010000
100000
000000
,
000100
010000
001000
100000
001000
000000
011000
000000
,
000100
100000
001000
100000
,
010000
100000
001000
010000
,
000100
001100
100000
110000
,
000100
100000
000100
100000
001000
000000
010000
000000
,
100100
011000
100100
011000
100100
111000
100100
011000
,
100100
011000
100100
011000
100100
011000
100100
011000
,
100100
110000
111100
001000
010000
001000
111100
010000
,
000100
001000
010000
000100
100000
001000
100000
000100
,
111100
001000
010000
100100
000000
011000
000000
000000
,
100100
001000
010000
001100
000000
000000
110000
000000
,
111100
111100
111100
111100
,
100000
010000
001000
000100
100000
010000
001000
000100
,
100000
100000
001000
010000
000100
000000
001000
000000
,
100000
100000
001000
010000
000100
000000
001000
000000
,
000100
000100
010000
001000
100000
000000
011000
000000
,
100000
001000
010000
000100
,
001000
001100
100000
011000
,
100000
001000
010000
000100
,
100000
101000
000100
001100
,
100000
001000
010000
000100
,
100000
010100
100000
110000
,
001000
010000
001000
100000
,
001000
110000
001000
011000
,
000100
000000
001100
000000
000100
011000
100100
000000
,
001000
010000
010000
100000
,
100000
000100
001000
001000
,
010000
011000
101000
000000
,
011000
100100
200200
300300
,
000100
001000
010000
001000
,
000100
110000
011000
110000
,
000100
010000
010000
001000
,
100000
000000
001000
000000
010000
000000
000100
011000
,
100100
000000
000000
000000
,
100100
000000
000000
000000
,
000100
010000
001000
000000
111100
000000
000000
000000
,
100000
001000
010000
000000
111100
000000
000000
000000
,
000100
001000
000100
000000
111100
000000
000000
000000
,
100000
111100
000100
111100
,
100000
001000
010000
000000
011000
000000
000000
000000
,
000100
001000
000100
000000
001100
000000
000000
000000
,
100000
001000
010000
000000
011000
000000
000000
000000
,
000100
001100
001000
011000
;
