#TITLE:Mouth;
#SUBTITLE:;
#ARTIST:Rochelle;
#TITLETRANSLIT:;
#SUBTITLETRANSLIT:;
#ARTISTTRANSLIT:;
#GENRE:;
#CREDIT:;
#MUSIC:Mouth.ogg;
#BANNER:mouth.png;
#BACKGROUND:Mouth-bg.png;
#CDTITLE:;
#SAMPLESTART:78.780;
#SAMPLELENGTH:13.860;
#SELECTABLE:YES;
#OFFSET:0.023;
#BPMS:0.000=134.003;
#STOPS:;
#DISPLAYBPM:134.000;
#BGCHANGES:;
#FGCHANGES:;

//--------------- dance-single - M. Puls ----------------
#NOTES:
     dance-single:
     M. Puls:
     Beginner:
     1:
     0.09,0.138,0.049,0,0:
0000
0000
0000
0000
,
0000
0000
0000
0000
,
0000
0000
0000
0000
,
0000
0000
0000
0000
,
1000
0000
0000
0000
,
1000
0000
0000
0000
,
0001
0000
0000
0000
,
0001
0000
0000
0000
,
0010
0000
0001
0000
,
0001
0000
0000
0000
,
0100
0000
1000
0000
,
1000
0000
0000
0000
,
1001
0000
0000
0000
,
1000
0000
0000
0000
,
1000
0000
0000
0000
,
0001
0000
0000
0000
,
0001
0000
0000
0000
,
0100
0000
0000
0000
,
0010
0000
0000
0000
,
0100
0000
0000
0000
,
1001
0000
0000
0000
,
1000
0000
0000
0000
,
0001
0000
0000
0000
,
1000
0000
1000
0000
,
0000
0000
0001
0000
,
0001
0000
0000
0000
,
1000
0000
0000
0000
,
0001
0000
0000
0000
,
1001
0000
0000
0000
,
0100
0000
0000
0000
,
0010
0000
0000
0000
,
0100
0000
0000
0000
,
1001
0000
0000
0000
,
1000
0000
0000
0000
,
0100
0000
0000
0000
,
0001
0000
0000
0000
,
0010
0000
0000
0000
,
1000
0000
0000
0000
,
0010
0000
0000
0000
,
0100
0000
0000
0000
,
0001
0000
0000
0000
,
0100
0000
0000
0000
,
0010
0000
0000
0000
,
1000
0000
0000
0000
,
1001
0000
0000
0000
,
1000
0000
1000
0000
,
1000
0000
0000
0000
,
0001
0000
0001
0000
,
0001
0000
0000
0000
,
1000
0000
0100
0000
,
0000
0000
0001
0000
,
0010
0000
0000
0000
,
1000
0000
0000
0000
,
0100
0000
0000
0000
,
0010
0000
0000
0000
,
0100
0000
0000
0000
,
0001
0000
0000
0000
,
0010
0000
0000
0000
,
1000
0000
0000
0000
,
0010
0000
0000
0000
,
0100
0000
0000
0000
,
0001
0000
0000
0000
,
1000
0000
0000
0000
,
0100
0000
0000
0000
,
0010
0000
0000
0000
,
1000
0000
0000
0000
,
0001
0000
1000
0000
,
0001
0000
0000
0000
,
1001
0000
0000
0000
;

//--------------- dance-single - K. Ward ----------------
#NOTES:
     dance-single:
     K. Ward:
     Easy:
     3:
     0.184,0.249,0.057,0,0:
0000
0000
0000
0000
,
0000
0000
0000
0000
,
0000
0000
0000
0000
,
0000
0000
0000
0000
,
1000
0000
0000
0001
,
0001
0000
0000
1000
,
1000
0000
0000
0010
,
0010
0000
1000
0000
,
0100
0000
1000
0000
,
0010
0000
0100
0000
,
0001
0000
0010
0000
,
0001
0000
1000
1000
,
0010
0000
0100
0000
,
0100
0000
0001
0000
,
0010
0000
0001
0000
,
1000
0000
0100
0000
,
1000
0010
0100
0000
,
0001
0010
0001
0000
,
1000
0000
0001
0001
,
1001
0000
0000
0000
,
0001
0000
0100
0000
,
0001
0000
1000
1000
,
0001
0000
0010
0000
,
0001
0000
1000
1000
,
1000
0000
0010
0000
,
1000
0000
0001
0010
,
0001
0000
0100
0000
,
0010
0000
1000
0100
,
1000
1000
1000
0000
,
0001
0001
0001
0000
,
1100
0000
0110
0000
,
1000
1000
0000
1000
,
0001
0001
0001
0000
,
1000
1000
1000
0000
,
0011
0000
0110
0000
,
0001
0001
0000
0001
,
1000
0000
0000
0000
,
0001
0000
0000
0000
,
0100
0000
0000
0000
,
0001
0000
1000
0000
,
0010
0000
0000
0000
,
0100
0000
0000
0000
,
0001
0000
0000
0000
,
1000
0000
0000
0000
,
0001
0100
0100
0000
,
0001
1000
1000
0000
,
0100
1000
1000
0000
,
0100
1000
1100
0000
,
0001
0001
0010
0000
,
0001
0001
0100
0000
,
0010
0010
0100
0000
,
0010
1000
0010
1000
,
0001
0000
1000
0000
,
0001
0000
1000
0000
,
0010
0000
0100
0000
,
0010
0000
1000
1000
,
0001
0000
0100
0000
,
0010
0000
1000
0000
,
0001
0000
1000
0000
,
0010
0010
0100
0100
,
0010
0010
0000
0000
,
1000
1000
0000
0000
,
0001
0001
0000
0000
,
1000
1000
0001
0001
,
1000
1000
0000
0000
,
0010
0010
0000
0000
,
1000
1000
0000
0001
,
0100
0100
0010
0100
,
1001
0000
0000
0000
;

//--------------- dance-single - K. Ward ----------------
#NOTES:
     dance-single:
     K. Ward:
     Medium:
     8:
     0.346,0.359,0.032,0.097,0:
0000
0000
0000
0000
,
0000
0000
0000
0000
,
0000
0000
0000
0000
,
0000
0000
0000
0000
,
1000
0100
1000
0000
1000
0100
1000
0000
,
0001
0010
0001
0010
0001
0000
0100
0000
,
0001
0010
0001
0000
0001
0010
0001
0000
,
1000
0100
1000
0100
1000
0000
0010
0000
,
0100
0001
1000
0100
,
1000
0000
0001
0000
0100
0010
1000
0000
,
0001
0010
0001
0100
,
0010
0000
0010
0000
1000
0001
0100
0001
,
2000
3010
0200
0301
,
2000
3010
0200
0301
,
1000
0001
0002
0000
0103
0001
0002
0000
,
0103
0010
1000
0001
,
0100
0100
0010
0010
,
1000
0000
0001
0000
1000
0100
1000
0000
,
0001
0000
0100
0000
0010
0000
1000
0001
,
1001
0000
0000
0000
,
1000
0001
0100
0010
,
1000
0010
0100
0000
0001
0100
0001
0000
,
1000
0001
0100
0010
,
1000
0001
1000
0000
1000
0001
1000
0000
,
0010
0100
0001
1000
,
0100
1000
1000
0011
,
0000
1000
0100
1000
,
0001
0000
0001
0000
,
1000
0000
0100
0000
1000
0001
0100
0000
,
0010
0000
0010
0000
1000
0001
0100
0000
,
0010
0000
0010
0000
1000
0010
0100
0000
,
0001
0000
0001
0000
1000
0100
1000
0100
,
1000
0000
0100
0000
1000
0001
0100
0000
,
0010
0000
0010
0000
1000
0001
0100
0000
,
0010
0000
0010
0000
1000
0010
0100
0000
,
0001
0000
0001
0000
1000
0100
1000
0100
,
0100
0000
1000
0000
,
0001
0000
1000
0000
,
0010
0000
0100
0000
,
0001
0000
0100
0100
,
0001
0000
1000
0000
,
0001
0000
0000
1000
,
2000
0000
3000
0000
,
0200
0000
0000
0300
,
1000
0010
0100
0010
,
1000
0010
0100
0000
0001
0100
0001
0000
,
1000
0001
0100
0010
,
1000
0001
1000
0000
1000
0001
1000
0000
,
0010
0100
0001
1000
,
0100
1000
1000
0011
,
0000
0000
1000
0000
0100
0000
1000
0001
,
0100
0000
0010
0000
0100
0010
1000
0000
,
0100
0000
0100
0000
1000
0001
0100
0000
,
0010
0000
0010
0000
1000
0001
0100
0000
,
0010
0000
0010
0000
1000
0010
0100
0000
,
0001
0000
0001
0000
1000
0100
1000
0100
,
1000
0100
1000
0010
,
1000
0000
0010
0000
0100
0001
0100
0000
,
0010
0000
0010
0000
1000
0010
0100
0000
,
0001
2000
3001
0200
,
0301
0000
1000
0000
0010
0000
1000
0010
,
0100
0000
0100
0000
0010
0000
0100
0001
,
1000
0000
1000
0000
1000
0000
1000
0001
,
0200
0000
0301
0000
2000
0000
3001
0100
,
0001
0000
1000
0000
0010
0000
1000
0001
,
0100
0000
0100
0000
0001
0000
1000
0001
,
0100
0000
0010
0000
0100
0000
0010
1000
,
0001
0100
0001
0100
,
1001
0000
0000
0000
;

//--------------- dance-single - K. Ward ----------------
#NOTES:
     dance-single:
     K. Ward:
     Hard:
     10:
     0.458,0.525,0.195,0.081,0.142:
0000
0000
0000
0000
,
0000
0000
0000
0000
,
0000
0000
0000
0000
,
0000
0000
0000
0000
,
1000
0001
0010
0000
0010
0001
0100
0000
,
1000
0000
0100
0000
0010
1000
0000
1000
0100
0000
1000
0000
0100
0000
0000
0000
,
0010
0001
0100
0000
1000
0100
0001
0000
,
0010
0000
0100
0000
0010
0000
0010
0001
,
1000
0000
0100
0010
0000
0101
0000
0000
,
0001
0000
1000
0000
0001
0000
0010
0000
0001
0000
1000
0100
0000
0100
1000
0000
,
0100
0000
1000
0000
0010
0100
0001
0000
,
0101
0010
0100
0000
1100
0010
0100
0000
,
1001
0000
0001
0000
0010
0100
1000
0000
,
0100
0000
1000
0000
0010
0100
0001
0010
,
0100
0000
0011
0000
0010
0100
1000
0000
,
0100
1001
0010
1001
,
0110
0000
0000
0011
0000
0000
0000
0000
,
1000
0000
0001
0000
0010
0000
0001
0000
1000
0000
0001
1000
0000
1000
0100
0000
,
0010
0000
0100
0000
0100
0010
0100
0000
,
1002
0000
0020
0033
,
0100
0010
0100
0000
1000
0100
0010
0000
,
0100
0000
0001
0000
0010
0000
0001
0010
0000
0001
0010
0000
0001
0000
0000
0000
,
0100
0010
1000
0000
0100
0010
0001
0000
,
0010
0000
0100
0000
1000
0000
0100
1000
0000
0100
1000
0000
0100
0000
0000
0000
,
0010
0001
1000
0000
0010
0100
0001
0000
,
0010
0000
0100
0000
0010
0000
0001
1000
0000
0001
1000
0000
0001
0000
0000
0000
,
1000
0100
0001
0000
0001
0100
1000
0000
,
0100
0010
0100
1001
,
0100
0000
0010
0000
1000
0000
0000
0000
0100
0000
0000
1000
0000
0000
0001
0000
,
0100
0000
1000
0000
0100
0000
0000
0000
0010
0000
0000
0100
0000
0000
0001
0000
,
0010
0000
0100
0000
1000
0000
0000
0000
0100
0000
0000
0010
0000
0000
0100
0000
,
0010
0000
0001
0000
0100
0100
0100
0000
,
1002
0000
0000
0000
0103
0000
0000
0000
0010
0000
0000
0001
0000
0000
0010
0000
,
0100
0000
0001
0000
0010
0000
0000
0000
0100
0000
0000
0010
0000
0000
0001
0000
,
1000
0000
0001
0000
0010
0000
0000
0000
0100
0000
0000
0010
0000
0000
0100
0000
,
1000
0000
0100
0000
1000
1000
1000
0000
,
0002
0000
0013
0000
,
2000
0000
3100
0000
,
0020
0000
0100
0100
,
0031
0000
0100
0010
,
2000
0000
3100
0000
,
0002
0000
0013
0000
,
0100
1000
0010
0001
,
2002
0000
0000
3003
,
0010
0001
1000
0000
0100
0010
0001
0000
,
0100
0000
0001
0000
0010
0000
0001
0010
0000
0001
0010
0000
0001
0000
0000
0000
,
1000
0100
0100
0000
0001
0010
0010
0000
,
1000
0000
0001
0000
1000
0000
0001
1000
0000
0001
1000
0000
0001
0000
0000
0000
,
1000
0100
0001
0000
0001
0100
1000
0000
,
0100
0000
0010
0000
0001
0000
0010
0001
0000
0010
0001
0000
0010
0000
0000
0000
,
1010
0100
0010
0000
0101
0010
0100
0000
,
1100
0000
0000
0000
0010
0000
0000
0100
0010
0000
0000
0000
1001
0000
0000
0000
,
0100
0010
1000
0000
0010
0100
0001
0000
,
0100
0010
1000
0000
0100
0010
0001
1000
,
0001
0001
0010
0000
0001
1000
0100
0000
,
1000
0001
0010
0000
0001
1000
0100
0000
,
1000
0000
0100
0000
1000
0000
0100
0000
1000
0000
0000
0001
0000
0000
0100
0000
,
0010
0000
0001
0000
0010
0000
0100
0000
0001
0000
0000
0010
0000
0000
0100
0000
,
0010
0000
0100
0000
1000
0000
0100
0000
1000
0000
0000
0100
0000
0000
0010
0000
,
0100
1010
0110
0101
,
0100
0000
0010
0000
0001
0000
0010
0000
0100
0000
0001
0010
0000
0000
0000
0000
,
0100
0000
1000
0000
0100
0000
0010
0000
0100
0000
1000
0100
0000
0000
0000
0000
,
1000
0000
0001
0000
0100
0000
0001
0000
1000
0000
0001
0100
0000
0000
0000
0000
,
0010
0101
0010
1100
,
0100
0000
0010
0000
0001
0000
0010
0000
0100
0000
0010
0100
0000
0100
1000
0000
,
0010
0000
0001
0000
0010
0000
0100
0000
0001
0000
0010
0001
0000
0001
1000
0000
,
0100
0100
0100
0000
1000
0100
0010
0000
,
0100
0000
1001
0000
0101
0000
0010
0100
,
0001
0000
0000
0000
;

//--------------- dance-double - M. Emirzian ----------------
#NOTES:
     dance-double:
     M. Emirzian:
     Easy:
     3:
     0.207,0.276,0.106,0.089,0:
00000000
00000000
00000000
00000000
,
00000000
00000000
00000000
00000000
,
00000000
00000000
00000000
00000000
,
00000000
00000000
00000000
00000000
,
00000000
10000000
00000000
00010000
,
00000000
01000000
00000000
00001000
,
00000000
00010000
00000000
00000010
,
00000000
00001000
00000000
00000100
,
00000010
00000000
00000001
00000000
,
00001000
00000000
00000100
00010000
,
00001000
00000000
01000000
00000000
,
00100000
00000000
10000000
10000000
,
10000000
00000000
01000000
01000000
,
02000000
00000000
03010000
00010000
,
00020000
00000000
00031000
00001000
,
00002000
00000000
00003100
00000100
,
00000200
00000000
00000301
00000001
,
00000002
00000000
00001003
00000000
,
00000100
00000000
00010000
00010000
,
00020000
00000000
00000000
00000000
,
00031000
00000000
01000000
00000000
,
00010000
00000000
10000000
00010000
,
10010000
00000000
00100000
00000000
,
00001000
00000000
00010000
00000100
,
00001100
00000000
00000010
00000000
,
00000001
00000000
00001000
00000100
,
00010100
00000000
00001000
00000000
,
00100000
00000000
00010000
01000000
,
01100000
00000000
00100000
00000000
,
10000000
10000000
10000000
00000000
,
01000000
00000000
00100000
00000000
,
00001000
00001000
00001000
00000000
,
00010000
00000000
00000100
00000000
,
00000010
00000010
00000010
00000000
,
00000001
00000000
00001000
00000000
,
00000100
00000100
00000100
00010000
,
00001000
00000000
00000000
00000000
,
00010000
00000000
00000000
00000000
,
00100000
00000000
00000000
00000000
,
10000000
00000000
00000000
00000000
,
00010000
00000000
00000000
00000000
,
00001000
00000000
00000000
00000000
,
00000001
00000000
00000000
00000000
,
00001000
00000000
00000000
00000000
,
00010000
00000000
00001000
00000000
,
00010000
00000000
00100000
10000000
,
10010000
00000000
10000000
00000000
,
01000000
00000000
00100000
00001000
,
00011000
00000000
00010000
00000000
,
00000100
00000000
00001000
00000010
,
00001001
00000000
00000010
00000000
,
00000100
00000000
00010000
00001000
,
01001000
00000000
01000000
00000000
,
00010000
00000000
10000000
00010000
,
01100000
00000000
00010000
00000000
,
01000000
00000000
00001000
00010000
,
00010100
00000000
00001000
00000000
,
00000001
00000000
00000010
00000100
,
00001100
00000000
00000001
00000000
,
00000100
00000100
00000010
00000010
,
00010010
00000000
00000000
00000000
,
00010000
00010000
00020000
00000000
,
01030000
01000000
02000000
00000000
,
13000000
10000000
20000000
00000000
,
30010000
00010000
00020000
00000000
,
00130000
00100000
00200000
00000000
,
00301000
00001000
00001000
00010000
,
00000010
00000010
00000010
00000100
,
00001001
00000000
00000000
00000000
;

//--------------- dance-double - M. Emirzian ----------------
#NOTES:
     dance-double:
     M. Emirzian:
     Medium:
     6:
     0.385,0.442,0.252,0.065,0:
00000000
00000000
00000000
00000000
,
00000000
00000000
00000000
00000000
,
00000000
00000000
00000000
00000000
,
00000000
00000000
00000000
00000000
,
00000000
10010000
00000000
10010000
00000000
00110000
00000000
00110000
,
00000000
00101000
00000000
00101000
00000000
00011000
00000000
00011000
,
00000000
00010010
00000000
00010010
00000000
00001010
00000000
00001001
,
00000000
00000010
00000000
00000100
00001000
00000001
00000000
00000000
,
00000010
00001000
00010000
00100000
,
10000000
00000000
00010000
00000000
01000000
00100000
10000000
00000000
,
00010000
00000000
00100000
00000000
00001000
00010000
00000100
00000000
,
00001000
00000000
00000010
00000000
00000100
00000001
00000010
00000100
,
00001000
00000000
00000000
00000001
00000000
00000001
00000000
00000100
,
00000000
00000100
00000000
00001000
00000000
00001000
00000000
00010000
,
00000000
00010000
00000000
01000000
00000000
01000000
00000000
10000000
,
00000000
10000000
00000000
00000000
00010000
00100000
01000000
00000000
,
10000000
00000000
00100000
00000000
01000000
00001000
00010000
00000000
,
00000100
00000000
00000010
00000000
00000001
00001000
00000100
00000000
,
00001000
00000000
00000010
00000000
00000100
00000001
00001000
00000000
,
00000100
00010000
00002000
00000000
,
00103000
00010000
01000000
00100000
,
10000000
00100000
01000000
00000000
01010000
00000000
10000000
00000000
,
01010000
01000000
00001000
00010000
,
00000010
00001000
00000001
00000000
00000110
00000000
00001000
00000000
,
00000110
00000100
00000001
00001000
,
00000100
00010000
00001000
00000000
00101000
00000000
00001000
00000000
,
00101000
00000000
00100000
00000000
01000000
00000000
10000000
00010000
,
01000000
00000000
00100000
10000000
01000000
00100000
00010000
00000000
,
01000000
00000000
02000000
00000000
03001000
00010000
00000100
00000000
,
00000010
00000000
00000020
00000000
00000031
00001000
00000100
00000000
,
00000010
00000000
00000020
00000000
00000031
00000010
00000100
00000000
,
00010000
00000000
00020000
00000000
00031000
01000000
00010000
00000000
,
00100000
00000000
00200000
00000000
01300000
10000000
00010000
00000000
,
01000000
00000000
02000000
00000000
03100000
10000000
00010000
00100000
,
01000000
00000000
00100000
00000000
00001000
00010000
00000010
00001000
,
00000001
00000000
00000010
00000100
00001000
00000100
00000010
00000001
,
00000100
00000000
00001000
00000000
,
00010000
00000000
00001000
00000000
,
01000000
00000000
00100000
00000000
,
10000000
00000000
00010000
00000000
,
00100000
00000000
00001000
00000000
,
00010000
00000000
00000100
00000000
,
00001000
00000000
00000001
00000000
,
00010000
00000000
10000000
00000000
,
01010000
01000000
00100000
10000000
,
01000000
00100000
00001000
00000000
00011000
00000000
00000010
00000000
,
00011000
00000100
00001000
00000010
,
00000100
00000001
00000010
00000000
00001100
00000000
00010000
00000000
,
00001100
00000000
00000010
00000000
00010000
00000000
00001000
01000000
,
00010000
01100000
00001000
01100000
,
10000000
00000000
00010000
00100000
01000000
10000000
00010000
01000000
,
00100000
01000000
00001000
00010000
00000100
00001000
00000001
00000000
,
00001010
00001000
00000100
00010000
,
00001000
00100000
00010000
00000000
01010000
00000000
10000000
00000000
,
01010000
00100000
01000000
10000000
,
00010000
00100000
00001000
00000000
00011000
00000000
00000100
00000000
,
00011000
00000010
00001000
00000100
,
00000010
00000001
00001000
00000000
00000010
00000000
00000100
00000000
,
00000001
00001000
00000100
00000010
00000001
00001000
00000010
00000100
,
00000010
00010000
00001000
01000000
00010000
00100000
01000000
00000000
,
10000000
00000000
10000000
00000000
10000000
00000000
10000000
00100000
,
01000000
00000000
01000000
00000000
01000000
00000000
01000000
00001000
,
00010000
00000000
00010000
00000000
00010000
00000000
00010000
00000010
,
00001000
00000000
00001000
00000000
00001000
00000000
00001000
00000100
,
00000010
00000000
00000010
00000000
00000010
00000000
00000010
00000001
,
00000100
00000000
00000100
00000000
00000100
00000000
00000100
00001000
,
00010000
00000000
00010000
00000000
00010000
00000000
00010000
00100000
,
20000000
00000000
30010000
01000000
00100000
10000000
01000000
00000000
,
10010000
00000000
00000000
00000000
;

//--------------- dance-double - M. Emirzian ----------------
#NOTES:
     dance-double:
     M. Emirzian:
     Hard:
     8:
     0.486,0.469,0.236,0.171,0.073:
00000000
00000000
00000000
00000000
,
00000000
00000000
00000000
00000000
,
00000000
00000000
00000000
00000000
,
00000000
00000000
00000000
00000000
,
00100000
00100000
00000000
01010000
00000000
00110000
00000000
00001000
,
00010000
00000100
00000000
00001010
00000000
00001100
00000000
00010000
,
00001000
01000000
00000000
00110000
00000000
01010000
00000000
00001000
,
00010000
00000010
00000000
00001100
00000000
00000010
00001001
00000000
,
00000002
00000203
00000320
00020030
,
00031000
00000000
00000000
00000000
01000000
00000000
00000000
00000000
00100000
00000000
01000000
00010000
00000000
00010000
10000000
00000000
,
02000000
03200000
00320000
02030000
,
03100000
10000000
01000000
00100000
00010000
00000000
00100000
01000000
,
11000000
00000000
00100000
00000000
00001000
00010000
01000000
00010000
,
00001000
00000000
00000010
00000001
00000100
00000010
00010000
00000000
,
00000200
00000320
00000032
00000203
,
00000310
00001000
00000100
00010000
00001000
00010000
00100000
00000000
,
20000000
30020000
00230000
02300000
,
13000000
00000000
00000000
00000000
00010000
00000000
00000000
00000000
01000000
00000000
00100000
10000000
00000000
10000000
00010000
00000000
,
00100000
00000000
01000000
00000000
10000000
00100000
01000000
00001000
,
00020000
00000000
00000000
00000000
,
00031000
00001000
00000000
00010100
00000000
00000010
00001000
00000100
,
00000010
00000001
00000000
00001100
00000000
00001000
00000001
00000100
,
00000010
00010000
00000000
00011000
00000000
01000000
10000000
00100000
,
01000000
00010000
00100000
00001000
00010000
01000000
10000000
00000000
,
00100000
00100000
00000000
01010000
00000000
00100000
00001000
00010000
,
00000100
00000010
00000000
00000011
00000000
00000100
00001000
00000010
,
00000100
00000001
00000000
00001010
00000000
00010000
00001000
00000100
,
00000001
00000010
00000100
00001000
00000100
00010000
00001000
00000000
,
01000000
00000000
00100000
00000000
10000000
00000000
00000000
00000000
01000000
00000000
00100000
00010000
00000000
00000000
01000000
00000000
,
00001000
00000000
00010000
00000000
01000000
00000000
00000000
00000000
10000000
00000000
00010000
01000000
00000000
00000000
00001000
00000000
,
00010000
00000000
00000010
00000000
00000100
00000000
00000000
00000000
00000001
00000000
00000010
00000100
00000000
00000000
00000010
00000000
,
00000001
00000000
00000100
00000000
00000010
00000000
00000000
00000000
00010000
00000000
00001000
00010000
00000000
00000000
00001000
00000000
,
00000100
00000000
00000001
00000000
00000010
00000000
00000000
00000000
00000100
00000000
00010000
00001000
00000000
00000000
01000000
00000000
,
00100000
00000000
10000000
00000000
00100000
00000000
00000000
00000000
01000000
00000000
00010000
00100000
00000000
00000000
01000000
00000000
,
10000000
00000000
01000000
00000000
00010000
00000000
00000000
00000000
00001000
00000000
00010000
00000010
00000000
00000000
00001000
00000000
,
00000100
00000010
00000001
00000100
00000010
00000100
00000001
00001000
,
00000101
00000000
00000010
00000000
,
00010000
00000000
00002000
00000100
,
00013000
00000000
01000000
00000000
,
10000000
00000000
00200000
01000000
,
10300000
00000000
00010000
00000000
,
00200000
01000000
00301000
00000000
,
00010000
00000000
00000010
00000000
,
00000200
00000010
00000301
00001000
,
00000100
00000100
00000000
00000110
00000000
00000001
00000100
00000010
,
00001000
00000001
00000000
00001010
00000000
00010000
00001000
00000100
,
00001000
00010000
00000000
01001000
00000000
00010000
01000000
00100000
,
10000000
01000000
00100000
00001000
00010000
00100000
10000000
00000000
,
01000000
01000000
00000000
00110000
00000000
01000000
00001000
00010000
,
00000010
00001000
00000000
00000101
00000000
00000010
00000100
00000001
,
00000010
00000100
00000000
00010100
00000000
00001000
00000010
00000100
,
00000001
00000010
00001000
00010000
00001000
01000000
00100000
00000000
,
10000000
10000000
00000000
01010000
00000000
00100000
10000000
01000000
,
00100000
00010000
00000000
11000000
00000000
00100000
00010000
00001000
,
00100000
01000000
00000000
10010000
00000000
00001000
00010000
00000010
,
00001000
00000100
00000010
00000001
00001000
00000010
00000100
00000000
,
00000001
00000001
00000000
00001010
00000000
00000100
00000001
00000010
,
00000100
00001000
00000000
00010010
00000000
00001000
00000100
00001000
,
00010000
01000000
00000000
11000000
00000000
00100000
00001000
00010000
,
01000000
10000000
00100000
01000000
00010000
00100000
00001000
00000000
,
00010000
00000000
00000010
00000000
00001000
00000000
00000000
00000000
00000100
00000000
00000010
00000100
00000000
00000000
00001000
00000000
,
00000001
00000000
00000100
00000000
00000010
00000000
00000000
00000000
00010000
00000000
00001000
00010000
00000000
00000000
00001000
00000000
,
00100000
00000000
01000000
00000000
10000000
00000000
00000000
00000000
00010000
00000000
01000000
00100000
00000000
00000000
01000000
00000000
,
00001000
00000000
00010000
00000000
00100000
00000000
00000000
00000000
10000000
00000000
01000000
00100000
00000000
00000000
00001000
00000000
,
00010000
00000000
00000100
00000000
00000010
00000000
00000000
00000000
00000001
00000000
00000100
00000010
00000000
00000000
00001000
00000000
,
00000010
00000000
00000100
00000000
00000001
00000000
00000000
00000000
00000010
00000000
00000100
00010000
00000000
00000000
00001000
00000000
,
00000100
00000000
00001000
00000000
00010000
00000000
00000000
00000000
00100000
00000000
10000000
01000000
00000000
00000000
00100000
00000000
,
00010000
01000000
00100000
01000000
00001000
00010000
01000000
10000000
,
01010000
00000000
00000000
00000000
;

//--------------- dance-double - M. Emirzian ----------------
#NOTES:
     dance-double:
     M. Emirzian:
     Challenge:
     9:
     0.593,0.635,0.504,0.041,0.158:
00000000
00000000
00000000
00000000
,
00000000
00000000
00000000
00000000
,
00000000
00000000
00000000
00000000
,
00000000
00000000
00000000
00000000
,
00001000
00101000
000M0000
00011000
000000M0
00010010
0000M000
00011000
,
0M000000
01001000
00000000
00011000
000000M0
00010010
0000M000
00001010
,
00000M00
00001100
000000M0
00001010
000M0000
00011000
0M000000
01001000
,
000M0000
01010000
00M00000
00110000
0M000000
01010000
00100000
00000000
,
00100000
10000000
00010000
01000000
00001000
01000000
00100000
10000000
,
00010000
00000000
01000000
00000000
00100000
00000000
00010000
00000000
00001000
00000000
00010000
00000010
00000000
00000010
00001000
00000000
,
00000100
00000010
00000001
00000000
00001100
00000000
00001010
00000000
,
00000100
00010000
00001000
00100000
00110000
00000000
01010000
10000000
,
01000000
00000000
01010000
00000000
00100000
10000000
01000000
00100000
,
01000000
10000000
00100000
00010000
00001000
00100000
00001000
00010000
,
00000100
00000000
00010010
00000000
00000010
00001000
00000100
00000010
,
00000001
00000100
00000010
00010000
00000100
00001000
00000010
00000100
,
00000001
00000000
00001100
00000000
00010000
00001000
00100000
01000000
,
10000000
00000000
00100000
00000000
01000000
00000000
00001000
00000000
00100000
00000000
00010000
01000000
00000000
01000000
00100000
00000000
,
10010000
00000000
00110000
00000000
00001000
00010000
00000010
00010000
,
00002000
00000000
00000000
00003000
,
00001100
00000010
00000000
00001001
00000000
00000100
00001010
00000000
,
00010100
00001000
00000000
01001000
00001000
01000000
00010000
00100000
,
00001000
00100000
01000000
10000000
00100000
01000000
00001000
00010000
,
00000010
00000100
00000001
00000010
00000001
00001000
00000010
00000100
,
00000101
00000010
00000000
00001001
00000000
00000100
00000011
00000000
,
00001100
00010000
00000000
00101000
00001000
00100000
01000000
10000000
,
00010000
00100000
01000000
00010000
00001000
00000010
00000001
00000100
,
00000010
00001000
00000001
00000010
00000100
00001000
00000100
00000000
,
00000010
00000000
00000001
00000000
00000100
00000000
00000010
00000000
00010000
00000000
00001000
00010000
00000000
00010000
01000000
00000000
,
10000000
00000000
00010000
00000000
00100000
00000000
01000000
00000000
10000000
00000000
00100000
00010000
00000000
00010000
00001000
00000000
,
00010000
00000000
01000000
00000000
00010000
00000000
00001000
00000000
00000010
00000000
00000001
00000100
00000000
00000100
00001000
00000000
,
00010000
00000000
00100000
00000000
00010000
00000000
00001000
00000000
00000010
00000000
00001000
00010000
00000000
00010000
00100000
00000000
,
10000000
00000000
01000000
00000000
00100000
00000000
00001000
00000000
00100000
00000000
00010000
01000000
00000000
01000000
00100000
00000000
,
00010000
00000000
00001000
00000000
00000010
00000000
00000001
00000000
00001000
00000000
00000010
00000100
00000000
00000100
00001000
00000000
,
00010000
00000000
00000100
00000000
00000010
00000000
00000001
00000000
00000100
00000000
00001000
00010000
00000000
00010000
00100000
00000000
,
10000000
00000000
01000000
00000000
00100000
00010000
00100000
00000000
01000000
10000000
01000000
00000000
10000000
00010000
10000000
00000000
,
10020000
00100000
01000000
00130000
,
00011000
00010000
00000010
00001000
,
00001200
00010000
00000010
00010300
,
00001001
00000100
00000010
00010000
,
00002100
00010000
00000100
00013000
,
00100000
10000000
10010000
00100000
,
12000000
00100000
00010000
13000000
,
00010000
01000000
00100000
10000000
,
00011000
00000010
00000000
00000101
00000000
00000001
00001010
00000000
,
00010100
00001000
00000000
01010000
10000000
00010000
00100000
01000000
,
10000000
00100000
01000000
00001000
00010000
00000010
00001000
00000001
,
00000010
00000100
00001000
00000001
00000100
00001000
00010000
00001000
,
00011000
00100000
00000000
10010000
00000000
01000000
00110000
00000000
,
01001000
00010000
00000000
00010100
00001000
00010000
00000010
00001000
,
00000010
00000100
00000001
00000010
00000100
00010000
00001000
01000000
,
00100000
01000000
00001000
00010000
00100000
01000000
00010000
10000000
,
10100000
01000000
00000000
00110000
00000000
01000000
00011000
00000000
,
00010010
00000100
00000000
00001001
00000100
00000001
00000010
00000100
,
00010000
00001000
00100000
00001000
01000000
00100000
10000000
01000000
,
00100000
00010000
01000000
00100000
00010000
00001000
00000010
00000001
,
00000101
00000010
00000000
00001100
00000000
00000010
00011000
00000000
,
01100000
10000000
00000000
01010000
00010000
00100000
01000000
10000000
,
00100000
00010000
00100000
10000000
01000000
00100000
00001000
00010000
,
00000100
00010000
00000010
00000100
00000001
00000010
00000100
00000000
,
00001000
00000000
00000100
00000000
00000010
00000000
00000100
00000000
00001000
00000000
00000001
00000100
00000000
00000100
00001000
00000000
,
00010000
00000000
01000000
00000000
10000000
00000000
00100000
00000000
00010000
00000000
00001000
01000000
00000000
01000000
00100000
00000000
,
00010000
00000000
00001000
00000000
00000010
00000000
00001000
00000000
00010000
00000000
00000100
00000010
00000000
00000010
00000001
00000000
,
00000100
00000000
00000010
00000000
00001000
00000000
00000100
00000000
00000010
00000000
00001000
00010000
00000000
00010000
00100000
00000000
,
10000000
00000000
00010000
00000000
01000000
00000000
00100000
00000000
10000000
00000000
01000000
00010000
00000000
00010000
00001000
00000000
,
00000100
00000000
00001000
00000000
00010000
00000000
00000010
00000000
00001000
00000000
00000001
00000100
00000000
00000100
00001000
00000000
,
00010000
00000000
01000000
00000000
10000000
00000000
00100000
00000000
01000000
00000000
00001000
00100000
00000000
00100000
01000000
00000000
,
00010000
00001000
00010000
00000000
00000100
00000010
00000100
00000000
00010000
00000010
00000100
00000000
00000001
00000100
00000010
00000000
,
00010010
00000000
00000000
00000000
;

//--------------- lights-cabinet - ----------------
#NOTES:
     lights-cabinet:
     :
     Easy:
     1:
     0.545,0.58,0.406,0.081,0.162:
000000
000000
000000
000000
,
000000
000000
000000
000000
,
100000
010000
100000
001000
100000
000100
100000
000000
,
100000
001000
010000
001000
011000
000000
100100
000000
,
100000
001000
100000
000000
000100
010000
000100
000000
,
100000
000000
001000
000000
010000
000100
000000
100000
001000
000000
000100
000000
010000
000000
000000
000000
,
001000
010000
001000
000000
100000
010000
100000
000000
,
000100
000000
010000
000000
001000
100000
000000
100000
010000
000000
100000
000000
001000
000000
000000
000000
,
200000
300100
000200
100300
,
000100
000000
001000
000000
010000
000000
100000
000000
001000
000000
010000
001000
000000
001000
100000
000000
,
020000
001000
001000
130000
,
000100
001000
000100
000000
010000
001000
100000
000000
,
100000
000000
010100
000000
000100
100000
010000
000000
,
100000
000000
011000
000000
000100
010000
001000
100000
,
000100
000000
101000
000000
000100
010000
000100
010000
,
000100
200000
301000
000200
,
010300
000000
200000
000000
301000
000000
000200
100000
,
100300
000000
001000
000000
010000
000000
000100
000000
001000
000000
000100
010000
000000
010000
001000
000000
,
010000
000000
001000
000000
100000
010000
100000
000100
,
001000
110000
000100
011000
,
100000
001000
100000
000000
000100
001000
000100
000000
,
100000
000000
000100
000000
001000
000000
000100
001000
000000
000100
001000
000000
000100
000000
000000
000000
,
100000
010000
100000
000000
001000
010000
001000
000000
,
100000
000000
010000
000000
100000
000000
010000
100000
000000
010000
100000
000000
010000
000000
000000
000000
,
100000
001000
010000
000000
000100
001000
000100
000000
,
100000
000000
010000
000000
100000
000000
001000
010000
000000
000100
001000
000000
000100
000000
000000
000000
,
100000
010000
100000
000000
001000
010000
000100
000000
,
100000
001000
010000
000100
001000
000000
001100
000000
,
100000
000000
001000
000000
010000
000000
000000
000000
001000
000000
000000
001000
000000
000000
001000
000000
,
010000
000000
000100
000000
001000
000000
000000
000000
000100
000000
000000
000100
000000
000000
000100
000000
,
010000
000000
001000
000000
100000
000000
000000
000000
010000
000000
000000
010000
000000
000000
010000
000000
,
100000
000000
001000
000000
010000
000000
000000
000000
000100
000000
000000
000100
000000
000000
000100
000000
,
100000
000000
001000
000000
010000
000000
000100
000000
001000
000000
000000
001000
000000
000000
001000
000000
,
000100
000000
010000
000000
001000
000000
100000
000000
010000
000000
000000
010000
000000
000000
010000
000000
,
100000
000000
001000
000000
010000
000000
000100
000000
001000
000000
000000
001000
000000
000000
001000
000000
,
000100
010000
001000
010000
001000
000000
110000
000000
,
100000
011000
000100
011000
,
100000
011000
000100
011000
,
100000
011000
000100
011000
,
100000
000100
000100
001000
,
110000
101000
001100
000000
,
001000
100000
110000
000000
,
100000
011000
001000
001100
,
100000
001000
011000
011000
,
100000
010000
100000
000000
000100
001000
000100
000000
,
100000
000000
000100
000000
001000
000000
000100
001000
000000
000100
001000
000000
000100
000000
000000
000000
,
100000
010000
100000
000000
000100
001000
000100
000000
,
100000
000000
010000
000000
100000
000000
010000
100000
000000
010000
100000
000000
010000
000000
000000
000000
,
100000
001000
010000
000000
000100
010000
001000
000000
,
100000
000000
001000
000000
010000
000000
001000
010000
000000
000100
001000
000000
000100
000000
000000
000000
,
100000
001000
010000
000000
000100
001000
000100
000000
,
110000
000000
000000
000000
011000
000000
000000
000100
001000
000000
000100
000000
001100
000000
000000
000000
,
100000
000000
001000
000000
010000
000000
000000
000000
001100
000000
000000
001100
000000
000000
001100
000000
,
000100
000000
010000
000000
001000
000000
000000
000000
011000
000000
000000
011000
000000
000000
011000
000000
,
001000
000000
100000
000000
010000
000000
000000
000000
110000
000000
000000
110000
000000
000000
110000
000000
,
100000
001000
010000
001000
010000
000000
011000
000000
,
100000
000000
001000
000000
010000
000000
000100
000000
001100
000000
000000
001100
000000
000000
001100
000000
,
000100
000000
010000
000000
001000
000000
100000
000000
110000
000000
000000
110000
000000
000000
110000
000000
,
100000
000000
001000
000000
010000
000000
000100
000000
001100
000000
000000
001100
000000
000000
001100
000000
,
000100
100000
110000
000000
100000
000100
001100
000000
,
100000
010000
001000
010000
100000
000100
020000
000000
,
030100
001000
010000
001000
000100
100000
002000
000000
,
103000
010000
001000
010000
100000
000100
020000
000000
,
030100
001000
010000
001000
000100
010000
100000
000000
,
001000
000000
100000
000000
010000
000000
001000
000000
000100
000000
100000
000100
000000
000100
010000
000000
,
000100
000000
000100
000000
010000
000000
001000
000000
100000
000000
001000
100000
000000
100000
000100
000000
,
010000
000000
000100
000000
000100
000000
100000
000000
001000
000000
010000
000100
000000
000100
001000
000000
,
000100
000000
110000
000000
000100
010000
011000
000000
,
100100
000000
000000
000000
;
