#TITLE:Mellow;
#SUBTITLE:;
#ARTIST:Spacekats;
#TITLETRANSLIT:;
#SUBTITLETRANSLIT:;
#ARTISTTRANSLIT:;
#GENRE:;
#CREDIT:;
#MUSIC:Mellow.ogg;
#BANNER:mellow.png;
#BACKGROUND:Mellow-bg.png;
#CDTITLE:;
#SAMPLESTART:42.050;
#SAMPLELENGTH:12.980;
#SELECTABLE:YES;
#OFFSET:-0.050;
#BPMS:0.000=160.001;
#STOPS:;
#BGCHANGES:;
#FGCHANGES:;

//--------------- dance-single - M. Puls ----------------
#NOTES:
     dance-single:
     M. Puls:
     Beginner:
     1:
     0.08532,0.190806,0.046538,0,0,77,71,6,0,0,0,0.08532,0.190806,0.046538,0,0,77,71,6,0,0,0:
0000
0000
0000
0000
,
0000
0000
0000
0000
,
0000
0000
0000
0000
,
0000
0000
0000
0000
,
1000
0000
0000
0000
,
0000
0000
0000
0000
,
0001
0000
0000
0000
,
0000
0000
0000
0000
,
1001
0000
0000
0000
,
0000
0000
0000
0000
,
1000
0000
0000
0000
,
0100
0000
0000
0000
,
0010
0000
0000
0000
,
0010
0000
0000
0000
,
0001
0000
0000
0000
,
0010
0000
0000
0000
,
0100
0000
0000
0000
,
0100
0000
0000
0000
,
0000
0000
0000
0000
,
0000
0000
0000
0000
,
1000
0000
0000
0000
,
0010
0000
0000
0000
,
1000
0000
0000
0000
,
0001
0000
0000
0000
,
0100
0000
0000
0000
,
0001
0000
0000
0000
,
1000
0000
0000
0000
,
0001
0000
0000
0000
,
1001
1001
0000
0000
,
0010
0000
0000
0000
,
0100
0000
0000
0000
,
1000
0000
0000
0000
,
0001
0000
0000
0000
,
0100
0000
0000
0000
,
0010
0000
0000
0000
,
1000
0000
0000
0000
,
0001
0000
0000
0000
,
0000
0000
0000
0000
,
1001
0000
0000
0000
,
1000
0000
0000
0000
,
0010
0000
0000
0000
,
0100
0000
0000
0000
,
1001
0000
0000
0000
,
0001
0000
0000
0000
,
0010
0000
0000
0000
,
0100
0000
0000
0000
,
1000
0000
0000
0000
,
1000
0000
0000
0000
,
0100
0000
0000
0000
,
0010
0000
0000
0000
,
0001
0000
0000
0000
,
0001
0000
0000
0000
,
0010
0000
0000
0000
,
0100
0000
0000
0000
,
0000
0000
0000
0000
,
0000
0000
0000
0000
,
1000
0000
0000
0000
,
0100
0000
0000
0000
,
1000
0000
0000
0000
,
0100
0000
0000
0000
,
1000
0000
0000
0000
,
0001
0000
0000
0000
,
0010
0000
0000
0000
,
0001
0000
0000
0000
,
0010
0000
0000
0000
,
0001
0000
0000
0000
,
1000
0000
0000
0000
,
1000
0000
0000
0000
,
0001
0000
0000
0000
,
0001
0000
0000
0000
,
0100
0000
0000
0000
,
0100
0000
0000
0000
,
0010
0000
0000
0000
,
0010
0000
0000
0000
,
1000
0000
0000
0000
,
0010
0000
0000
0000
,
0100
0000
0000
0000
,
0001
0000
0000
0000
,
0100
0000
0000
0000
,
0010
0000
0000
0000
,
1000
0000
0000
0000
,
0000
0000
0000
0000
,
1001
0000
0000
0000
;

//--------------- dance-single - K. Ward ----------------
#NOTES:
     dance-single:
     K. Ward:
     Easy:
     5:
     0.228258,0.318979,0.062051,0,0,206,198,8,0,0,0,0.228258,0.318979,0.062051,0,0,206,198,8,0,0,0:
0000
0000
0000
0000
,
0000
0000
0000
0000
,
0000
0000
0000
0000
,
0000
0000
0000
0000
,
0001
1000
0000
0010
,
1000
0001
0000
1000
,
0010
1000
0000
0001
,
1000
0000
0010
0000
,
1001
0000
0000
0000
,
0000
0000
0000
0000
,
1000
0000
0010
0000
,
1000
0000
0001
0100
,
0001
0000
1000
0000
,
0010
0000
1000
0100
,
1000
0000
0001
0000
,
1000
0000
0001
0100
,
0010
0010
0000
0100
,
0001
0000
1000
0001
,
1000
1000
0000
0000
,
0000
0000
0000
0000
,
0001
1000
0001
1000
,
0000
0010
1000
0001
,
0000
1000
0010
1000
,
0001
0000
1000
0000
,
0010
1000
0100
1000
,
0001
0000
1000
0000
,
0010
1000
0100
1000
,
0001
0000
1000
0000
,
0010
0010
0000
0000
,
1000
1000
0000
0000
,
0001
0001
0000
0000
,
0100
0000
0001
0001
,
0100
0100
0000
0000
,
0001
0001
0000
0000
,
1000
1000
0000
0000
,
0010
0000
0100
0100
,
0001
0000
0000
0000
,
1001
0000
0000
0000
,
1000
0000
0010
0000
,
1000
0000
0001
0100
,
0001
0000
1000
0000
,
0010
0000
1000
0100
,
1000
0000
0001
0000
,
1000
0000
0001
0100
,
0010
0010
0000
0100
,
0001
0000
0000
0000
,
1000
1000
0010
0000
,
1000
1000
0001
0000
,
0100
0100
0001
0000
,
1000
0010
1000
0001
,
1000
0000
0001
0000
,
1000
0000
0001
0100
,
0010
0010
0000
0100
,
0001
0000
1000
0001
,
1000
1000
0000
0000
,
0001
0000
0000
0000
,
1000
0000
0010
0000
,
1000
0000
0001
0000
,
1000
0000
0010
0000
,
1000
0010
0100
0001
,
1000
0000
0010
0000
,
1000
0000
0001
0000
,
1000
0000
0010
0000
,
1000
1000
0010
1000
,
1001
0000
1001
0000
,
1001
0000
1001
0000
,
1000
0001
0100
0001
,
1001
0000
1001
0000
,
1000
1000
0010
1000
,
0001
0001
0001
1000
,
0010
0010
0010
0010
,
0100
0100
0100
0100
,
0001
0000
1000
0000
,
0001
1000
0010
1000
,
0001
0000
0100
0000
,
0010
0000
1000
0000
,
0001
0000
1000
1000
,
0001
0000
0100
0100
,
0001
0000
1000
0000
,
0010
0000
0100
0010
,
0100
0000
0001
0000
,
1000
0000
0010
0000
,
1000
0001
0000
0000
;

//--------------- dance-single - K. Ward ----------------
#NOTES:
     dance-single:
     K. Ward:
     Medium:
     8:
     0.350143,0.546385,0.178396,0.100832,0,316,293,23,13,0,0,0.350143,0.546385,0.178396,0.100832,0,316,293,23,13,0,0:
0000
0000
0000
0000
,
0000
0000
0000
0000
,
0000
0000
0000
0000
,
0000
0000
0000
0000
,
0001
1000
0001
1000
,
0010
0100
1000
0100
,
0001
0001
0000
1000
,
2000
0000
3100
0000
,
0001
0100
1000
0100
,
0001
0100
1000
0100
,
1001
0001
0010
0100
,
0010
0001
1000
0001
,
1001
1000
0010
0100
,
1000
1000
0001
0001
,
1001
0100
1001
0010
,
1001
0000
0010
0000
0100
1000
0100
0000
,
0001
0010
0000
0100
,
0100
0000
1000
0010
0100
0000
0010
0000
,
0002
1000
0000
0010
,
0000
1003
0001
1000
,
0100
0100
0100
0100
,
1000
0000
0010
0000
0100
0010
0100
0000
,
0001
0001
0001
0001
,
1000
1000
1000
1000
,
0100
0010
0100
0000
0010
0100
0010
0000
,
0001
1000
0001
1000
,
0100
0100
1000
1000
,
0010
0100
0001
0010
0000
0000
0101
0000
,
1000
1000
0010
0010
,
0100
1000
0100
0000
0010
0001
0010
0000
,
0100
0100
0001
0010
,
0100
1000
0100
0010
0100
0000
0100
0000
,
1000
1000
0001
0001
,
0100
1000
0010
0001
,
1001
1100
0011
0100
,
1001
0110
0011
0110
,
2002
0000
0000
0000
,
3003
0000
0000
0000
,
1000
0001
0100
1000
,
0100
0000
0001
0000
0010
0000
0010
0100
,
1000
1000
0010
0100
,
0010
0000
0001
0000
0010
0000
0100
0001
,
0010
0100
0010
0001
,
1000
0001
0001
1000
,
0100
0100
0000
0010
,
0200
1000
0010
1000
,
0300
0000
0001
0010
0001
0000
0001
0000
,
0100
0000
1000
0000
0100
0000
0010
0100
,
0001
0010
0100
1000
,
1000
0000
0100
0000
0010
0000
0100
0010
,
0001
1000
0010
0100
,
0100
0001
0010
0100
,
1001
1001
0000
0100
,
0100
0000
0010
0100
1000
0000
0100
0000
,
0002
0000
2003
0000
,
3020
0000
0230
0000
,
1300
0000
1000
0100
0010
0000
0010
0000
,
0100
0000
0100
0001
0010
0000
0010
0000
,
0100
0000
0100
1000
0010
0000
0010
0000
,
0100
0000
0100
1000
0100
0000
0001
0000
,
0010
0000
0010
0100
1000
0000
1000
0000
,
0100
0000
0100
0010
0001
0000
0001
0000
,
0010
0000
0010
0100
0010
0000
1001
0000
,
0100
0000
0100
0010
0100
0000
1001
0000
,
0100
0100
0100
0100
,
0100
0100
0100
0100
,
2000
0000
0000
0000
,
0002
0000
0000
3003
,
0010
0010
0100
0100
,
0010
0001
0010
0100
,
0001
0001
1000
1000
,
0100
0010
0100
0100
,
0001
1000
0001
1000
,
0001
0011
1100
0110
,
1001
0000
0000
0000
,
1000
0000
0000
0000
,
0001
0000
0000
0000
,
0100
0000
0000
0000
,
0010
0000
0010
0000
,
0001
0000
1000
0000
,
0001
0000
0000
0100
,
0100
0000
0010
0100
,
0010
0000
2002
0000
0000
0000
0000
3003
;

//--------------- dance-single - K. Ward ----------------
#NOTES:
     dance-single:
     K. Ward:
     Hard:
     12:
     0.500837,0.578525,0.364547,0.170639,0,452,405,47,22,0,0,0.500837,0.578525,0.364547,0.170639,0,452,405,47,22,0,0:
0000
0000
0000
0000
,
0000
0000
0000
0000
,
0000
0000
0000
0000
,
0000
0000
0000
0000
,
0001
0001
1000
0010
0010
0100
0001
0010
,
0010
0100
1000
0010
0100
0100
0001
0010
,
0001
2000
0000
3010
,
1000
0000
0001
0100
0010
1000
0001
0100
,
0010
0100
0001
1000
,
0010
0100
0001
1000
,
0011
0000
0011
0000
1000
1000
1000
0000
,
0110
0000
0110
0000
0001
0001
0001
0000
,
1100
0000
1100
0000
0010
0010
0010
0000
,
1000
0010
1000
0000
0001
0100
0001
0000
,
0101
0000
0101
0000
0010
0010
0010
0000
,
1001
0000
1001
0000
0100
0100
0100
0000
,
0010
2000
0000
0100
,
3010
0000
0010
0010
0100
0100
0001
0010
,
0001
1000
0010
0100
,
0001
1100
1000
0011
,
0001
1000
0010
1000
0010
1000
0001
0000
,
0100
0001
0100
0001
1000
1000
0001
0000
,
0010
0100
0010
0000
0100
1000
0010
0000
,
0100
0001
0010
0100
0010
0001
0010
0000
,
1000
1000
0100
0000
0001
0001
0010
0000
,
0100
0010
0110
0000
0100
0010
1010
0000
,
0001
0100
0001
0000
1000
0100
1000
0000
,
0001
0100
0001
0100
0000
0100
0010
0000
,
1010
0000
0110
0000
1000
1000
1000
0000
,
0010
0100
0010
0100
0001
0010
0010
0000
,
0001
1000
1000
0000
0100
0010
0010
0000
,
0100
1000
0010
0100
0001
0010
0001
0000
,
0001
0100
0010
1000
0100
0010
0001
0000
,
1000
1000
0001
0100
0001
0001
0001
0000
,
1010
1100
0101
0011
,
0110
1100
0011
1001
,
2002
0000
0000
0000
,
0000
0000
0000
0000
,
3003
0000
0001
1000
0001
0100
0010
1000
,
0100
0000
0100
0000
1000
0100
1000
0001
,
0010
0000
0001
0001
0100
0100
0010
0010
,
1100
0000
0100
0010
0001
0010
0100
0010
,
0011
0000
0100
0001
1000
0010
0010
0000
,
1100
0000
0001
1000
1000
0010
0010
0000
,
0100
1001
0000
0100
,
0002
1000
0010
1003
,
1100
0000
0100
0001
0100
0010
0100
1000
,
0100
0000
0010
0000
0001
0010
0100
0010
,
0100
0000
1000
1000
0010
0010
0100
0100
,
0011
0000
1000
0010
0100
0001
0010
0100
,
1100
0000
0010
0001
0010
0100
0100
0000
,
0011
0000
1000
0001
0001
0010
0010
0000
,
0100
0200
0000
0010
,
1300
0000
1000
0100
0010
0100
0010
0000
,
1001
0010
0100
0001
,
1000
0100
0001
0100
,
1000
0000
1000
0001
1000
0100
1000
0000
,
0001
0000
0001
0100
0010
1000
0001
0000
,
0100
0000
0100
0010
1000
0001
1000
0000
,
0100
0000
0100
0010
0001
0010
0001
0000
,
0001
0000
0100
0010
0100
0001
1000
0000
,
1000
0000
0010
0100
0010
0100
0001
0000
,
2000
0000
3010
0100
0001
0100
0010
1000
,
0002
1000
0100
1003
,
0001
1100
0010
0110
,
1001
1100
0010
0110
,
0002
1000
1000
1003
,
0020
0100
0100
0130
,
0001
0000
0100
0000
0010
0000
1000
0010
,
1000
0000
0100
0010
0001
0000
0100
0010
,
1000
0000
0100
0000
0011
0000
0010
0100
,
1000
0000
0110
0000
0100
0010
1001
0000
,
1000
0100
1000
0001
1000
0100
1000
0001
,
1000
0001
0100
0010
1000
0001
1000
0000
,
0001
0022
0000
0033
,
0010
0220
0000
0330
,
0100
2200
0000
3300
,
1000
0100
0001
0100
,
0010
0202
0000
0303
,
1000
0220
0000
0330
,
0010
0200
0000
1000
,
0310
1000
0100
0010
,
0100
0000
2000
0000
0000
0000
0000
3000
;

//--------------- dance-single - C. Foy ----------------
#NOTES:
     dance-single:
     C. Foy:
     Challenge:
     15:
     0.662612,0.996349,0.310253,0.031025,0.391695,598,558,40,4,12,3,0.662612,0.996349,0.310253,0.031025,0.391695,598,558,40,4,12,3:
0000
0000
0000
0000
,
0000
0000
0000
0000
,
0000
0000
0000
0000
,
0000
0000
0000
0000
,
0000
0000
0010
1000
0100
0010
0100
0000
,
1000
0000
1000
0100
1000
0010
0100
0000
,
0001
0001
0000
1000
,
1000
0000
0100
0010
0001
0100
0010
0000
,
1000
0100
0010
0100
1000
0100
0010
0100
1000
0100
0010
0001
0010
0100
0010
0001
,
0010
0100
1000
0100
0010
0100
1000
0100
0010
0001
0010
0000
0011
0000
0000
0000
,
1100
0000
0010
1000
0100
0010
0001
0100
,
0100
0000
0000
0000
0100
0000
0000
0000
0001
0000
0000
0001
0000
0000
0001
0000
,
0101
0000
0010
1000
0100
0010
0001
0100
,
0010
0000
0000
0000
1000
0000
0100
0000
1000
0000
0000
0100
0000
0000
0100
0000
,
0100
0000
0100
1000
0010
0100
0100
0000
,
0100
0000
0100
0001
0010
0100
0010
0000
,
0010
0010
0000
0001
,
1000
0000
1000
0010
1000
0100
0010
0000
,
0010
0001
0010
0100
0010
0001
0010
0100
1000
0100
0010
0100
1000
0100
0010
0001
,
0010
0100
0010
0000
0011
0000
0000
0000
0110
0000
0000
0000
1001
0000
0000
0000
,
1000
0001
0100
0010
1000
0000
0100
0000
1000
0010
1000
0000
0100
0000
0000
0000
,
0010
0001
0100
0000
0010
0000
1000
0000
0010
0100
0001
0000
0010
0000
0000
0000
,
0100
0000
0010
0001
0100
0000
0010
0000
1000
0000
1000
0100
0010
0000
0001
0000
,
0100
0000
0010
0000
1000
0000
0100
0010
0001
0000
1000
0100
0000
1000
0000
0001
,
0100
0000
0010
1000
0000
0100
0000
0010
0001
0000
1000
0100
1000
0000
0000
0000
,
0100
0000
1000
0000
0010
0000
1000
0001
0100
0000
0001
0000
0010
0000
0100
0000
,
0010
0001
0100
0000
0001
0000
0010
0000
0100
0000
1000
0010
0100
0000
0000
0000
,
0010
1000
0100
0010
0000
0010
0110
0000
,
0011
0000
0000
0000
1001
0000
1000
0010
0100
0001
1000
0000
0100
0000
0000
0000
,
0010
0000
0001
0100
0000
0010
0000
1000
0100
0000
0010
0100
0000
0000
0000
0000
,
1000
0000
0000
0000
0100
0000
1000
0000
0010
1000
0001
0000
0100
0000
0000
0000
,
0001
0100
0001
0000
0010
0000
0100
1000
0001
0000
0100
0000
0001
0000
0000
0000
,
0010
0000
0000
0000
0100
0000
0000
0000
1000
0001
0100
0001
1000
0000
0000
0010
,
1000
0100
1000
0010
0100
0001
0010
0000
,
0001
0010
0100
1000
0100
0010
0001
0010
0100
1000
0001
0010
0100
1000
0100
0010
,
0001
1000
0100
0000
1001
0000
0000
0000
1010
0000
0000
0000
0101
0000
0000
0000
,
2200
0000
0000
0000
,
0000
0010
0010
0001
,
3300
0000
1000
1000
0100
0100
1000
0010
,
0010
0000
0000
0000
0010
0000
0000
0000
0100
0000
0000
0010
0000
0000
1000
0000
,
1100
0000
0010
0010
0001
0100
0010
1000
,
0100
0000
0100
1000
0010
0010
0000
0000
,
1000
0000
0100
0100
1000
0010
0100
0000
,
0100
0000
0100
0001
0010
0001
0100
0000
,
0001
0100
0010
1000
0001
0100
0010
1000
0001
0100
0010
1000
0001
0100
0010
1000
,
0001
0100
0010
0000
1010
0000
0000
0000
0101
0000
0000
0000
1010
0000
0000
0000
,
0101
0000
0100
0100
0001
0010
0010
0001
,
0100
0000
0000
0000
0010
0000
0000
0000
0010
0000
0000
0010
0000
0000
1000
0000
,
1100
0000
0010
0010
0001
0100
0100
0001
,
0010
0000
0000
0000
0100
0000
1000
0000
1000
0000
0000
1000
0000
0000
0010
0000
,
0010
0000
0100
0001
0010
0100
1000
0000
,
0010
0000
0100
0010
1000
0100
1000
0000
,
0010
0010
0000
0100
,
0100
0000
0001
0010
0100
1000
0010
0000
,
1000
0100
0010
0001
1000
0100
0010
0001
0010
0100
1000
0001
0010
0100
1000
0100
,
0010
0001
1000
0000
1010
0000
0000
0000
0101
0000
0000
0000
0011
0000
0000
0000
,
1100
0000
1000
0100
1000
0010
0100
0000
,
1001
0000
0100
1000
0010
0100
0001
0000
,
1100
0000
0100
0010
0001
0100
0001
0000
,
1100
0000
0010
0001
0100
0001
0010
0000
,
0100
1000
0001
0100
0010
0000
1000
0001
0100
0000
0001
0000
0010
0000
0010
0000
,
000M
00M0
0M00
M000
,
00MM
0MM0
MM00
M00M
,
1000
0010
1000
0001
0100
0000
0010
1000
0001
0000
0100
0000
0001
0000
0010
0000
,
1001
1100
0011
0101
,
1010
1100
0011
1100
,
1000
0100
0010
0001
0100
0010
1000
0100
,
0010
0001
0100
0010
1000
0100
1000
0010
,
0100
0001
0010
0100
1000
0010
0100
0001
,
0010
0100
1000
0100
0010
0001
0100
0010
,
1000
0100
0010
0001
0100
0010
1000
0001
,
1000
0000
0010
0000
0100
0000
0001
0000
1000
0000
0010
0000
0010
1000
0100
0000
,
1000
0100
0010
0100
1000
0100
0010
0001
0010
0100
0010
0001
0010
0100
1000
0100
,
0010
0100
1000
0000
1100
0000
0000
0000
0011
0000
0000
0000
0101
0000
0000
0000
,
1010
0000
1000
1000
1000
0001
0001
0001
,
0010
0000
0000
0000
0010
0000
0000
0000
0100
0000
0000
0100
0000
0000
0100
0000
,
1100
0000
1000
1000
1000
0010
0010
0010
,
0100
0000
0100
0100
0001
0001
0000
0000
,
0010
0000
0010
0010
0100
0100
0100
0000
,
1000
0000
1000
1000
0010
0010
0100
0000
,
0001
1000
0000
1000
,
0001
0000
1000
0100
0100
0010
0010
0000
,
0001
0000
2002
0000
0000
0000
0000
3003
;

//--------------- dance-double - M. Emirzian ----------------
#NOTES:
     dance-double:
     M. Emirzian:
     Easy:
     4:
     0.252635,0.386265,0.139614,0.046538,0,228,210,18,6,0,0,0.252635,0.386265,0.139614,0.046538,0,228,210,18,6,0,0:
00000000
00000000
00000000
00000000
,
00000000
00000000
00000000
00000000
,
00000000
00000000
00000000
00000000
,
00000000
00000000
00000000
00000000
,
00100000
00000000
00001000
00000000
,
00010000
00000000
00000010
00000000
,
00010000
00001000
00000000
00010000
,
00000000
00010000
00000100
00001000
,
00000001
00000000
00000001
00000000
,
00000001
00000000
00000100
00000000
,
00000100
00000010
00010000
00000000
,
00000100
00010000
00001000
00000000
,
01000000
00010000
10000000
00000000
,
01000000
00100000
00001000
00000000
,
00010000
00000010
00001000
00000000
,
00000001
00000100
00000010
00001000
,
00001000
00000000
00000100
00000000
,
00010000
00000000
00001000
01000000
,
00010000
00000000
00010000
00000000
,
00010000
00000000
10000000
00000000
,
10000000
01000000
11000000
00000000
,
00100000
00010000
00110000
00000000
,
00100000
00001000
00101000
00000000
,
00010000
00000100
00010100
00000000
,
00001000
00000010
00001010
00000000
,
00000100
00000001
00000101
00000000
,
00000010
00000100
00000110
00000000
,
00010000
00001000
00011000
00000000
,
01000000
00010000
01010000
00000000
,
00100000
10000000
10100000
10100000
,
10000000
01000000
11000000
00000000
,
00100000
00001000
00101000
00000000
,
00010000
00000010
00010010
00000000
,
00001000
00000100
00001100
00000000
,
00000010
00000001
00000011
00000000
,
00000100
00000010
00001000
00001010
,
00000020
00000000
00000000
00000000
,
00000030
00000000
00000000
00000000
,
00001000
00000100
00010000
00000000
,
00001000
01000000
00010000
00000000
,
01000000
00100000
10000000
00000000
,
01000000
00100000
00010000
00000000
,
01000000
00001000
00010000
00000000
,
00001000
00010000
00000010
00000000
,
00001000
00000001
00000100
00000000
,
00000010
00001000
00000100
00001000
,
00000001
00000000
00001000
00000000
,
00000100
00000000
00010000
00001000
,
01000000
00000000
00010000
00000000
,
01000000
00000000
00100000
10000000
,
00010000
00000000
01000000
00000000
,
00001000
00000000
00010000
00000100
,
00001000
00000000
00000010
00000000
,
00000100
00000001
00000010
00000100
,
00001000
00000000
00001000
00000000
,
00001000
00000000
00000001
00000000
,
00000001
00000100
00001000
00010000
,
00100000
10000000
01000000
00000000
,
10000000
00100000
00010000
00001000
,
00000100
00000001
00000010
00000000
,
00000001
00000100
00001000
00010000
,
01000000
10000000
00100000
00000000
,
10000000
00000000
00010000
00000000
,
01000000
00001000
00010000
00000000
,
00000010
00000000
00001000
00000000
,
00000100
00000010
00000001
00000000
,
00000100
00000000
00000010
00000000
,
00001000
00000100
00010000
00001000
,
02000000
00000000
00000000
00000000
,
03200000
00000000
00000000
00000000
,
20300000
00000000
00000000
00000000
,
31000000
00000000
01000000
00000000
,
01000000
00100000
00100000
00001000
,
00010000
00000010
00001000
00000100
,
00000010
00000000
00000000
00000000
,
00000001
00000000
00000100
00000000
,
00000010
00000000
00000000
00000000
,
00001000
00000000
00000100
00000000
,
00010000
00000000
00000000
00000000
,
00001000
00000000
01000000
00000000
,
00100000
10000000
01000000
00000000
,
00100000
00010000
01000000
00100000
,
20020000
00000000
00000000
00000000
,
30030000
00000000
00000000
00000000
;

//--------------- dance-double - M. Emirzian ----------------
#NOTES:
     dance-double:
     M. Emirzian:
     Medium:
     6:
     0.350143,0.386265,0.054294,0.031025,0,316,309,7,4,0,0,0.350143,0.386265,0.054294,0.031025,0,316,309,7,4,0,0:
00000000
00000000
00000000
00000000
,
00000000
00000000
00000000
00000000
,
00000000
00000000
00000000
00000000
,
00000000
00000000
00000000
00000000
,
00000010
00000000
00000100
00000000
,
00010000
00000000
00001000
00000000
01000000
00010000
10000000
00000000
,
00110000
01000000
00000000
00000000
,
10000000
00000000
00010000
00000000
01000000
00100000
10000000
00000000
,
01000000
00000000
01000000
00000000
,
01000000
00010000
00001000
00000100
,
00000001
00000010
00000100
00001000
,
00000010
00000000
00000100
00000000
00001000
00010000
00000100
00000000
,
00010000
00001000
01000000
00010000
,
00100000
00000000
01000000
00000000
10000000
00010000
01000000
00000000
,
00100000
10000000
01000000
00100000
,
00001000
00000000
00010000
00000000
00000100
00001000
00000001
00000000
,
00001100
00000000
00000000
00000000
,
00000100
00000000
00000010
00000000
00000001
00001000
00000100
00000000
,
00010000
00000000
00001000
00000000
,
01000000
00100000
10000000
01000000
,
00100000
00010000
00100000
00000000
01000000
00000000
00100000
00000000
,
00001000
00010000
00001000
00000000
00010000
00000000
00000100
00000000
,
00001000
00000010
00001000
00000000
00000100
00000000
00000010
00000000
,
00000001
00001000
00000001
00000000
00000100
00000010
00000100
00000000
,
00001000
00000000
00010000
00000000
00001000
01000000
00001000
00000000
,
01000000
00010000
01000000
00000000
00100000
00000000
10000000
00000000
,
01000000
00100000
01000000
00000000
00100000
00000000
00001000
00000000
,
00010000
00000100
00010000
00000000
00000100
00000000
00001000
00000000
,
00000001
00000100
00000001
00000000
00000010
00000000
00000100
00000000
,
00001000
00000010
00010000
00011000
,
00001000
01000000
00001000
00000000
01000000
00010000
01000000
00000000
,
00100000
10000000
01000000
00100000
,
00010000
00000000
01000000
00000000
00100000
10000000
00100000
00000000
,
01000000
00001000
00010000
00000010
,
00000100
00000001
00001000
00000100
,
00000010
00000001
00000010
00000000
00000100
00000000
00000100
00000000
,
00000200
00000000
00000000
00000000
,
00000300
00000000
00000000
00000000
,
00001000
00000010
00000100
00001000
,
00010000
00000000
00000100
00000000
00010000
00001000
01000000
00000000
,
00010000
01000000
00100000
10000000
,
01000000
00000000
00100000
00000000
00010000
01000000
00001000
00000000
,
00010000
00000100
00001000
00000001
,
00000100
00000000
00000010
00000000
00001000
00000001
00000100
00000000
,
00000010
00000000
00001000
00000000
,
00000100
00010000
00011000
01001000
,
00010000
10000000
01000000
00100000
,
00010000
00000000
01000000
00000000
00001000
00010000
00000010
00000000
,
00000100
00000001
00000010
00000100
,
00001000
00000000
00000010
00000000
00000100
00000001
00001000
00000000
,
00000100
00010000
00001000
01000000
,
00100000
00000000
10000000
00000000
01000000
10000000
00010000
00000000
,
01000000
01100000
00000000
00000000
,
00100000
00000000
10000000
00000000
01000000
10000000
00010000
00000000
,
00100000
00000000
00100000
00000000
,
00100000
00000000
00001000
00000000
,
00010000
00000000
00001000
00000000
00010000
00001000
00010000
00000000
,
00000100
00000000
00001000
00000000
00000001
00000010
00000001
00000000
,
00000010
00000000
00000100
00000000
00001000
00000100
00001000
00000000
,
00000010
00000000
00010000
00000000
00001000
00010000
00001000
00000000
,
01000000
00000000
00010000
00000000
01000000
00100000
01000000
00000000
,
00100000
00000000
10000000
00000000
01000000
10000000
01000000
00000000
,
00100000
00000000
00001000
00000000
00010000
00001000
00010000
00000000
,
00010000
00000000
00010000
00000000
,
00010000
00000000
00000100
00001000
,
00000010
00000100
00000001
00000000
,
00000100
00000010
00001000
00000001
,
00000100
00000000
00000010
00000000
00010000
00001000
01000000
00000000
,
00100000
00000000
10000000
00000000
,
01000000
00000000
00100000
00000000
00010000
10000000
01000000
00000000
,
00100000
00001000
00010000
00000010
,
00001000
00000001
00000100
00000000
00000010
00000000
00000000
00000000
,
00000010
00001000
00000100
00010000
,
00001000
01000000
00010000
00000000
10000000
00000000
01000000
00000000
,
00200000
00000000
00000000
00000000
,
00310000
01000000
00100000
10000000
,
00010000
00000000
01000000
00000000
,
00001000
00010000
00000100
00001000
,
00000010
00000000
00000100
00000000
,
00000001
00001000
00000100
00010000
,
00001000
00000000
01000000
00000000
,
00100000
10000000
01000000
00100000
,
20020000
00000000
00000000
00000000
,
30030000
00000000
00000000
00000000
;

//--------------- dance-double - M. Emirzian ----------------
#NOTES:
     dance-double:
     M. Emirzian:
     Hard:
     8:
     0.478676,0.547209,0.224933,0.069807,0,432,403,29,9,0,0,0.478676,0.547209,0.224933,0.069807,0,432,403,29,9,0,0:
00000000
00000000
00000000
00000000
,
00000000
00000000
00000000
00000000
,
00000000
00000000
00000000
00000000
,
00000000
00000000
00000000
00000000
,
10000000
00010000
10000000
00010000
01000000
00001000
01000000
00001000
,
00010000
00001000
00010000
00000010
00001000
00000010
00001000
00000001
,
00001000
00000001
00000100
00000000
00000010
00000000
00001000
00000000
,
00000100
00000000
00000010
00000001
00000100
00000010
00001000
00000000
,
00000100
00011000
01000000
01010000
,
00100000
01001000
00100000
10100000
,
10010000
00000000
00100000
10000000
00100000
00000000
10000000
00010000
,
10000000
00000000
00010000
01000000
00010000
00000000
00100000
00000000
,
00011000
00000000
00010000
00001000
00010000
00000000
00000100
00010000
,
00000100
00000000
00001000
00000100
00001000
00000000
00000010
00000000
,
00000101
00000000
00000001
00000100
00000001
00000000
00001000
00000001
,
00001000
00000000
00000100
00001000
00000100
00000000
00010000
00000000
,
00001000
01000000
00100000
10000000
,
01000000
00000000
00100000
00010000
01000000
00100000
10000000
00000000
,
01000000
00110000
01000000
00101000
,
00010000
00010100
00001000
00101000
,
00010000
00001000
01000000
00000000
00010000
01000000
00100000
00000000
,
10000000
00010000
10000000
01000000
00100000
00001000
00010000
00000000
,
00001000
00010000
00000100
00000000
00001000
00000010
00000100
00000000
,
00000001
00001000
00000100
00000010
00000001
00000100
00000010
00000000
,
00010000
00001000
01000000
00000000
00010000
01000000
00100000
00000000
,
10000000
00100000
01000000
00010000
00100000
01000000
10000000
00000000
,
00100000
01000000
00001000
00000000
00010000
00000010
00001000
00000000
,
00000100
00000010
00000001
00001000
00000000
00000000
00001001
00000000
,
00000100
00000000
00000010
00000000
00000001
00000100
00000010
00000100
,
00000001
00001000
00000100
00010000
00001000
01000000
00001000
00000000
,
00010000
00001000
01000000
00100000
,
10000000
01000000
00100000
00010000
10000000
00100000
01000000
00000000
,
00100000
01000000
00001000
00010000
,
00000100
00001000
00000010
00000100
00000010
00001000
00000100
00000000
,
00000010
00000001
00000100
00000010
,
00010000
00001000
00010000
00000000
00001000
01000000
00010000
00000000
,
00200000
00000000
00000000
00000000
,
00300000
00000000
00000000
00000000
,
01000000
00000000
10000000
00010000
10000000
00000000
00100000
01000000
,
00100000
00000000
01000000
00001000
01000000
00000000
00001000
00000000
,
00010000
00000000
00000010
00010000
00000010
00000000
00001000
00000010
,
00001000
00000000
00000100
00000010
00000100
00000000
00001000
00000000
,
00000001
00000000
00000100
00000010
00000100
00000000
00000010
00010000
,
00000010
00000000
00010000
00001000
00010000
00000000
00001000
00000000
,
01000000
00100000
10000000
01000000
,
00100000
00000000
00010000
00000000
01000000
00100000
10000000
00000000
,
01000000
00000000
00100000
00010000
00100000
00000000
00001000
00100000
,
00001000
00000000
00010000
00001000
00010000
00000000
00000100
00000000
,
00001010
00000000
00000010
00000100
00000010
00000000
00001000
00000001
,
00001000
00000000
00000100
00010000
00000100
00000000
00010000
00000000
,
01001000
00000000
01000000
00100000
01000000
00000000
00010000
10000000
,
00010000
00000000
01000000
00001000
01000000
00000000
00100000
00000000
,
10000000
01000000
00100000
00010000
,
01000000
00000000
00001000
00010000
00000100
00001000
00000010
00000000
,
00000100
00000101
00000100
00010010
,
00001000
00011000
00000100
00001001
,
00001000
00000000
00000010
00001000
00000100
00000000
00000011
00000000
,
00000100
00000000
00000010
00010000
00001000
00000000
01001000
00000000
,
00010000
00000000
01000000
00100000
10000000
00000000
11000000
00000000
,
00010000
01000000
00001000
00010000
00000010
00010000
00000010
00001000
,
00000100
00000000
00000100
00000010
00000001
00000000
00000100
00000000
,
00000010
00000000
00001000
00000100
00010000
00000000
00001000
00000000
,
01000000
00100000
10000000
00010000
01000000
00000000
01000000
00000000
,
00100000
10000000
01000000
00100000
01000000
00100000
00010000
01000000
,
00001000
00011000
00010100
00001100
,
00000100
00000000
00000010
00000000
00001001
00001000
00000010
00000100
,
00000001
00000100
00000100
00000100
,
00000001
00000010
00000001
00000010
00000100
00001000
00000010
00000100
,
00000010
00001000
00000100
00010000
00001000
00010000
00001000
01000000
,
00100000
10000000
10000000
10000000
,
01000000
00100000
00001000
00010000
,
00000010
00000100
00000001
00001000
00000001
00001000
00000100
00000000
,
00000020
00000030
00000002
00000003
,
00001000
00001010
00010010
00011000
,
00020000
00030000
00001000
00000000
,
01000000
00010000
10000000
00000000
00100000
00000000
00100000
00000000
,
00100000
00000000
02000000
03000000
,
00010000
00000000
00100000
00001000
00010000
00000000
00000010
00000000
,
00001000
00000000
00000200
00000300
,
00000010
00000000
00000001
00000000
00000100
00000010
00001000
00000000
,
00000100
00000000
00020000
00030000
,
00001000
00000000
01000000
00000000
00010000
00100000
01000000
10000000
,
20020000
00000000
00000000
00000000
,
30030000
00000000
00000000
00000000
;

//--------------- dance-double - M. Emirzian ----------------
#NOTES:
     dance-double:
     M. Emirzian:
     Challenge:
     9:
     0.643775,0.708153,0.442111,0.031025,0,581,524,57,4,30,0,0.643775,0.708153,0.442111,0.031025,0,581,524,57,4,30,0:
00000000
00000000
00000000
00000000
,
00000000
00000000
00000000
00000000
,
00000000
00000000
00000000
00000000
,
00000000
00000000
00000000
00000000
,
10000000
01000000
00100000
00010000
10000000
01000000
00100000
00001000
,
00010000
00000010
00000100
00000001
00001000
00000010
00000100
00000001
,
00000010
00000100
00010000
00001000
01000000
00100000
10000000
00010000
,
01000000
00100000
10000000
01000000
00100000
00001000
00010000
00000100
,
00001100
0000MM00
00000010
00000000
00000101
00000M0M
00000010
00000000
,
00010100
000M0M00
00001000
00000000
01000000
00000000
00110000
00000000
,
11000000
00100000
01000000
00010000
10000000
01000000
10000000
00010000
,
10000000
01000000
00100000
01000000
10000000
01000000
00100000
01000000
,
10000000
00100000
10000000
00010000
01000000
00100000
01000000
00010000
,
01000000
00100000
01000000
00010000
00100000
00001000
00010000
00001000
,
00100000
00001000
00010000
00000010
00001000
00000010
00010000
00000010
,
00001000
00000100
00000010
00000001
00001000
00000100
00000010
00000001
,
00001000
00000001
00000100
00000001
00001000
00000001
00000100
00000001
,
00001000
00000100
00010000
00001000
00010000
00000100
00010000
00001000
,
00010010
000M00M0
00001000
00000000
00101000
00M0M000
01000000
00000000
,
10010000
01100000
00011000
00000110
,
00001001
00000001
00000100
00000010
00001000
00000100
00000010
00000100
,
00001000
00000010
00000100
00001000
00010000
00000100
00010000
00000000
,
00001000
01000000
00001000
00010000
00001000
00100000
01000000
10000000
,
00100000
01000000
00100000
10000000
00010000
00100000
01000000
00000000
,
10000000
00010000
01000000
00100000
01000000
00001000
00010000
00001000
,
00100000
00010000
01000000
00001000
00010000
00000010
00010000
00000000
,
00000100
00001000
00000010
00000100
00000010
00010000
00000100
00001000
,
00000001
00000010
00000100
00001000
00000000
00000000
00110000
00000000
,
11000000
00100000
01000000
00010000
01000000
00100000
10000000
01000000
,
00100000
00001000
00010000
00001000
01000000
00001000
00010000
00000000
,
00001010
00000000
00000101
00000001
00000010
00000100
00001000
00000010
,
00000100
00000010
00001000
00000100
00010000
00100000
10000000
00000000
,
11000000
00000000
00110000
00100000
01000000
10000000
00100000
01000000
,
00100000
01000000
00001000
00010000
00000100
00010000
00001000
00000000
,
00010000
00000010
00001000
00000100
00000010
00000001
00001000
00000010
,
00000100
00000001
00001001
00000000
00011000
00000000
01100000
00000000
,
22000000
00000000
00000000
00000000
,
33000000
00000000
00000000
00000000
00000000
00000000
00000000
MMMM0000
,
00010000
10000000
00100000
01000000
00010000
10000000
00100000
01000000
,
00010000
01000000
10000000
01000000
00010000
01000000
10000000
01000000
,
00010000
10000000
01000000
00100000
00001000
00010000
00001000
01000000
,
00001000
00010000
00001000
01000000
00001000
00010000
00000010
00010000
,
00001000
00010000
00000010
00001000
00000100
00000010
00000100
00001000
,
00000100
00000010
00000100
00001000
00000001
00000100
00001000
00000100
,
00000001
00000100
00001000
00000100
00000010
00010000
00001000
01000000
,
00001000
00010000
01001000
00000000
01100000
00000000
10010000
00000000
,
01100000
01000000
00010000
01000000
00100000
10000000
00010000
01000000
,
00010000
10000000
00010000
01000000
00001000
00010000
00100000
00010000
,
00001000
00010000
00100000
00010000
00001000
00010000
00000100
00000010
,
00000100
00001000
00000010
00000100
00000010
00001000
00000010
00000100
,
00000010
00001000
00000100
00000010
00000001
00001000
00000100
00000010
,
00000001
00000100
00000010
00001000
00000010
00000100
00000010
00001000
,
00000010
00010000
00001000
01000000
00001000
00010000
00001000
01000000
,
00010000
00100000
01000000
10000000
00010000
00100000
01000000
10000000
,
11000000
MM000000
00100000
00000000
01001000
0M00M000
00100000
00000000
,
00010100
00110000
00001100
00000011
,
00001001
00000001
00000100
00000010
00001000
00000010
00000100
00000101
,
00000001
00000010
00000100
00001000
00000010
00010000
00001000
00011000
,
00010000
00001000
00010000
00100000
00010000
00001000
01000000
00100000
,
00010000
00001000
00100000
01000000
10000000
00100000
01000000
01010000
,
00010000
01000000
00100000
10000000
00100000
01000000
00010000
00110000
,
00100000
01000000
10000000
00010000
00100000
00001000
00010000
01001000
,
00001000
01000000
00001000
00000010
00000100
00001000
00000001
00000100
,
00000010
00001000
00000001
00000010
00000100
00001000
00000010
00000000
,
00000101
00000M0M
00000110
00000MM0
00010100
000M0M00
00011000
000MM000
,
01001000
0M00M000
00110000
00MM0000
11000000
10010000
00110000
01100000
,
10010000
10000000
01000000
00100000
00010000
01000000
00100000
10000000
,
01000000
00100000
00001000
00000010
00000001
00000100
00000010
00000110
,
00000100
00000010
00001000
00000100
00000010
00000001
00000010
00000110
,
00000100
00001000
00000010
00010000
00001000
01000000
00010000
00110000
,
00100000
01000000
10000000
01000000
00100000
00010000
01000000
00100000
,
00010000
00001000
00100000
01000000
00010000
00000010
00000100
00000000
,
00000001
00000010
00000100
00001000
00000010
00000100
00000001
00000010
,
00000100
00001000
00001001
00000000
00001100
00000000
00010100
00000000
,
00011000
01000000
00100000
10000000
,
01000000
00100000
00010000
00000000
00100000
00000000
00000000
00000000
,
00100000
00000000
00001000
00010000
,
00000100
00001000
00000001
00000000
00000100
00000000
00000000
00000000
,
00000100
00000000
00000010
00001000
,
00000100
00010000
00001000
00000000
00100000
00000000
00000000
00000000
,
01000000
00000000
10000000
00000000
,
00010000
00000000
01000000
00000000
00100000
10000000
01000000
00100000
,
20020000
00000000
00000000
00000000
,
30030000
00000000
00000000
00000000
;

//--------------- lights-cabinet - ----------------
#NOTES:
     lights-cabinet:
     :
     Easy:
     1:
     0.65818,0.836908,1.178962,0.031025,0,594,432,152,4,0,5,0.65818,0.836908,1.178962,0.031025,0,594,432,152,4,0,5:
000000
000000
000000
000000
,
000000
000000
000000
000000
,
000000
000000
000000
000000
,
000000
000000
000000
000000
,
000100
000100
100000
001000
001000
100000
000100
100000
,
100000
001000
010000
000100
010000
010000
000100
100000
,
001000
111100
000000
001000
,
100000
000000
000100
010000
001000
100000
000100
010000
,
011000
000100
110000
100000
001100
000100
110000
100000
,
001100
000100
110000
100000
001100
000000
111100
000000
,
001100
000000
110000
000000
100000
100000
100000
000000
,
011000
000000
011000
000000
000100
000100
000100
000000
,
110000
000000
110000
000000
001000
001000
001000
000000
,
100000
001000
100000
000000
000100
010000
000100
000000
,
010100
000000
010100
000000
001000
001000
001000
000000
,
100100
000000
100100
000000
010000
010000
010000
000000
,
001000
010000
001000
100100
,
100000
000000
001000
001000
100000
100000
000100
010000
,
100100
011000
100100
011000
,
100100
110000
100000
001100
,
000100
100000
001000
100000
001000
100000
000100
000000
,
010000
000100
010000
000100
011000
101000
000100
000000
,
001000
010000
001000
000000
100000
010000
100000
000000
,
000100
001000
010000
001000
100000
011000
100100
000000
,
011000
011000
100100
000000
100100
100100
011000
000000
,
000100
001000
001100
000000
100000
001000
101000
000000
,
000100
010000
000100
000000
100000
010000
100000
000000
,
000100
010000
000100
010000
000000
011000
100100
000000
,
101000
000000
011000
000000
100100
100100
100100
000000
,
001000
010000
001000
010000
000100
001000
001000
000000
,
000100
100000
100000
000000
001000
010000
010000
000000
,
000100
100000
001000
010000
000100
100000
000100
000000
,
000100
010000
001000
100000
010000
100000
000100
000000
,
100000
100000
000100
010000
100100
100100
100100
000000
,
010100
101000
100100
001100
,
011000
000000
110000
000000
001100
000000
100100
011000
,
100100
000000
000000
000000
,
000000
001100
011000
100100
,
000000
000000
001000
100000
000100
010000
001000
100000
,
000100
000000
000100
000000
100000
010000
100000
011000
,
100100
000000
100100
100100
011000
011000
100100
000100
,
110000
000000
000100
010000
001000
100000
001000
100000
,
001100
000000
010000
000100
100000
001000
001000
000000
,
110000
000000
000100
100000
100000
011000
011000
000000
,
100100
100100
000000
011000
,
100100
100100
011000
100000
,
110000
000000
010000
000100
100000
001000
010000
000100
,
100000
000100
100000
000000
011000
100100
001000
010000
,
100100
000000
100000
100000
001000
001000
010000
010000
,
001100
000000
100000
001000
010000
000100
010000
000100
,
110000
000000
001000
100000
000100
010000
010000
000000
,
001100
000000
100000
000100
000100
010000
010000
000000
,
100100
011000
110000
001100
,
100000
000000
001000
100000
000100
010000
001000
000000
,
101000
011000
010100
100100
,
011000
001000
010000
100100
,
011000
000000
100000
000100
100000
010000
100000
000000
,
000100
000000
000100
010000
001000
100000
000100
000000
,
010000
000000
010000
001000
100000
000100
100000
000000
,
001000
000000
001000
100000
000100
100000
000100
000000
,
000100
000000
010000
001000
010000
000100
100000
000000
,
100100
000000
101000
010100
101000
011000
000100
000000
,
100000
000000
001000
010000
000100
010000
001000
100000
,
000100
100000
010000
100000
,
001100
110000
001100
011000
,
100100
110000
001000
011000
,
100100
011000
100100
011000
,
101000
010100
010100
101000
,
000100
000000
010000
000000
001000
000000
100000
001000
,
100000
000000
001000
010000
000100
000000
010000
000100
,
000100
000000
110000
000000
000100
000000
100000
001000
,
100100
000000
011000
000000
010000
001000
100100
000000
,
100000
010000
100000
000100
100000
010000
100000
000100
,
100000
000100
010000
001000
100000
000100
100000
000000
,
111100
100100
011000
100100
,
011000
100100
110000
011000
,
001100
100100
011000
100100
,
011000
110000
001100
110000
,
100100
010100
001100
101000
,
011000
100100
011000
011000
,
110000
001100
011000
100100
,
100000
000000
001000
100000
001000
010000
000100
001000
,
111100
222200
000000
000000
,
333300
000000
000000
000000
;
