#TITLE:Mei Li De Jia Xiang;
#SUBTITLE:;
#ARTIST:Liu Feng;
#TITLETRANSLIT:;
#SUBTITLETRANSLIT:;
#ARTISTTRANSLIT:;
#GENRE:;
#CREDIT:;
#MUSIC:meilidejiaxiang.ogg;
#BANNER:meilidejiaxiang.png;
#BACKGROUND:meilidejiaxiang-bg.png;
#CDTITLE:;
#SAMPLESTART:0.000;
#SAMPLELENGTH:0.000;
#SELECTABLE:YES;
#OFFSET:-1.941;
#BPMS:0.000=145.000;
#STOPS:;
#BGCHANGES:;
#FGCHANGES:;

//--------------- dance-single - ----------------
#NOTES:
     dance-single:
     :
     Easy:
     4:
     0,0,0,0,0:
1000
0000
0010
0000
,
0100
0100
0100
0000
,
0001
0000
0010
0000
,
1000
1000
1000
0000
,
1001
0000
0010
0000
,
0110
0000
0100
0000
,
1000
0000
0010
0000
,
0001
0000
0100
1000
,
0001
0001
0001
0001
,
1000
1000
1000
1000
,
0010
0010
0010
0010
,
0100
0100
0100
0100
,
0001
0001
0010
0010
,
0100
0100
1000
1000
,
0010
0000
0100
0000
,
2002
0000
0000
3003
,
0010
0000
0000
0000
,
0100
0000
0000
0000
,
1000
0100
0010
0001
,
0100
0000
0110
0000
,
0001
0000
0000
0000
,
1000
0000
0000
0000
,
0010
0100
0001
1000
,
0100
0000
1001
0000
,
0010
0000
0010
0000
,
0100
0100
0100
0000
,
1000
0000
0001
0000
,
0010
0000
0100
0000
,
0000
1000
0000
0001
,
0000
0010
0000
0010
,
0000
0100
0000
0001
,
0020
0000
0000
0030
,
1000
0000
0001
0000
,
0010
0000
0100
0000
,
1000
0000
0010
0000
,
0010
0100
0010
0000
,
1000
0000
0110
0000
,
0001
0000
1001
0000
,
1000
0000
0010
0000
,
0002
0000
0000
0003
,
0010
0010
0010
0000
,
1000
1000
1000
0000
,
0100
0100
0100
0000
,
0001
0001
0001
0000
,
0010
0000
1001
0000
,
0100
0000
1001
0000
,
0010
0000
1000
0000
,
0200
0000
0000
0300
,
0010
0000
0010
0010
,
1000
0000
0001
0001
,
0100
0000
0100
0100
,
1000
0001
1000
0000
,
0010
0000
0100
0100
,
0001
0000
0001
0001
,
1000
0000
1000
1000
,
0001
0010
0100
0000
;

//--------------- dance-single - ----------------
#NOTES:
     dance-single:
     :
     Medium:
     7:
     0,0,0,0,0:
1000
0010
0100
0001
,
0001
0100
0010
0000
1000
0000
1000
0000
,
0010
0100
0001
1000
,
1000
0010
0100
0000
0001
0000
0001
0000
,
1000
0000
0000
0010
0000
0000
0100
0000
,
0001
0000
0000
0010
0000
0000
0100
0000
,
1000
0000
0000
0001
0010
0001
0010
0000
,
2000
0000
0000
3000
,
0010
0000
0000
0101
0000
0000
1100
0000
,
1000
0000
0000
0101
0000
0000
0011
0000
,
0010
0000
0000
0110
0000
0000
0011
0000
,
1000
0010
1000
0010
0000
0100
0001
0000
,
1000
0000
0000
0010
0000
0000
0001
0000
,
0010
0000
0000
0100
0000
0000
0001
0000
,
0001
0000
0000
0100
0000
0000
1000
0000
,
0000
1000
1000
0001
1000
1000
0000
0000
,
1000
0001
0010
0100
,
0010
0100
0010
1000
,
0001
0000
1000
0001
1000
0000
0010
0000
,
0010
0101
1010
0010
,
1000
0000
0010
0000
0001
0000
1000
0010
,
1000
0000
0001
0000
0010
0000
1000
0001
,
1000
0000
0010
0100
0010
0000
0001
0000
,
1000
0001
0010
0110
,
1001
0100
0100
0100
,
0010
0001
0001
0001
,
1000
0000
0000
0010
0100
0010
0100
0000
,
1000
0001
0010
0110
,
1000
0110
0001
0110
,
1000
1001
0010
0100
,
1000
0100
0010
0000
0100
0010
0001
0000
,
2002
0000
0000
3003
,
0010
0000
0000
0100
1000
0100
1000
0000
,
0001
0001
0001
0000
0010
0000
1000
0000
,
0010
0000
0000
0100
0001
0100
0001
0000
,
0010
0010
0010
0000
1000
0000
0001
0000
,
0010
0000
0000
0100
0000
0000
0001
0000
,
1000
0000
0000
0001
0000
0000
0100
0000
,
0001
0000
0000
0001
1000
0001
1000
0000
,
0020
0000
2000
3030
,
1000
0010
0001
0101
,
0001
0010
1000
1100
,
1000
0001
0100
1010
,
0010
1000
0100
0011
,
1000
0000
0000
0001
0000
0000
0100
0000
,
0010
0000
0000
1000
0000
0000
0010
0000
,
1000
0000
0000
0100
0001
1000
0001
0000
,
0020
0000
0200
0330
,
1000
0000
0000
0101
0000
0000
0101
0000
,
0001
0000
0000
1010
0000
0000
1010
0000
,
0010
0000
0000
0110
0000
0000
1001
0000
,
1000
0100
0010
0100
0000
0010
0100
0000
,
1000
0000
0000
0001
0000
0000
0010
0000
,
0010
0000
0000
0100
0000
0000
1000
0000
,
0010
0000
0000
0100
0000
0000
0001
0000
,
0000
0010
0010
0100
0010
0010
0000
0000
;

//--------------- dance-single - ----------------
#NOTES:
     dance-single:
     :
     Hard:
     11:
     0,0,0,0,0:
0200
0000
0000
0301
0010
0100
1000
0010
,
0100
0001
0100
0000
0010
1000
1010
0000
,
0002
0000
0000
0103
0010
1000
0200
0000
,
1300
0010
1000
0000
0001
0100
0010
0000
,
1000
0000
0001
1100
0000
0000
0101
0000
,
0010
0000
0001
1100
0000
0000
0011
0000
,
2000
0000
3000
0100
0001
0100
1000
0000
,
2002
0000
0000
0000
3003
0000
0000
0000
1000
0100
1000
0100
1000
0100
1000
0100
,
0010
0001
1000
1010
0000
0001
1000
0000
,
1000
0100
0010
0011
0000
0010
0100
0000
,
1000
0001
0010
0110
0000
0100
1000
0000
,
1000
0010
1000
0010
0000
1000
0100
0000
,
0010
1000
0100
0011
0000
0100
1010
0000
,
0001
0100
0010
1100
0000
0010
0101
0000
,
1000
0001
0010
1100
0000
1000
0011
0000
,
0000
0000
1000
0000
1000
0000
0100
0000
0010
0000
0010
0000
0001
1000
0001
1000
,
0001
0000
0001
0100
1000
0000
0001
1000
,
0100
0000
1000
0000
0011
0000
0100
1000
,
0010
0000
0100
0001
0100
0010
1000
0000
,
0100
0000
0010
0001
0100
1000
0100
0001
,
0010
0000
0011
0000
0101
0000
0010
1000
,
0100
0000
1001
0000
1100
0000
0001
1000
,
0100
0000
1000
0001
1000
0100
0001
0000
,
1001
0000
0100
0001
0010
1000
0010
0001
,
0200
0000
1000
0000
0310
1000
0100
0010
,
0001
0000
0010
1000
0100
0000
1001
0000
,
0020
0000
0000
0130
1000
0100
0010
0000
,
0101
0000
0010
0000
1100
0000
0100
0010
,
0001
1000
0001
0100
0010
1000
0010
0100
,
0001
0010
0100
1000
0010
0100
0101
0000
,
0001
0010
0100
0010
0001
0100
1000
0000
,
2020
0000
0000
0000
3030
0000
0000
0000
0001
0100
0001
0100
0001
0100
0001
0100
,
0020
0000
0000
1030
0001
0100
0001
1000
,
0100
1000
0010
0000
0001
1000
1001
0000
,
0012
0000
0000
1003
0010
0100
0001
0010
,
0100
1000
0100
0000
0010
0001
1100
0000
,
1010
0000
0100
0101
0000
0010
0011
0000
,
0110
0000
0010
1100
0000
0010
0101
0000
,
0020
0000
0000
0130
0001
0100
1000
0000
,
2002
0000
0000
0000
3003
0000
0000
0000
1000
0010
1000
0010
1000
0010
1000
0010
,
0200
0000
0000
0301
1000
0100
0010
0001
,
0100
0010
0100
0000
0010
1000
1001
0000
,
0101
0000
1001
0010
0100
1000
0010
0100
,
0001
1000
0001
0000
1000
0100
0110
0000
,
2000
0000
0000
3200
0000
0000
0320
0000
,
0230
0000
0000
2300
0000
0000
3001
0000
,
2010
0000
0000
3001
0100
0010
1000
0000
,
1001
0000
0000
0000
0101
0000
0000
0000
0001
0010
0001
0010
0001
0010
0001
0010
,
0001
0010
0100
1100
0000
0010
1100
0000
,
0010
0100
0001
1010
0000
0010
0110
0000
,
1000
0100
0001
0110
0000
0100
1100
0000
,
1000
0010
1000
0100
0000
0001
0100
0000
,
1000
0010
0001
0010
0000
1000
1010
0000
,
1000
0100
0001
0100
0000
1000
1100
0000
,
1000
0010
0100
1001
0000
1000
0110
0000
,
0000
1000
1000
0010
0100
0100
0000
0000
;
