#TITLE:Let Me Be The One;
#SUBTITLE:;
#ARTIST:Sammi Morelli;
#TITLETRANSLIT:;
#SUBTITLETRANSLIT:;
#ARTISTTRANSLIT:;
#GENRE:;
#CREDIT:;
#MUSIC:Let Me Be the One.ogg;
#BANNER:Let Me Be the One.png;
#BACKGROUND:Let Me Be the One-bg.png;
#CDTITLE:;
#SAMPLESTART:34.113;
#SAMPLELENGTH:14.280;
#SELECTABLE:YES;
#OFFSET:-3.956;
#BPMS:0.000=123.065;
#STOPS:;
#BGCHANGES:;
#FGCHANGES:;

//--------------- dance-single - M. Puls ----------------
#NOTES:
     dance-single:
     M. Puls:
     Beginner:
     1:
     0.07332,0.122201,0.02444,0,0,63,60,3,0,0,0,0.07332,0.122201,0.02444,0,0,63,60,3,0,0,0:
0000
0000
0000
0000
,
0000
0000
0000
0000
,
0001
0000
0000
0000
,
1000
0000
0000
0000
,
1000
0000
0000
0000
,
0100
0000
0000
0000
,
0100
0000
0000
0000
,
0010
0000
0000
0000
,
0010
0000
0000
0000
,
0001
0000
0000
0000
,
0001
0000
0000
0000
,
1000
0000
0000
0000
,
1000
0000
0000
0000
,
0001
0000
0000
0000
,
1000
0000
0000
0000
,
0001
0000
0000
0000
,
1000
1000
0000
0000
,
0000
0000
0000
0000
,
0001
0001
0000
0000
,
0000
0000
0000
0000
,
0100
0100
0000
0000
,
0000
0000
0000
0000
,
0010
0010
0000
0000
,
0000
0000
0000
0000
,
0001
0000
0000
0000
,
0010
0000
0000
0000
,
0100
0000
0000
0000
,
0000
0000
0000
0000
,
1000
0000
0000
0000
,
0100
0000
0000
0000
,
0010
0000
0000
0000
,
0000
0000
0000
0000
,
1001
0000
0000
0000
,
1000
0000
0000
0000
,
0100
0000
1000
0000
,
0100
0000
0100
0000
,
0100
0000
0000
0000
,
1000
0000
0000
0000
,
1000
0000
0000
0000
,
0010
0000
0000
0000
,
1001
0000
0000
0000
,
0001
0000
0000
0000
,
0010
0000
0001
0000
,
0010
0000
0010
0000
,
0010
0000
0000
0000
,
0001
0000
0000
0000
,
0001
0000
0000
0000
,
0100
0000
0000
0000
,
1000
1000
0000
0000
,
0000
0000
0000
0000
,
0001
0001
0000
0000
,
0000
0000
0000
0000
,
0100
0100
0000
0000
,
0000
0000
0000
0000
,
0010
0010
0000
0000
,
0000
0000
0000
0000
,
1000
0000
0000
0000
,
0000
0000
0000
0000
,
0001
0000
0000
0000
,
0000
0000
0001
0000
,
1001
0000
0000
0000
;

//--------------- dance-single - K. Ward ----------------
#NOTES:
     dance-single:
     K. Ward:
     Easy:
     3:
     0.1769,0.195521,0.008147,0.04888,0,152,151,1,6,0,0,0.1769,0.195521,0.008147,0.04888,0,152,151,1,6,0,0:
0000
0000
0000
0000
,
0000
0000
0000
0000
,
0100
0000
0010
0000
,
1000
1000
0001
0000
,
0010
0000
0001
0000
,
1000
0100
1000
0000
,
0001
0001
1000
1000
,
0010
0100
0001
0000
,
0000
1000
0000
1000
,
0000
0001
0000
0001
,
0000
0010
0000
0100
,
0000
0010
0000
0100
,
1000
1000
1000
0000
,
0010
0010
0010
0000
,
0200
0000
0000
0000
,
0301
0001
0100
0100
,
0010
0000
1000
0000
,
0001
0000
1000
0001
,
0100
0000
0010
0000
,
1000
0000
0001
0010
,
0001
0000
0100
0000
,
0010
0000
1000
1000
,
0001
0000
0010
0010
,
0010
0010
0000
0001
,
1000
0000
1000
0000
,
0100
0100
0100
0000
,
1000
0000
0001
0000
,
0010
0010
0010
0000
,
0001
0000
1000
0000
,
0100
0100
0100
0000
,
1000
0000
0001
0000
,
0100
0010
1000
0001
,
1000
0000
0001
0000
,
0100
0000
0010
0000
,
1000
1000
0001
0001
,
0010
0010
0010
0000
,
0001
0000
1000
0000
,
0100
0100
0100
0000
,
0020
0000
0031
0000
,
0100
0100
0100
0000
,
0010
0100
0100
0000
,
0001
1000
1000
0000
,
0100
1000
1000
0000
,
0010
0100
0100
0000
,
0001
1000
0001
1000
,
0001
0000
0010
0010
,
0002
0000
0000
0000
,
0003
0000
1000
1000
,
1000
0000
0010
0000
,
0100
0100
0001
0001
,
0001
0000
1000
0000
,
0100
0100
1000
0010
,
0100
0000
0001
0000
,
1000
0001
0010
0010
,
0010
0000
0100
0000
,
0010
0000
0001
1000
,
0002
0000
0003
0000
,
2000
0000
3000
0000
,
0020
0000
0030
0000
,
0100
0100
0010
0000
,
1001
0000
0000
0000
;

//--------------- dance-single - K. Ward ----------------
#NOTES:
     dance-single:
     K. Ward:
     Medium:
     6:
     0.259531,0.317722,0.203668,0.09776,0,223,198,25,12,0,0,0.259531,0.317722,0.203668,0.09776,0,223,198,25,12,0,0:
0000
0000
0000
0000
,
0000
0000
0000
0000
,
0010
0100
0001
0000
1000
0000
0100
0000
,
0010
0001
0100
0000
0100
0000
0000
0000
,
0010
0000
0010
1000
0100
0000
0000
0000
,
0001
0000
0001
0010
0001
0000
0000
0000
,
1000
0000
0010
0000
0100
0001
0010
0000
,
0200
0010
1300
0000
,
1000
1000
1000
0000
,
0001
0001
0001
0000
,
0100
0000
1000
0000
0100
0000
0010
0100
,
0001
0010
0011
0000
,
0100
1000
0010
0001
,
0100
1000
0010
0001
,
2002
0000
3003
0000
,
1100
0000
1100
0000
0100
0010
0001
0000
,
0100
0010
1000
0001
,
0010
0100
1000
0000
0200
0000
0000
0000
,
0310
0000
0001
1000
,
0010
0100
0001
0000
0020
0000
0000
0000
,
0031
0000
1000
0100
,
0010
0010
0200
0000
,
1300
0000
0000
0000
0010
0100
0001
0000
,
0010
0011
0100
1001
,
2002
0000
0000
0000
0000
3003
0000
0000
,
0000
0010
0100
0010
0000
0000
0000
0000
,
1000
1000
0100
0001
,
0001
0100
1000
0000
,
0010
0100
0001
0000
0000
0000
0010
0000
,
0010
0100
1001
0000
,
0100
0100
0100
0000
0000
0000
0000
0000
,
0010
0010
0010
0000
0000
0000
0000
0000
,
1001
0000
0001
0000
0100
0001
1000
0000
,
0100
0100
0010
0110
,
0000
0000
1000
0000
0001
0100
0010
0000
,
0100
0001
1000
1100
,
0000
0000
0010
0100
0010
0000
0000
0000
,
0100
0100
1001
0000
,
0100
0100
0100
0000
0010
0000
1000
0000
,
0100
0001
0100
1001
,
0000
0100
0000
0010
,
0000
1000
0000
0001
,
0000
0011
0000
1100
,
0000
1001
0110
1001
,
0010
0001
0100
1000
,
0010
0001
0100
1001
,
0020
0000
0200
0000
,
0000
0330
0000
0000
,
1001
0000
0010
0000
0100
0001
0010
0000
,
0100
0010
0001
0000
0100
0000
0010
0000
,
1001
0000
0000
0000
0100
0100
0100
0000
,
0010
1000
0100
0000
0010
0000
0100
0000
,
1001
0000
0000
0000
0010
0100
0001
0000
,
0010
0100
1000
0000
0100
0000
0010
0000
,
1001
0000
0000
0000
0100
0100
0100
0000
,
0000
0010
0100
0010
,
2200
0000
0000
0000
,
3300
0000
0000
0000
,
0010
0000
0000
0000
,
0000
0000
0000
0000
0100
0010
0100
0000
,
1001
0000
0000
0000
;

//--------------- dance-single - K. Ward ----------------
#NOTES:
     dance-single:
     K. Ward:
     Hard:
     9:
     0.409663,0.439922,0.358455,0.07332,0.004073,352,308,44,9,0,0,0.409663,0.439922,0.358455,0.07332,0.004073,352,308,44,9,0,0:
0000
0000
0000
0000
,
0000
0000
0000
0000
,
1000
0001
0100
0000
0010
0100
0001
0000
,
0010
0100
1001
0110
,
1001
0000
0000
0000
0100
0010
1000
0000
,
0100
0000
0100
0000
0100
0000
0000
0000
0010
0000
0100
0000
1000
0000
0000
1000
,
0100
0010
0001
0000
0100
0010
1000
0000
,
0100
0010
0001
0000
0100
0000
1001
0000
,
0000
1010
0100
1010
,
0010
0101
0010
0101
,
0011
0000
0100
0000
0011
0000
0100
0010
,
0000
1000
0100
0010
0001
0000
0000
0000
,
1000
1000
1010
0000
0100
0100
0110
0000
,
0001
1000
0100
0010
0100
0000
1001
0000
,
0100
0000
1001
0000
0010
0010
1000
0100
,
0020
0000
0130
0000
0010
0100
0010
0000
,
1001
0100
0010
0000
0011
0100
1000
0000
,
0101
0010
0001
0000
0010
0100
0001
0010
,
0100
0000
1001
0000
1010
0100
0010
0000
,
0001
1000
0001
0000
1000
0100
0010
0100
,
0100
0000
1100
0000
0010
0100
0001
0000
,
0010
0100
1000
0000
0100
0010
0100
0010
,
0001
0000
0000
0000
0100
0100
0010
1000
,
0100
0000
0100
0010
0000
0010
0100
0000
,
2002
0000
0000
0000
0000
3003
0000
0000
,
0000
0100
0010
0100
0000
0000
1001
0000
,
0000
0010
0100
0001
0000
1000
0100
0001
,
0000
0100
0010
0200
0000
0000
1300
0000
,
0000
1001
1100
0011
,
0000
0010
0100
2000
0000
0000
3001
0000
,
0000
0010
0100
0001
0010
0001
0100
0010
,
0100
0001
0010
0100
0010
0000
0011
0000
,
0000
1000
0100
0010
0100
1000
0100
0000
,
0000
0010
0100
0001
0010
0100
0010
0000
,
0000
1000
0010
0100
0001
0010
0001
0000
,
0000
0100
0010
1000
0100
0000
1001
0000
,
0000
0010
0100
0001
0010
0010
0010
0000
,
0000
0001
1000
0100
0010
0100
0100
0000
,
0000
0001
1000
0010
0100
0001
0010
0100
,
1000
0100
0010
0100
0010
0001
0001
0000
,
0100
1010
0100
1010
,
0010
0101
0010
0101
,
0010
1001
0100
1001
,
0010
0100
0001
0010
0100
1000
0100
0000
,
1001
0100
0010
0000
1100
0010
0100
0000
,
0011
0100
1000
0000
0110
0000
1001
0000
,
0100
1000
0010
0001
,
1001
2002
0000
3003
,
0001
1000
0001
1000
0100
0010
0100
0000
,
1000
0001
1000
0001
0010
0100
0010
0000
,
0001
0100
0010
1000
0100
0010
0001
0000
,
0100
0010
1000
0100
0010
0001
1000
0000
,
0001
0100
0010
1000
0100
0010
0001
0100
,
0010
1000
0100
0010
0001
1000
0100
0010
,
0110
0100
1010
0100
,
1001
0010
0100
0000
0100
0001
0010
0000
,
0002
0000
1003
0000
,
2000
0000
3001
0000
,
0100
0001
0010
0000
1000
0100
0000
0010
,
0100
0000
1000
0000
0100
0010
0100
0000
,
1001
0000
0000
0000
;

//--------------- dance-double - M. Emirzian ----------------
#NOTES:
     dance-double:
     M. Emirzian:
     Easy:
     2:
     0.153624,0.195521,0.016293,0.032587,0,132,130,2,4,0,0,0.153624,0.195521,0.016293,0.032587,0,132,130,2,4,0,0:
00000000
00000000
00000000
00000000
,
00000000
00000000
00000000
00000000
,
00000000
00001000
00000100
00000000
,
00000001
00000100
00000000
00000000
,
00000010
00000000
00001000
00000000
,
00000100
00010000
00000000
00010000
,
00001000
00000000
01000000
00000000
,
00100000
10000000
00000000
01000000
,
00000000
01000000
00000000
01000000
,
00000000
00010000
00000000
00010000
,
00000000
00010000
00000000
00001000
,
00000000
00001000
00000000
00000000
,
00000100
00000010
00000000
00000100
,
00000001
00000000
00000100
00002000
,
00000000
00003000
00000000
00020000
,
00000000
00030000
00000000
00001000
,
00010000
00000000
00100000
00000000
,
10000000
00000000
01000000
00000000
,
00010000
00000000
00001000
00000000
,
00000100
00000000
00000001
00000000
,
00000010
00000000
00000100
00000000
,
00010000
00000000
00001000
00000000
,
01000000
00000000
00100000
00000000
,
10000000
00000000
01000000
00000000
,
00010000
00000000
01000000
00000000
,
00010000
00001000
00000010
00000000
,
00000100
00000000
00000010
00000000
,
00000001
00000100
00001000
00000000
,
00010000
00000000
00100000
00000000
,
10000000
01000000
00000000
01000000
,
00010000
00000000
00001000
00000000
,
00000100
00000001
00000010
00000000
,
00000100
00000000
00001000
00000000
,
00000100
00000000
00010000
00000000
,
00001000
00000000
00010000
00000000
,
00001000
00000000
01000000
00000000
,
00010000
01000000
00000000
00010000
,
10000000
00000000
00100000
10000000
,
00000000
01000000
00010000
00001000
,
00000010
00000000
00000001
00000000
,
00000100
00000000
00001000
00000000
,
00010000
00000000
00100000
00000000
,
10000000
00000000
01000000
00000000
,
00010000
00000000
00001000
00000000
,
00000010
00000000
00000001
00000000
,
00000100
00000000
00001000
00000000
,
00020000
00000000
00030000
00002000
,
00000000
00003000
00000000
00010000
,
00001000
00000000
01000000
00000000
,
00100000
10000000
00000000
01000000
,
00010000
00000000
00001000
00000000
,
00000100
00000000
00000001
00000010
,
00001000
00000000
00010000
00000000
,
00100000
10000000
00000000
01000000
,
00010000
00000000
00010000
00001000
,
00000000
00001000
00000100
00000001
,
00001001
00000000
00000100
00000000
,
00000010
00000000
00010000
00000000
,
00001000
00000000
01000000
00000000
,
00100000
00000000
10000000
00010000
,
10010000
00000000
00000000
00000000
;

//--------------- dance-double - M. Emirzian ----------------
#NOTES:
     dance-double:
     M. Emirzian:
     Medium:
     5:
     0.275824,0.293281,0.09776,0.02444,0,237,225,12,3,0,0,0.275824,0.293281,0.09776,0.02444,0,237,225,12,3,0,0:
00000000
00000000
00000000
00000000
,
00000000
00000000
00000000
00000000
,
00010000
01000000
00001000
00000000
00010000
00000000
00000100
00001000
,
00000010
00000100
00000100
00000000
,
00000100
00000000
00000001
00001000
00000010
00000000
00010000
00000000
,
00000100
00010000
00001000
00000000
01000000
00000000
01000000
00000000
,
00000000
00000000
00100000
00000000
10000000
00010000
00100000
00000000
,
01000000
00100000
00001000
00000000
00010000
00000000
00010000
00000000
,
00000000
00001000
00000000
00010000
,
00000000
00000100
00000100
00000000
,
00000000
00000010
00000000
00000001
,
00000000
00000100
00000100
00000000
,
00000000
00000010
00000000
00010000
,
00000000
00001000
00001000
00010000
,
00020000
00000000
00000000
00000000
00031000
01000000
00010000
00000000
,
01000000
00000000
01000000
00000000
00100000
10000000
01000000
00000000
,
10010000
00100000
01000000
00010000
,
00001000
00000000
00000010
00000000
00000001
00001000
00000100
00000000
,
00001001
00000100
00000010
00010000
,
00001000
00000000
00001000
00000000
00010000
00001000
01000000
00000000
,
10010000
00000000
01000000
10000000
,
00100000
00000000
01000000
00000000
00001000
00010000
00000100
00000000
,
00001001
00000000
00000100
00000100
,
00000010
00001000
00000200
00000000
00001000
00001000
00001300
00000000
,
00000100
00000000
00010000
00000000
00001000
00000000
01000000
00010000
,
00100000
01000000
10000000
00000000
,
00010000
00010000
01000000
00100000
,
10000000
01000000
00010000
00000000
00001000
00000000
00001000
00000000
,
00000010
00000000
00000001
00000100
00000000
00000010
00001000
00000000
,
00000100
00010000
00000000
00001000
00000000
00010000
00001000
00000000
,
00010000
00100000
10000000
01000000
,
00010000
01000000
00100000
00000000
00001000
00000000
00000000
00000000
,
00011000
00000000
00010000
00000000
00000100
00001000
00000001
00000000
,
00000100
00000100
00000000
00000010
,
00000010
00000000
00010000
00000000
00001000
01000000
00010000
00000000
,
10000000
10000000
00000000
00000000
,
01000000
00000000
01000000
00000000
00100000
00000000
00001000
00010000
,
00000100
00000010
00000010
00000001
,
00000100
00000010
00000100
00001000
,
00010000
00000100
00001000
00000000
00011000
00000000
00000000
00000000
,
00000000
00010000
00000000
00010000
,
00000000
00100000
00100000
00000000
,
00000000
10000000
00000000
10000000
,
00000000
01000000
01000000
00000000
,
00000000
00010000
00000000
00010000
,
00000000
00001000
00001000
00010000
,
00002000
00000000
00000000
00000000
00013000
00000100
00001000
00000000
,
00000010
00000000
00000010
00000000
00000100
00000001
00001000
00000000
,
00000110
00001000
00010000
01000000
,
10000000
00000000
00100000
00000000
01000000
00010000
10000000
00000000
,
01100000
00010000
10000000
01000000
,
00010000
00000000
00001000
00000000
00000010
00000001
00001000
00000000
,
00000110
00000001
00000010
00000100
,
00010000
00000000
00001000
00000000
00010000
00001000
01000000
00000000
,
01100000
10000000
01000000
00100000
,
00100000
00000000
00010000
01000000
00010000
00100000
00001000
00000000
,
00000000
00100000
00001000
00010000
,
00000100
00001000
00000010
00000000
00001001
00000000
00000000
00000000
,
00001000
00000000
00010000
00000000
,
10000000
00000000
00000000
00000000
01000000
00100000
00010000
00000000
,
00101000
00000000
00000000
00000000
;

//--------------- dance-double - M. Emirzian ----------------
#NOTES:
     dance-double:
     M. Emirzian:
     Hard:
     7:
     0.414318,0.415482,0.342162,0.081467,0,356,314,42,10,0,0,0.414318,0.415482,0.342162,0.081467,0,356,314,42,10,0,0:
00000000
00000000
00000000
00000000
,
00000000
00000000
00000000
00000000
,
10000000
00010000
01000000
00000000
00100000
00000000
00010000
00000000
,
00001000
00000010
00000100
00000000
00001001
00000000
00000110
00000000
,
00000100
00000010
00000001
00000000
00000100
00000000
00001000
00010000
,
01000000
10000000
00100000
00000000
01000000
01000000
01000000
00000000
,
00010000
10000000
01000000
00000000
00100000
00000000
00010000
10000000
,
01000000
00000000
00010000
00001000
00000010
00000000
00000001
00000000
,
00000100
00001020
00000130
00001020
,
00000130
00001000
00010000
00000000
00011000
00000000
01000000
00000000
,
00210000
00000000
01300000
00000000
00210000
00000000
01300000
10000000
,
00100000
01000000
00010000
00000000
10010000
00000000
00100000
01000000
,
00010000
00001000
00000010
00000000
00000100
00000000
00000100
00000000
,
00000010
00000001
00001000
00000000
00000100
00000000
00000100
00010000
,
00001000
00000000
00010000
00000000
00010000
00001000
01000000
00100000
,
10000000
00000000
01000000
00100000
00010000
00000000
01001000
00000000
,
00011000
00000000
00010000
00000100
00001000
00000000
00001010
00000000
,
00000100
00000000
00000100
00000001
00000010
00000000
00001100
00000000
,
00010010
00000000
00010000
00001000
01000000
00000000
00110000
00000000
,
01000000
00000000
01000000
10000000
00100000
00000000
01010000
00000000
,
00101000
00000000
00010000
00000100
00001000
00000000
00010010
00000000
,
00001000
00000000
00000001
00000100
00000010
00000000
00001100
00000000
,
00010100
00000000
00001000
00010000
00100000
00000000
10000000
01000000
,
00010000
00001000
00010000
00000100
00001000
00000010
00000100
00000000
,
00000001
00000100
00001000
00000000
00010000
00000000
01000000
10000000
,
00100000
01010000
01001000
00010000
,
00100000
00010000
00001000
00000000
00000010
00000000
00000001
00000100
,
00001000
00000000
00000100
00000000
00000001
00001000
00000100
00000000
,
00010100
00011000
00101000
01010000
,
00100000
10000000
01000000
00000000
00010000
01000000
10000000
00100000
,
00010000
00001000
00000010
00000001
00000100
00000010
00000100
00000001
,
00000010
00001000
00010000
00100000
00010000
00001000
00000010
00000000
,
00000010
00000001
00000100
00000000
00001000
00000000
00010000
00000000
,
00100000
01000000
00010000
00000000
00100000
00000000
01000000
00000000
,
10000000
01000000
00010000
00000000
00001000
00000000
00000010
00000000
,
00000001
00001000
00000010
00000000
00000110
00000000
00001001
00000000
,
00000010
00001000
00000100
00000000
00010000
00000000
00001000
00010000
,
00100000
10000000
01000000
00000000
10000000
00100000
00010000
00000000
,
00001000
00010000
00000100
00000000
00000010
00000000
00000001
00001000
,
00000100
00000000
00000010
00000001
00001000
00000000
00000010
00000000
,
00002100
00003010
00002100
00003010
,
00000100
00001000
00010000
00000000
01000000
00000000
00210000
00000000
,
01300000
00000000
00210000
00000000
01300000
00000000
10000000
00100000
,
00010000
00001000
00000100
00000000
00000001
00000000
00000010
00000100
,
00010000
00001000
00100000
00000000
00110000
00000000
01000000
00000000
,
10000000
00100000
01000000
00000000
00010000
00000000
00100000
00001000
,
00010000
00000000
00000010
00000000
00010000
00000100
00001000
00000010
,
00000100
00000000
00000001
00000000
00000010
00000100
00001000
00000000
,
00001001
00000000
00000110
00000000
00000100
00001000
00010000
00000000
,
00001000
00000000
01001000
00000000
00010000
01000000
00100000
00000000
,
10010000
00000000
01100000
00000000
01000000
10000000
00010000
00000000
,
01000000
00000000
10010000
00000000
01000000
00010000
00100000
00000000
,
00101000
00000000
00011000
00000000
00000100
00001000
00000001
00000000
,
00000110
00000000
00000100
00000000
00000001
00000010
00001000
00000000
,
00010000
00000000
00001000
00000000
01000000
00010000
00100000
00000000
,
01000000
10000000
01000000
00010000
00001000
00010000
00000100
00001000
,
00000010
00000200
00000001
00000301
,
00000100
00000000
00000100
00001000
00010000
00000000
00002000
00000000
,
00010000
00000000
00013000
00000000
00100000
00000000
10000000
01000000
,
00010000
00000000
01000000
10000000
00100000
00010000
00001000
00000000
,
00010010
00000000
00000000
00000000
;

//--------------- lights-cabinet - ----------------
#NOTES:
     lights-cabinet:
     :
     Easy:
     1:
     0.477164,0.782084,0.59471,0.146641,0.004073,410,331,73,18,0,3,0.477164,0.782084,0.59471,0.146641,0.004073,410,331,73,18,0,3:
000000
110000
000000
001100
,
100000
000100
010000
010000
020000
000000
031000
000000
,
100000
000100
010000
000000
001000
100000
010000
000000
,
100000
001000
010000
000000
100100
000000
011000
000000
,
010000
001000
100000
000000
000100
000000
001000
000000
,
000100
000000
000100
000000
000100
000000
010000
000000
010000
000000
000000
000000
100100
000000
000000
011000
,
100100
100100
011000
000000
100100
000000
011000
000000
,
100100
010000
000100
001000
000100
000000
010000
000000
,
001000
101000
010000
101000
,
001000
010100
001000
010100
,
001100
000000
010000
000000
001100
000000
010000
100000
,
001000
010000
000100
100000
000100
000000
000100
000000
,
100000
100000
101000
000000
010000
010000
011000
000000
,
000100
010000
001000
200000
000000
300100
000000
010000
,
010000
000000
000100
000000
100000
100000
010000
100000
,
002000
000000
013000
000000
000100
010000
001000
100000
,
100100
000000
000100
010000
000100
000000
101000
000000
,
010000
000100
010000
000000
000100
001000
000100
010000
,
000200
000000
010300
000000
001000
010000
000100
100000
,
002000
000000
013000
000000
000100
001000
000100
100000
,
000100
000100
100000
001100
,
100000
000000
100000
000000
001000
100000
001000
100000
,
110000
000000
001000
000000
001000
010000
000100
100000
,
100000
000000
000100
010000
000100
010000
002000
000000
,
103000
010000
100000
000000
000100
000000
010000
001000
,
000000
010000
001000
110000
000000
000000
000100
000000
,
001000
000100
200000
000000
000100
300100
010000
000200
,
000000
010300
001000
200000
000000
300100
001100
000000
,
100000
100100
101000
010100
,
000000
001000
010000
000200
000000
000000
100300
000000
,
100000
001000
010000
000100
010000
001000
010000
000100
,
002000
000000
003100
000000
100000
100000
002000
000000
,
103000
000100
010000
000000
000100
010000
000100
000000
,
001000
000100
100000
000100
020000
000000
031000
000000
,
100000
010000
100000
000000
000100
000000
010000
000000
,
010000
001000
010000
000000
011000
000000
100100
000000
,
001000
100000
010000
000000
100000
000000
000100
000000
,
100000
010000
100000
001000
200000
000000
301000
000000
,
010000
000100
010000
000000
001000
010000
000100
100000
,
010000
100000
001000
100000
000200
000000
100300
000000
,
010000
101000
010000
101000
,
001000
010100
001000
010100
,
010000
100100
001000
100100
,
000100
100000
010000
100000
000200
000000
010300
000000
,
000100
100000
010000
100000
000000
100000
001000
010000
,
000000
010000
000100
010000
000000
010000
000100
000000
,
000100
000000
100000
000000
100000
010000
100000
001000
,
001000
000000
011000
000000
001000
010000
001000
100000
,
100100
000000
000100
010000
000100
000000
101000
000000
,
010000
000100
010000
000000
001000
010000
000100
000000
,
000200
000000
100300
000000
001000
010000
000100
100000
,
002000
000000
013000
000000
000100
001000
000100
100000
,
000100
000100
100000
001100
,
100000
000000
100000
000000
100000
001000
010000
000100
,
001100
010000
001100
100000
,
010000
110000
000100
110000
,
100100
011000
100100
011000
100100
011000
100100
011000
,
100100
011000
100100
011000
100100
000000
111100
000000
,
100100
011000
100100
011000
100100
011000
100100
011000
,
100100
000000
111100
000000
001100
110000
001100
000000
,
111100
000000
000000
000000
;
