#TITLE:Lemmings on the Run;
#SUBTITLE:;
#ARTIST:E-Rotic;
#TITLETRANSLIT:;
#SUBTITLETRANSLIT:;
#ARTISTTRANSLIT:;
#GENRE:;
#CREDIT:;
#MUSIC:Lemmings on the Run.ogg;
#BANNER:Lemmings on the Run.png;
#BACKGROUND:Lemmings on the Run-bg.png;
#CDTITLE:;
#SAMPLESTART:93.380;
#SAMPLELENGTH:13.580;
#SELECTABLE:YES;
#OFFSET:-0.033;
#BPMS:0.000=134.000;
#STOPS:;
#BGCHANGES:;
#FGCHANGES:;

//--------------- dance-single - M. Puls ----------------
#NOTES:
     dance-single:
     M. Puls:
     Beginner:
     1:
     0.086,0.136,0.042,0,0:
0000
0000
0000
0000
,
0000
0000
0000
0000
,
0000
0000
0000
0000
,
0000
0000
0000
0000
,
0001
0000
0000
0000
,
1000
0000
0000
0000
,
0001
0000
0000
0000
,
1000
0000
0000
0000
,
0100
0000
0000
0000
,
0010
0000
0000
0000
,
1000
0000
0000
0000
,
0100
0000
0000
0000
,
1000
0000
0000
0000
,
1000
0000
0000
0000
,
0001
0000
0000
0000
,
0010
0000
0000
0000
,
0001
0000
0000
0000
,
0001
0000
0000
0000
,
1001
0000
0000
0000
,
1000
0000
0000
0000
,
1000
1000
0000
0000
,
0001
0000
0000
0000
,
0001
0001
0000
0000
,
0100
0000
0000
0000
,
0100
0100
0000
0000
,
0010
0000
0000
0000
,
0010
0010
0000
0000
,
1001
0000
0000
0000
,
1000
0000
0000
0000
,
1001
0000
0000
0000
,
0001
0000
0000
0000
,
1001
0000
0000
0000
,
0001
0000
0000
0000
,
0010
0000
0000
0000
,
0100
0000
0000
0000
,
1000
0000
0000
0000
,
0001
0000
0000
0000
,
0100
0000
0000
0000
,
0010
0000
0000
0000
,
0100
0000
0000
0000
,
0001
0000
0000
0000
,
1000
0000
0000
0000
,
0010
0000
0000
0000
,
0100
0000
0000
0000
,
0010
0000
0000
0000
,
1000
0000
0001
0000
,
0001
0000
0000
0000
,
1000
0000
0000
0000
,
0010
0000
0000
0000
,
1000
0000
0001
0000
,
0001
0000
0000
0000
,
0000
0000
0000
0000
,
1001
0000
0000
0000
,
1000
0000
0000
0000
,
0001
0000
0000
0000
,
0001
0000
0000
0000
,
1000
0000
0000
0000
,
1000
0000
0000
0000
,
0100
0000
0000
0000
,
0010
0000
0000
0000
,
0001
0000
0000
0000
,
0001
0000
0000
0000
,
0010
0000
0000
0000
,
0100
0000
0000
0000
,
1000
0000
0000
0000
,
0001
0000
0000
0000
;

//--------------- dance-single - K. Ward ----------------
#NOTES:
     dance-single:
     K. Ward:
     Easy:
     3:
     0.165,0.217,0.142,0,0:
0000
0000
0000
0000
,
0000
0000
0000
0000
,
0000
0000
0000
0000
,
0000
0000
0000
0000
,
0000
0010
0010
0010
,
1001
0000
0000
0000
,
0100
0000
0000
0000
,
0011
0000
0000
0000
,
0100
0100
0010
0010
,
1001
0000
0000
0000
,
1000
0000
0100
0000
,
0001
0000
0100
0000
,
1000
0000
0001
0000
,
1000
0000
0000
0000
,
0000
0011
0000
0000
,
0000
0110
0000
0000
,
0000
1001
0000
0000
,
0000
0100
0000
0010
,
1001
0000
0000
0000
,
0001
0001
0001
0000
,
1000
1000
1000
0000
,
0100
0100
0100
0000
,
0001
0001
0001
0000
,
1000
1000
1000
0000
,
0001
0001
0001
0000
,
0100
0010
0100
0010
,
0100
0000
0000
0000
,
0000
0011
0000
0000
,
0000
1100
0000
0000
,
0000
0110
0000
0000
,
0000
1001
0000
0000
,
0001
1001
0000
0000
,
1000
1001
0000
0000
,
0001
0011
0000
0000
,
0110
0000
0000
0000
,
1000
0000
0010
0000
,
0001
0000
0010
0000
,
1000
0000
0001
0000
,
0001
0000
1000
0000
,
0100
0100
0100
0000
,
0001
0001
0001
0000
,
0010
0010
0010
0000
,
0001
1000
0001
1000
,
0001
0000
0000
0000
,
1000
0000
0000
0000
,
0100
0000
0000
0000
,
1000
0000
0000
0000
,
0001
0000
0000
0000
,
0010
0000
0000
0000
,
0100
1000
0100
1000
,
0001
0000
0000
0000
,
1001
0000
0000
0000
,
0011
0000
0000
0000
,
1000
1000
1000
0000
,
0001
0001
0001
0000
,
0100
0100
0100
0000
,
0001
0001
0001
0000
,
1000
1000
1000
0000
,
0001
0001
0001
0000
,
0100
0010
0100
0010
,
0100
0000
0000
0000
,
0001
0000
0000
0000
,
1000
0000
0000
0000
,
0100
0000
0000
0000
,
1000
0000
0001
0000
,
1000
0000
0000
0000
;

//--------------- dance-single - K. Ward ----------------
#NOTES:
     dance-single:
     K. Ward:
     Medium:
     7:
     0.293,0.358,0.083,0.058,0:
0000
0000
0000
0000
,
0000
0000
0000
0000
,
0000
0000
0000
0000
,
0000
0000
0000
0000
,
0000
0000
0001
0010
0100
0000
0010
0000
,
0101
0000
0000
0000
,
2000
0000
0000
0000
,
3001
0000
0000
0000
,
1000
0100
0010
0000
0010
0100
0001
0000
,
1001
0000
0000
0000
,
1000
0001
1000
0000
1000
0000
0000
0000
,
0010
0100
0010
0000
0010
0000
0000
0000
,
0100
1000
0010
0001
,
0001
0000
1000
0000
,
0010
0100
0010
0100
,
0001
1000
0001
1000
,
0010
0100
0001
0000
0010
0100
0010
0000
,
0100
1000
0010
0001
,
1001
0000
0000
0000
,
0001
1000
0001
1000
,
0010
0100
0010
0100
,
1000
0100
1000
0100
,
0001
0000
1000
0000
0100
0100
0010
0000
,
0100
1000
0100
1000
,
0010
0001
0010
0001
,
0010
0000
0010
0000
0100
0000
0100
0001
,
0000
0000
0000
0000
0010
0100
0010
0000
,
0100
0000
1010
0000
0100
0001
0010
0200
,
0000
0000
0300
0000
0010
0100
1000
0000
,
0010
0000
0001
0000
0010
0000
0100
0001
,
0000
0000
0000
0000
0010
0100
1000
0000
,
0001
0000
1000
0000
0100
1000
0010
0002
,
0000
0000
0003
0000
0010
0100
0001
0010
,
0100
0010
0100
0010
,
1001
0000
0000
0000
,
0100
0100
0100
0000
0000
0000
0000
0000
,
0001
0001
0001
0000
0000
0000
0000
0000
,
1000
1000
1000
0000
0000
0000
0000
0000
,
0100
0010
0100
0000
0010
0000
0001
0000
,
0011
0000
0100
0000
,
1100
0000
0010
0000
,
0100
1000
0010
0001
,
1000
0001
1000
0001
,
1001
0000
0000
0000
0010
0100
0010
0000
,
0011
0000
0000
0000
0100
1000
0100
0000
,
0010
1000
0100
0001
,
0010
0000
0000
0000
0100
0001
0010
0000
,
0100
0000
0000
0000
0010
0100
1000
0001
,
0000
0000
0000
0000
0100
0001
0010
0100
,
0010
0001
0100
1000
,
0002
0000
0000
0000
,
1003
0000
0000
0000
,
1001
0000
0000
0000
,
1000
0001
0010
0001
0100
0000
0100
0000
,
0010
0100
1000
0100
0010
0000
0010
0000
,
0100
1000
0100
0010
0100
0000
0100
0000
,
0010
0001
0010
0100
0001
0000
1000
0000
,
0100
0010
0100
1000
0100
0000
0100
0000
,
0010
0100
0010
0001
0010
0000
0010
0000
,
0100
0010
0100
1000
0100
0000
0001
0000
,
0010
0100
0010
0001
,
2000
0000
3000
0000
,
0002
0000
0003
0000
,
0010
0100
0010
0100
,
0001
0000
0000
0000
0010
0100
0001
0000
,
0020
0000
0100
0000
,
0031
0000
0000
0000
;

//--------------- dance-single - K. Ward ----------------
#NOTES:
     dance-single:
     K. Ward:
     Hard:
     12:
     0.492,0.523,0.2,0.1,0.067:
0000
0000
0000
0000
,
0000
0000
0000
0000
,
0000
0000
0000
0000
,
0000
0000
0000
0000
,
0000
1000
0010
1000
0001
1000
0010
1000
,
0002
0100
0000
1003
,
2000
0010
0000
3001
,
1000
0100
1000
0000
0010
0000
0100
0001
,
0000
1000
0000
0001
0000
1000
0000
0001
,
1001
0000
0000
0000
,
1000
0010
1000
0000
0001
0000
0001
0000
,
0100
0010
0100
0000
0001
0000
0001
0000
,
1000
0100
0001
0000
0001
0100
1000
0000
,
0001
0010
0001
0010
0001
0000
1000
0000
,
0100
0010
0001
0000
0001
0010
0100
0000
,
1000
0010
0100
0000
0001
0000
1000
0000
,
0010
0100
0001
0000
1000
0000
0001
0200
,
0000
0000
0000
0310
,
1001
0000
0000
0000
,
1000
0000
0100
0000
1000
0000
0100
0000
1000
0000
0100
0000
1000
0000
0100
0010
,
0100
0000
0010
0000
0100
0000
0010
0000
0100
0000
0010
0000
0100
0000
0010
0001
,
0010
0000
0001
0000
0010
0000
0001
0000
0010
0000
0001
0000
0010
0000
0001
0010
,
0001
0000
1000
0000
0001
0000
0100
0000
0010
0000
1000
0000
0001
0000
0100
0010
,
1000
0000
0100
0000
1000
0000
0100
0000
1000
0000
0100
0000
1000
0000
0100
0010
,
0100
0000
0010
0000
0100
0000
0010
0000
0100
0000
0010
0000
0100
0000
0010
0001
,
0010
0000
0001
0000
0010
0000
0001
0000
0010
0000
0001
0000
0010
0000
0001
0010
,
0001
0000
1000
0000
0001
0000
0100
0000
0010
0000
1000
0000
0001
0000
0100
0010
,
1000
1000
1001
0000
1000
1000
1001
0000
,
0001
0100
0011
0000
0001
0100
0011
0000
,
1000
1000
0010
1000
0001
0001
0100
0011
,
0000
1000
0000
0001
1000
0010
1000
0001
,
1000
0001
0101
0000
1000
0001
0101
0000
,
0100
1000
0110
0000
0100
1000
0110
0000
,
0001
0001
0010
0001
0100
0100
0001
0110
,
0000
0001
0000
1000
0000
0002
0000
0000
,
0103
0010
1000
0000
0010
1000
0001
0000
,
0001
0010
0001
0100
0010
1000
1001
0000
,
0100
0010
0100
0000
0010
1000
0001
0000
,
1000
0010
0100
0001
1000
0010
1001
0000
,
1000
0010
1000
0000
0001
0100
0010
0000
,
1000
0010
0100
0100
0010
1000
0110
0000
,
0001
0010
0001
0000
1000
0010
1000
0000
,
0001
0100
0001
1000
1100
0000
0110
0000
,
1000
0000
1000
0000
0010
0100
0010
0200
,
0000
0000
0000
0300
0001
0100
0010
1000
,
0010
0000
0010
0000
1000
0000
1000
0020
,
0000
0100
0000
0130
0001
1000
0001
1000
,
0010
0000
1000
0000
0100
1000
0001
0200
,
0000
0000
0000
0300
0001
1000
0010
1000
,
1000
0100
0010
0001
1000
1000
0100
0020
,
0000
0001
0000
0100
0000
0001
0000
0130
,
1001
0000
0000
0000
,
1001
0000
0000
0000
,
1000
0000
0100
0000
1000
0000
0100
0000
1000
0000
0100
0000
1000
0000
0100
0010
,
0100
0000
0010
0000
0100
0000
0010
0000
0100
0000
0010
0000
0100
0000
0010
0001
,
0010
0000
0001
0000
0010
0000
0001
0000
0010
0000
0001
0000
0010
0000
0001
0010
,
0001
0000
1000
0000
0001
0000
0100
0000
0010
0000
1000
0000
0001
0000
0100
0010
,
1000
0000
0100
0000
1000
0000
0100
0000
1000
0000
0100
0000
1000
0000
0100
0010
,
0100
0000
0010
0000
0100
0000
0010
0000
0100
0000
0010
0000
0100
0000
0010
0001
,
0010
0000
0001
0000
0010
0000
0001
0000
0010
0000
0001
0000
0010
0000
0001
0010
,
0001
0000
1000
0000
0001
0000
0100
0000
0010
0000
1000
0000
0001
0000
0100
0010
,
1000
0110
1000
0110
,
0100
0011
0100
0011
,
1000
1000
0020
0000
1030
1000
0002
0000
,
1003
1000
0001
1000
0010
1000
0001
0100
,
2002
0000
0000
0000
,
3003
0000
0000
0000
;

//--------------- dance-single - K. Ward ----------------
#NOTES:
     dance-single:
     K. Ward:
     Challenge:
     14:
     0.652,0.716,0.284,0.334,0.38:
0000
0000
0000
0000
,
0000
0000
0000
0000
,
0000
0000
0000
0000
,
0000
0000
0000
0000
,
0000
1000
0110
0100
0011
0100
1100
0010
,
0200
0001
0001
0000
0000
0010
0310
0000
,
0020
0100
0100
0000
0000
1000
1030
00M0
,
1000
0010
1000
0000
0010
0000
0100
0000
0010
0100
0001
0000
1000
0000
0002
0000
,
0000
0203
000M
0302
0M00
2003
000M
3001
,
M101
MMMM
0020
0000
,
1030
0000
0100
0000
0001
0000
0100
0000
1000
0000
0100
0000
0001
0000
0100
1000
,
0010
0000
1000
0000
0100
0000
1000
0000
0010
0000
1000
0000
0100
0000
1000
0010
,
0100
0010
1000
0010
0100
0001
2000
3001
,
M000
0000
0100
0001
0100
0000
0001
0000
0011
0000
0100
0000
1100
0000
1000
0000
,
0020
0000
1030
10M0
0002
0000
0103
010M
,
0020
0000
1030
10M0
0002
0000
0103
010M
,
0010
1000
0001
0100
0010
1000
MM01
20M0
,
000M
00M1
0M00
01M0
000M
00M1
3M00
M010
,
1MM1
0000
0000
0000
,
1000
0100
1000
0100
1000
0100
1000
0100
1000
0000
0100
0000
1000
0000
MMMM
0000
,
0010
1000
0010
1000
0010
1000
0010
1000
0010
0000
1000
0000
0010
0000
MMMM
0000
,
0100
0001
0100
0001
0100
0001
0100
0001
0100
0000
0001
0000
0100
0000
MMMM
0000
,
0001
0010
0001
0010
0001
0010
0001
0010
0001
0000
0010
0000
0001
0000
MMM1
0000
,
0100
0001
0100
0001
0100
0001
0100
0001
0100
0000
0001
0000
0100
0000
MMMM
0000
,
0010
1000
0010
1000
0010
1000
0010
1000
0010
0000
0100
0000
0010
0000
MMMM
0000
,
1000
0001
1000
0001
1000
0001
1000
0001
1000
0000
0001
0000
1000
0000
MMMM
0000
,
0010
0100
0010
0100
0010
0100
0010
0100
0010
0000
0100
0000
0010
0000
MM1M
0000
,
1010
0010
0110
0001
0101
0001
1100
0100
,
0110
1000
1001
0001
0101
0100
0110
0010
,
2000
0010
3010
0100
0002
1000
1003
0011
,
00MM
0000
1100
0000
MM00
0000
0001
1000
0010
0000
0100
0000
0001
0000
0100
0000
,
0011
0001
1001
0100
1100
0100
1010
1000
,
1001
0010
0110
0100
1100
1000
1001
0001
,
0020
0001
0031
1000
0200
0010
0310
0101
,
0M0M
1010
M0M0
0101
0M0M
2200
3300
MM00
,
1000
0001
1000
0002
0000
0000
0103
0000
0010
0000
0100
0000
0001
0000
0100
0000
,
0001
0100
0010
0000
0100
0010
1000
0000
0001
0000
0001
0000
1000
0000
M00M
0000
,
0002
0000
0000
0000
0103
0000
0010
0000
1000
0000
0010
0100
0000
0000
MMMM
0000
,
0100
0010
1000
0010
0100
0001
1000
0010
1000
0000
1000
0000
0001
0000
M00M
0000
,
1000
0000
0010
0000
0100
0000
0001
0000
1000
0000
0010
1000
M0M0
0000
0000
0000
,
0010
1000
0010
0000
0100
0001
0100
0000
0010
1000
0010
0000
1000
0000
M0M0
0000
,
2000
0000
3020
M000
0032
00M0
0023
0000
,
0031
0011
001M
0000
1000
M000
0011
0000
,
2M00
00M0
000M
0000
0001
0000
000M
0000
0M10
0000
0M10
0000
0M10
0000
00M2
0000
,
00M0
0M00
0000
00M0
0003
0M00
00MM
0000
00M1
0000
0M10
0000
0M01
0000
0010
0000
,
00M1
0M00
00M1
00M0
0M10
00M0
001M
00M1
,
0M00
01M0
000M
001M
000M
01M0
30M0
0M01
,
020M
00M0
000M
001M
001M
001M
00M1
002M
,
000M
0000
003M
0000
000M
00M0
0000
00M0
0001
0000
001M
0000
00M1
0000
001M
0000
,
001M
000M
001M
000M
001M
00M0
03M1
0M20
,
M000
0000
M001
0M00
000M
0000
010M
0000
0M00
0000
M001
0000
M000
0000
M13M
0000
,
1001
MMMM
0000
MMMM
0000
MMMM
0000
MMMM
,
0001
1000
0010
0100
0001
0100
0001
MMMM
,
1000
0100
1000
0100
1000
0100
1000
0100
2000
0000
0100
0000
3100
0000
MMMM
0000
,
0010
1000
0010
1000
0010
1000
0010
1000
0020
0000
1000
0000
1030
0000
MMMM
0000
,
0100
0001
0100
0001
0100
0001
0100
0001
0200
0000
0001
0000
0301
0000
MMMM
0000
,
0001
0010
0001
0010
0001
0010
0001
0010
0001
0000
0010
0000
0001
0000
MMM1
0000
,
0100
0001
0100
0001
0100
0001
0100
0001
0200
0000
0001
0000
0301
0000
MMMM
0000
,
0010
1000
0010
1000
0010
1000
0010
1000
0020
0000
0100
0000
0130
0000
MMMM
0000
,
1000
0001
1000
0001
1000
0001
1000
0001
2000
0000
0001
0000
3001
0000
MMMM
0000
,
0010
0100
0010
0100
0010
0100
0010
0100
0020
0000
0100
0000
0130
0000
MMM1
0000
,
1000
0001
1000
0010
1000
0001
0100
0010
,
1000
0010
0100
0001
1000
0010
1000
0010
,
0100
0001
0100
0001
2000
0001
3001
0011
,
00MM
0000
1100
0000
MM00
0000
0001
1000
0010
0000
0100
0000
0001
0000
0100
0000
,
0002
0000
0000
1003
0020
0000
0000
0130
,
0001
0000
0000
0000
;

//--------------- dance-double - M. Emirzian ----------------
#NOTES:
     dance-double:
     M. Emirzian:
     Easy:
     4:
     0.248,0.248,0,0.083,0:
00000000
00000000
00000000
00000000
,
00000000
00000000
00000000
00000000
,
00000000
00000000
00000000
00000000
,
00000000
00000000
00000000
00000000
,
00000000
00000000
00000000
00000000
,
10000000
00000000
01000000
00000000
,
00010000
01000000
00010000
00001000
,
00000010
00000000
00000001
00000000
,
00000010
00000000
00000001
00000000
,
00000200
00000000
00000000
00000000
,
00000310
00001000
00000100
00000010
,
00000001
00000100
00000010
00000000
,
00010000
00001000
00000100
00001000
,
00010000
00001000
00000100
00000000
,
00000100
00001000
00010000
00100000
,
00010000
00001000
00010000
00000000
,
01000000
00010000
00001000
00010000
,
01000000
00010000
00001000
00000000
,
00010000
00000000
00001000
00000000
,
00010000
00100000
10000000
00100000
,
00010000
00001000
00010000
00001000
,
00000010
00000001
00000010
00001000
,
00010000
01000000
10000000
01000000
,
00010000
00001000
00010000
00001000
,
00000100
00000001
00000100
00001000
,
00010000
00001000
00010000
00100000
,
10000000
00100000
00010000
00001000
,
00010000
00000000
00001000
00000000
,
00010000
00000100
00000010
00000001
,
00001000
00000000
00000001
00000000
,
00000010
00001000
00010000
00100000
,
00010000
00000000
00001000
00000000
,
00010000
00000000
00100000
00000000
,
10000000
01000000
00010000
00001000
,
00020000
00000000
00000000
00000000
,
00030100
00000010
00000001
00001000
,
00000100
00000010
00000001
00000100
,
00000010
00010000
00001000
00100000
,
00010000
01000000
00100000
10000000
,
00010000
01000000
00100000
10000000
,
00010000
00100000
00001000
00010000
,
00000010
00001000
00000100
00000010
,
00000001
00001000
00000100
00000010
,
00000002
00000100
00001003
00000000
,
00000200
00001000
00010300
00000000
,
00002000
00010000
01003000
00000000
,
00020000
00100000
01030000
00000000
,
00200000
10000000
00310000
00000000
,
00002000
00100000
00013000
00000000
,
00000200
00001000
00000310
00000000
,
00000001
00000000
00001000
00000000
,
00000100
00000000
00000000
00000000
,
00000010
00000000
00000001
00000000
,
00000100
00001000
00010000
00001000
,
00010000
01000000
10000000
01000000
,
00010000
00001000
00010000
00001000
,
00000100
00000001
00000100
00001000
,
00010000
00001000
00010000
00100000
,
10000000
00100000
00010000
00001000
,
00010000
00001000
00000010
00000001
,
00000010
00001000
00010000
00001000
,
00010000
00000000
00100000
00000000
,
10000000
00000000
01000000
00010000
,
00001000
00010000
01000000
00010000
,
00001000
00000010
00001000
00010000
,
00002000
00000000
00000000
00000000
,
00003000
00000000
00000000
00000000
;

//--------------- dance-double - M. Emirzian ----------------
#NOTES:
     dance-double:
     M. Emirzian:
     Medium:
     6:
     0.328,0.358,0,0.025,0:
00000000
00000000
00000000
00000000
,
00000000
00000000
00000000
00000000
,
00000000
00000000
00000000
00000000
,
00000000
00000000
00000000
00000000
,
00000000
00000000
00000000
00000000
,
10000000
00000000
00100000
00000000
00010000
00001000
00010000
01000000
,
00000000
00010000
00000000
00001000
00000000
00000010
00000001
00001000
,
00000010
00000000
00000100
00000000
00000001
00000000
00001000
00000100
,
00000000
00000010
00000000
00000010
00000000
00000001
00000000
00000001
,
00000002
00000000
00000000
00000000
,
00000103
00000000
00000010
00000000
00010000
00001000
00000100
00000000
,
00001000
00010000
00100000
00010000
,
00001000
00000000
00000100
00000000
00001000
00010000
01000000
00000000
,
00010000
00000000
00001000
00000000
00000010
00000000
00001000
00010000
,
01000000
00010000
00001000
00000100
,
00001000
00000000
00010000
00000000
00100000
00010000
00001000
00000000
,
00010000
01000000
10000000
00010000
,
10000000
00000000
01000000
00000000
,
00100000
00000000
00000000
00000000
,
00001000
00010000
00001000
00000100
00000001
00000000
00000100
00000000
,
00001000
00010000
00001000
00000100
00000001
00000000
00000010
00000000
,
00001000
00010000
00100000
10000000
00100000
00000000
00010000
00000000
,
00001000
00010000
00100000
10000000
00100000
00000000
00010000
00000000
,
00001000
00010000
00001000
00000010
00000001
00000000
00000010
00000000
,
00001000
00010000
00001000
00000010
00000001
00000000
00000010
00000000
,
00001000
00010000
01000000
10000000
01000000
00000000
00010000
00000000
,
00001000
00010000
01000000
10000000
01000000
00000000
00010000
00000000
,
00001000
00000000
00010000
00000000
00100000
00010000
00001000
00000100
,
00000000
00001000
00000000
00010000
00000000
01000000
00010000
00001000
,
00000010
00000000
00001000
00000000
00010000
00000000
00100000
10000000
,
00000000
00010000
00000000
01000000
00000000
00100000
10000000
01000000
,
00010000
00000000
01000000
00000000
00010000
00001000
00000010
00000001
,
00000000
00000100
00000000
00001000
00000000
00010000
00100000
00010000
,
00001000
00000000
00010000
00000000
01000000
00000000
10000000
00010000
,
00000000
00010000
00000000
01000000
00000000
01000000
00000000
01000000
,
01000000
00000000
00100000
00000000
10000000
00100000
10000000
00000000
,
01000000
00000000
00010000
00000000
00001000
00100000
00001000
00000000
,
00010000
00000100
00001000
00000010
,
00000100
00000000
00000001
00001000
00000001
00000000
00000010
00000000
,
00001000
00010000
00001000
00000000
00010000
00000000
00000100
00000000
,
00010000
00001000
01000000
00010000
,
00100000
01000000
00100000
00000000
00010000
00000000
01000000
00000000
,
00100000
10000000
00010000
00100000
,
00001000
00000000
00010000
00000000
,
00000100
00000000
00000010
00000000
,
00000001
00000000
00001000
00000000
,
00000010
00000000
00000100
00000000
,
00001000
00000000
00010000
00000000
,
01000000
00000000
10000000
00010000
,
10000000
01000000
00010000
00000000
00001000
00000100
00000001
00001000
,
00000100
00000000
00000010
00000000
,
00000001
00000000
00000000
00000000
,
00020000
00000000
00000000
00030000
,
00010000
00001000
00010000
00100000
10000000
00000000
00100000
00000000
,
00010000
00001000
00010000
00100000
10000000
00000000
01000000
00000000
,
00010000
00001000
00000100
00000001
00000100
00000000
00001000
00000000
,
00010000
00001000
00000100
00000001
00000100
00000000
00001000
00000000
,
00010000
00001000
00010000
01000000
10000000
00000000
01000000
00000000
,
00010000
00001000
00010000
01000000
10000000
00000000
01000000
00000000
,
00010000
00001000
00000010
00000001
00000010
00000000
00001000
00000000
,
00010000
00001000
00000010
00000001
00000010
00000000
00001000
00000000
,
00010000
00100000
00010000
00001000
,
00010000
00100000
00010000
00001000
,
00000100
00001000
00010000
01000000
,
10000000
00100000
00010000
00000000
00001000
00000000
00000010
00000000
,
00000002
00000000
00000000
00000000
,
00000003
00000000
00000000
00000000
;

//--------------- dance-double - M. Emirzian ----------------
#NOTES:
     dance-double:
     M. Emirzian:
     Hard:
     8:
     0.514,0.523,0.184,0.058,0.017:
00000000
00000000
00000000
00000000
,
00000000
00000000
00000000
00000000
,
00000000
00000000
00000000
00000000
,
00000000
00000000
00000000
00000000
,
00000000
00000000
00000000
00000000
,
10000000
00000000
00100000
00000000
00010000
00001000
00000100
00001000
,
00000000
00011000
00000000
00110000
00000000
10000000
01000000
00010000
,
00001000
00000000
00000010
00000000
00000001
00000000
00000100
00000101
,
00000000
00001100
00000000
00011000
00000000
01010000
00000000
11000000
,
00010000
00000000
00000000
00000000
,
10000000
01000000
00010000
01000000
10000000
01000000
00010000
00001000
,
00010000
01000000
10000000
01000000
00010000
01000000
10000000
00100000
,
00010000
00000000
00001000
00010000
00001000
00000000
00000010
00000000
00000001
00000010
00000001
00000000
00001000
00000000
00000100
00000000
,
00000001
00000100
00001000
00000010
00000100
00000001
00001000
00000000
,
00000001
00000010
00001000
00000010
00000001
00000100
00001000
00000100
,
00000001
00000010
00001000
00010000
00100000
00010000
00001000
00000100
,
00001000
00000000
00010000
00001000
00010000
00000000
01000000
00000000
10000000
01000000
10000000
00000000
00100000
00000000
00010000
00000000
,
00100000
10000000
01000000
00010000
01000000
10000000
00100000
00010000
,
00002000
00000000
00000000
00013000
,
00001000
00000010
00000001
00000010
00001000
00010000
00001000
00000100
,
00000001
00000100
00001000
00010000
01000000
10000000
01000000
00010000
,
00001000
00010000
00100000
10000000
00100000
00010000
00001000
00000010
,
00000001
00000010
00001000
00010000
00001000
00000100
00000001
00000100
,
00001000
00010000
01000000
10000000
01000000
00010000
00001000
00010000
,
00100000
10000000
00100000
00010000
00001000
00000010
00000001
00000010
,
00001000
00010000
00001000
00000100
00000001
00000100
00001000
00010000
,
00100000
10000000
00100000
00010000
00001000
00010000
00100000
10000000
,
10010000
00000000
01010000
00000000
00010000
00001000
00000010
00001000
,
00000000
00011000
00000000
00001100
00000000
00000100
00000001
00000010
,
00001000
00000000
00010000
00000000
00100000
00000000
10000000
00010000
,
00000000
01000000
00000000
00100000
10000000
01000000
00010000
00001000
,
00010000
00000000
01000000
00000000
00010000
00001000
00000010
00000001
,
00000000
00000010
00000000
00001000
00010000
00001000
00000100
00000001
,
00001000
00000000
00000100
00000000
00000010
00000000
00000001
00000011
,
00000000
00001010
00000000
00011000
00000000
00110000
00000000
10100000
,
10000000
01000000
00100000
00010000
01000000
00001000
00010000
00001000
,
00100000
00001000
00010000
00000100
00000010
00000001
00001001
00000000
,
00000001
00000100
00000010
00010000
00000100
00010000
00001000
00010000
,
00000010
00010000
00001000
01000000
00010000
00100000
10010000
00000000
,
10000000
00010000
01000000
00001000
00010000
00000010
00010000
00001000
,
00000010
00000001
00001000
00000010
00000100
00000001
00001001
00000000
,
00000100
00000010
00000001
00001000
00000100
00010000
00000010
00010000
,
00001000
01000000
00010000
01000000
00100000
10000000
10010000
00000000
,
10000000
01000000
00100000
00010000
01000000
00000000
00001000
00000000
,
00010000
00000100
00001000
00000010
00000100
00000000
00000001
00000000
,
00000100
00000010
00001000
00000100
00000001
00000100
00001000
00000010
,
00000001
00000010
00001000
00000100
00000010
00000100
00010000
00000000
,
00001000
01000000
00010000
00100000
01000000
00000000
10000000
00000000
,
00100000
00010000
00001000
00010000
00100000
00000000
00010000
00000000
,
00001000
00010000
01000000
00010000
00001000
00000100
00000001
00000010
,
00000100
00001000
00000010
00001000
00000100
00000010
00000001
00001000
,
00001001
00000000
00000000
00000000
,
00020000
00000000
00000000
00031000
,
00010000
01000000
10000000
01000000
00010000
00001000
00010000
00100000
,
10000000
00100000
00010000
00001000
00000010
00000001
00000010
00001000
,
00010000
00001000
00000100
00000001
00000100
00001000
00010000
01000000
,
10000000
01000000
00010000
00001000
00010000
00100000
10000000
00100000
,
00010000
00001000
00000010
00000001
00000010
00001000
00010000
00001000
,
00000100
00000001
00000100
00001000
00010000
01000000
10000000
01000000
,
00010000
00001000
00010000
00100000
10000000
00100000
00010000
00001000
,
00000100
00000001
00000100
00001000
00010000
00001000
00000100
00000001
,
00001001
00000000
00000100
00000000
00001000
00000000
00020000
00001000
,
00031000
00000000
00000100
00000000
00002000
00010000
00013000
00000000
,
01000000
00000000
20000000
01000000
31000000
00000000
00020000
00001000
,
00031000
00000000
00000010
00000000
00000001
00000100
00001000
00010000
,
02000000
00000000
00000000
00000000
,
03000000
00000000
00000000
00000000
;

//--------------- dance-double - M. Emirzian ----------------
#NOTES:
     dance-double:
     M. Emirzian:
     Challenge:
     9:
     0.575,0.578,0.292,0.05,0.142:
00000000
00000000
00000000
00000000
,
00000000
00000000
00000000
00000000
,
00000000
00000000
00000000
00000000
,
00000000
00000000
00000000
00000000
,
00000000
00000000
00000000
00000000
,
01100000
00000000
00011000
00000000
00001000
00010000
01000000
00010000
,
00000000
00011000
00000000
00000110
00000000
00000001
00000100
00001000
,
00010000
00001000
00000100
00000000
00000001
00000010
00001000
00010000
,
00000000
01100000
0MM00000
00011000
000MM000
00000110
00000MM0
00000011
,
00001000
00000000
00000000
00000000
,
00000001
00000100
00001000
00000100
00000001
00000010
00001000
00010000
,
00001000
00000100
00001000
00010000
01000000
10000000
00010000
01000000
,
00100000
00000000
10000000
01000000
10000000
00000000
01000000
00000000
00010000
00001000
00010000
00000000
00001000
00000000
00000100
00000000
,
00000001
00000100
00000001
00000000
00000100
00001000
00000100
00000000
00001000
00000000
00010000
00000000
01000000
00000000
00100000
00000000
,
00010000
01000000
10000000
01000000
00001000
00010000
00000001
00000010
,
00001000
00000010
00000001
00000100
00001000
00010000
00001000
00000100
,
00000010
00000000
00010000
00001000
01000000
00000000
00100000
00000000
00010000
00001000
00010000
00000000
00001000
00000000
00000010
00000000
,
00001000
00010000
00001000
00000000
01000000
00100000
01000000
00000000
00001000
00000000
00010000
00000000
00100000
00000000
10000000
00000000
,
02000000
00000000
00000000
03100000
,
10000000
00100000
00001000
00000010
00000001
00000010
00001000
00100000
,
10000000
00100000
00001000
00000010
00000001
00000010
00001000
00100000
,
10000000
00010000
01000000
10000000
00010000
01000000
00100000
00010000
,
00001000
00100000
00001000
00000000
00010000
00001000
00010000
00000000
00000100
00000010
00000100
00000000
00001000
00000000
00000100
00000000
,
00000001
00000100
00010000
01000000
10000000
01000000
00010000
00000100
,
00000001
00000100
00010000
01000000
10000000
01000000
00010000
00000100
,
00000001
00001000
00000010
00000001
00001000
00000010
00000100
00001000
,
00010000
00000100
00010000
00000000
00001000
00010000
00001000
00000000
00100000
01000000
00100000
00000000
00001000
00000000
00010000
00000000
,
00000100
00000000
00000010
00000000
00000001
00000100
00000010
00000110
,
00000MM0
00011000
000MM000
01100000
0MM00000
10000000
00100000
01000000
,
01100000
00000000
00011000
00000000
00000110
00000000
00001100
00000001
,
00000000
00011000
00000000
01100000
01000000
10000000
00100000
00010000
,
00001000
00000000
00010000
00000000
01000000
10000000
00100000
10010000
,
M00M0000
00011000
000MM000
00000110
00000MM0
00000001
00000100
00000010
,
00010010
00000000
00001100
00000000
00110000
00000000
01100000
10000000
,
00000000
00011000
00000000
00001100
00000000
00000011
00000000
00000001
,
00000100
00000010
00001000
00000100
00010000
00001000
01000000
00010000
,
00100000
01000000
00100000
00000000
00010000
10000000
00010000
00000000
01000000
00000000
01010000
00000000
01001000
00000000
00000000
00000000
,
00010000
00100000
00001000
00010000
00000100
00000010
00000001
00001000
,
00000010
00000100
00000010
00000000
00001000
00000001
00001000
00000000
00000100
00000000
00001100
00000000
00010100
00000000
00000000
00000000
,
00001000
01000000
00100000
10000000
00010000
00100000
01000000
10000000
,
00010000
01000000
00010000
00000000
10000000
00100000
10000000
00000000
01000000
00000000
00110000
00000000
00101000
00000000
00000000
00000000
,
00010000
00000100
00001000
00000010
00000100
00000001
00000010
00000100
,
00001000
00000001
00001000
00000000
00000010
00010000
00000010
00000000
00001000
00000000
00010100
00000000
00011000
00000000
00000000
00000000
,
00010000
00000000
00001000
00000000
00000100
00000000
00000001
00000000
00000100
00000000
00000000
00000010
00010000
00000000
00001000
00000000
,
01000000
00010000
00100000
10000000
00100000
00010000
01000000
10000000
,
01000000
00000000
00010000
10000000
00010000
00000000
00100000
00000000
01000000
00000000
00100000
00001000
00100000
00000000
00010000
00000000
,
01000000
00001000
00010000
00001000
00000010
00000001
00000010
00000100
,
00001000
00000000
00000001
00000000
00000100
00000000
00001000
00000000
00000100
00000000
00000000
00000001
00000010
00000000
00000100
00000000
,
00000001
00000100
00010000
00001000
10000000
00100000
01000000
00010000
,
10000000
00000000
01000000
00100000
01000000
00000000
10000000
00000000
00100000
00000000
01000000
00001000
01000000
00000000
00010000
00000000
,
00100000
00001000
00010000
01000000
00010000
00001000
00000010
00000001
,
00001000
00000000
00000000
0000M000
,
00002000
00000000
00000M00
00003100
,
00000001
00000100
00010000
01000000
10000000
01000000
00010000
00000100
,
00000001
00000100
00010000
01000000
10000000
01000000
00010000
00000100
,
00000001
00001000
00000010
00000001
00001000
00000010
00000100
00001000
,
00010000
00000100
00010000
00000000
00001000
00010000
00001000
00000000
00100000
01000000
00100000
00000000
00010000
00000000
00100000
00000000
,
10000000
00100000
00001000
00000010
00000001
00000010
00001000
00100000
,
10000000
00100000
00001000
00000010
00000001
00000010
00001000
00100000
,
10000000
00010000
01000000
10000000
00010000
01000000
00100000
00010000
,
00001000
00100000
00001000
00000000
00010000
00001000
00010000
00000000
00000100
00000010
00000100
00000000
00010000
00000000
00001000
00000000
,
00000100
00000000
00000001
00000000
00000020
00000000
00000100
00000100
,
00000130
00000000
00010000
00000000
00002000
00000000
00000100
00000100
,
00003100
00000000
00001000
00000000
00020000
00000000
00100000
00100000
,
00130000
00000000
10000000
01000000
00010000
00001000
00000100
00000001
,
00002000
00000000
00000000
00000000
,
00003000
00000000
00000000
00000000
;

//--------------- lights-cabinet - ----------------
#NOTES:
     lights-cabinet:
     :
     Easy:
     1:
     0.692,0.868,0.801,0.033,0.067:
000000
000000
000000
000000
,
000000
000000
000000
000000
,
000000
000000
000000
000000
,
000000
000000
000000
000000
,
000000
100000
001000
100000
000100
100000
001000
100000
,
000100
100100
011000
011000
000000
100100
101000
011000
,
100100
100100
011000
011000
000000
100100
100100
011000
,
100000
110100
100000
011000
001000
100100
010000
011100
,
000000
100100
000000
011000
000000
100100
000000
011000
,
111100
000000
000000
000000
,
100000
001000
100000
000000
000100
000000
000100
000000
,
010000
001000
010000
000000
000100
000000
000100
000000
,
100000
010000
000100
000000
000100
010000
100000
000000
,
000100
001000
000100
001000
000100
000000
100000
000000
,
010000
001000
111100
000000
000100
001000
111100
000000
,
100000
001000
111100
000000
000100
000000
111100
000000
,
001000
010000
111100
000000
100000
000000
111100
010000
,
000000
111100
000000
111100
000000
111100
001100
110000
,
111100
000001
000010
000001
000010
000001
000010
000000
,
100000
000000
010000
000000
100000
000000
010000
000000
100000
000000
010000
000000
100000
000000
010000
001000
,
010000
000000
001000
000000
010000
000000
001000
000000
010000
000000
001000
000000
010000
000000
001000
000100
,
001000
000000
000100
000000
001000
000000
000100
000000
001000
000000
000100
000000
001000
000000
000100
001000
,
000100
000000
100000
000000
000100
000000
010000
000000
001000
000000
100000
000000
000100
000000
010000
001000
,
100000
000000
010000
000000
100000
000000
010000
000000
100000
000000
010000
000000
100000
000000
010000
001000
,
010000
000000
001000
000000
010000
000000
001000
000000
010000
000000
001000
000000
010000
000000
001000
000100
,
001000
000000
000100
000000
001000
000000
000100
000000
001000
000000
000100
000000
001000
000000
000100
001000
,
000100
000000
100000
000000
000100
000000
010000
000000
001000
000000
100000
000000
000100
000000
010000
001000
,
100000
100000
100100
000000
100000
100000
100100
000000
,
000100
010000
001100
000000
000100
010000
001100
000000
,
100000
100000
001000
100000
000100
000100
010000
001100
,
000000
100000
000000
000100
100000
001000
100000
000100
,
100000
000100
010100
000000
100000
000100
010100
000000
,
010000
100000
011000
000000
010000
100000
011000
000000
,
000100
000100
001000
000100
010000
010000
000100
111100
,
000000
011000
000000
001100
000000
222200
000000
333300
,
111100
001000
100100
000000
001000
100000
000100
000000
,
000100
001000
000100
010000
001000
100000
100100
000000
,
010000
001000
010000
000000
001000
100000
000100
000000
,
100000
001000
010000
000100
100000
001000
100100
000000
,
100000
001000
100000
000000
000100
010000
001000
000000
,
100000
001000
010000
010000
001000
100000
011000
000000
,
100100
011000
100100
000000
100100
011000
100100
000000
,
001100
110000
001100
011000
110000
000000
111100
000000
,
100000
000000
111100
000000
001000
010000
111100
010000
,
000000
000000
111100
000000
000100
010000
111100
100000
,
001000
000000
111100
000000
100000
000000
111100
001000
,
000000
010000
111100
010000
000100
100000
111100
100000
,
001000
000000
111100
000000
010000
100000
111100
010000
,
000000
101000
111100
010100
000100
100000
111100
100000
,
100000
010000
111100
000100
100000
000000
111100
001000
,
000000
001100
111100
110000
000000
100100
111100
011000
,
111100
000000
000000
000000
,
111100
000001
000010
000001
000010
000001
000010
000000
,
100000
000000
010000
000000
100000
000000
010000
000000
100000
000000
010000
000000
100000
000000
010000
001000
,
010000
000000
001000
000000
010000
000000
001000
000000
010000
000000
001000
000000
010000
000000
001000
000100
,
001000
000000
000100
000000
001000
000000
000100
000000
001000
000000
000100
000000
001000
000000
000100
001000
,
000100
000000
100000
000000
000100
000000
010000
000000
001000
000000
100000
000000
000100
000000
010000
001000
,
100000
000000
010000
000000
100000
000000
010000
000000
100000
000000
010000
000000
100000
000000
010000
001000
,
010000
000000
001000
000000
010000
000000
001000
000000
010000
000000
001000
000000
010000
000000
001000
000100
,
001000
000000
000100
000000
001000
000000
000100
000000
001000
000000
000100
000000
001000
000000
000100
001000
,
000100
000000
100000
000000
000100
000000
010000
000000
001000
000000
100000
000000
000100
000000
010000
001000
,
100000
011000
100000
011000
,
010000
001100
010000
001100
,
100000
100000
001000
000000
100000
100000
000100
100000
,
000000
100100
000000
111100
001000
011000
000100
010000
,
111100
000000
000000
000000
;
