#TITLE:Land of the Rising Sun;
#SUBTITLE:;
#ARTIST:Spacekats;
#TITLETRANSLIT:;
#SUBTITLETRANSLIT:;
#ARTISTTRANSLIT:;
#GENRE:;
#CREDIT:;
#MUSIC:Land of the Rising Sun.ogg;
#BANNER:Land of the Rising Sun.png;
#BACKGROUND:Land of the Rising Sun-bg.png;
#CDTITLE:;
#SAMPLESTART:79.444;
#SAMPLELENGTH:14.280;
#SELECTABLE:YES;
#OFFSET:-0.027;
#BPMS:0.000=136.020;
#STOPS:;
#BGCHANGES:;
#FGCHANGES:;

//--------------- dance-single - M. Puls ----------------
#NOTES:
     dance-single:
     M. Puls:
     Beginner:
     1:
     0.0878,0.136285,0.042096,0,0,73,68,5,0,0,0,0.0878,0.136285,0.042096,0,0,73,68,5,0,0,0:
0000
0000
0000
0000
,
0000
0000
0000
0000
,
0100
0000
0000
0000
,
0010
0000
0000
0000
,
1000
0000
0000
0000
,
0001
0000
0000
0000
,
1000
0000
0000
0000
,
1000
0000
0000
0000
,
0001
0000
0000
0000
,
1000
0000
0000
0000
,
0001
0000
0000
0000
,
0001
0000
0000
0000
,
1001
0000
0000
0000
,
1000
0000
0000
0000
,
0100
0000
0000
0000
,
0010
0000
0000
0000
,
0001
0000
0000
0000
,
0010
0000
0000
0000
,
0100
0000
0000
0000
,
1000
0000
0000
0000
,
1001
0000
0000
0000
,
1000
0000
0000
0000
,
1000
0000
0000
0000
,
0100
0000
0000
0000
,
1001
0000
0000
0000
,
0001
0000
0000
0000
,
0001
0000
0000
0000
,
0010
0000
0000
0000
,
1000
0000
1000
0000
,
1000
0000
0000
0000
,
0001
0000
0000
0000
,
0010
0000
0000
0000
,
0001
0000
0001
0000
,
0001
0000
0000
0000
,
1000
0000
0000
0000
,
0100
0000
0000
0000
,
0000
0000
0000
0000
,
1000
0000
0000
0000
,
0100
0000
0000
0000
,
0010
0000
0000
0000
,
0010
0000
0000
0000
,
0001
0000
0000
0000
,
0010
0000
0000
0000
,
0100
0000
0000
0000
,
0100
0000
0000
0000
,
1000
0000
0000
0000
,
0001
0000
0000
0000
,
1000
0000
0000
0000
,
1000
0000
0000
0000
,
0001
0000
0000
0000
,
1000
0000
0000
0000
,
0001
0000
0000
0000
,
0001
0000
0000
0000
,
1001
0000
0000
0000
,
0001
0000
0000
0000
,
0001
0000
0000
0000
,
0010
0000
0000
0000
,
1001
0000
0000
0000
,
1000
0000
0000
0000
,
1000
0000
0000
0000
,
0100
0000
0000
0000
,
0001
0000
0001
0000
,
0001
0000
0000
0000
,
1000
0000
1000
0000
,
1000
0000
0001
1000
;

//--------------- dance-single - K. Ward ----------------
#NOTES:
     dance-single:
     K. Ward:
     Easy:
     4:
     0.191235,0.218056,0.067353,0,0,159,151,8,0,0,0,0.191235,0.218056,0.067353,0,0,159,151,8,0,0,0:
0000
0000
0000
0000
,
0000
0000
0000
0000
,
1100
0000
0011
0000
,
0100
0100
0100
0000
,
1000
0000
0001
0000
,
0100
0000
0001
0000
,
1000
1000
1000
0000
,
0001
0001
0001
0000
,
0100
0000
0010
0000
,
1000
0000
0001
0000
,
0010
0100
0010
0001
,
1000
0000
0000
0000
,
0001
0000
1000
0000
,
0100
0000
1000
0000
,
0001
0000
0100
0000
,
1000
1000
1000
0000
,
0100
0000
0010
0000
,
1000
0000
1000
0000
,
0001
0100
0001
0010
,
0100
0010
0001
0000
,
1000
0000
1000
0000
,
0100
0100
0100
0000
,
0001
0000
0001
0000
,
1000
0100
0010
0100
,
1000
0000
1000
0000
,
0100
0100
0100
0000
,
0001
0000
1000
0000
,
0001
1000
0001
1000
,
0010
0000
0000
0000
,
1001
0000
0000
0000
,
0010
0010
0010
0010
,
0010
0000
0000
0000
,
0100
0000
1000
0000
,
0010
0000
0001
0000
,
0100
1000
0100
0001
,
0010
0000
0000
0000
,
1001
1001
0000
0000
,
0100
0000
1000
0000
,
0100
0100
0100
0000
,
0001
0000
1000
0000
,
0010
0010
0010
0000
,
0001
0000
1000
0000
,
0100
0010
0100
1000
,
0001
0000
1000
0000
,
0001
1000
0001
1000
,
0001
0000
0001
0000
,
0100
0100
0100
0000
,
1000
0000
0001
0000
,
1000
1000
1000
1000
,
0100
0000
1000
0000
,
0001
0001
0001
0000
,
0010
0000
0100
0000
,
0010
0010
0100
0100
,
1001
0000
0000
0000
,
0010
0000
0000
0000
,
0100
1000
0010
0001
,
1001
0000
0000
0000
,
0010
0000
0100
0000
,
0010
0000
0001
0000
,
1000
0001
1000
0001
,
1000
0000
0000
0000
,
0011
0000
0000
0000
,
0100
0000
0000
0000
,
1000
0000
0000
0000
,
0001
1000
0001
1000
;

//--------------- dance-single - K. Ward ----------------
#NOTES:
     dance-single:
     K. Ward:
     Medium:
     7:
     0.34759,0.409644,0.227317,0.092611,0,289,262,27,11,0,0,0.34759,0.409644,0.227317,0.092611,0,289,262,27,11,0,0:
0000
0000
0000
0000
,
0000
0000
0000
0000
,
1100
0000
0011
0000
,
1001
0000
0110
0000
0001
0100
0010
0000
,
1000
1000
0001
0001
,
0100
1000
0100
0000
0001
0010
0001
0000
,
1000
1000
0001
0001
,
0100
1100
0010
0011
,
1000
0000
1000
0000
0100
0001
0010
0000
,
0100
0000
0100
0000
0001
0010
0001
0000
,
1000
0000
1000
0000
0010
0100
0001
0000
,
0010
1001
0100
1001
,
0001
1000
0001
0000
0001
0000
0001
0000
,
1000
0001
1000
0000
1000
0000
1000
0000
,
0010
0100
0001
0000
0010
0100
0010
0000
,
0100
0100
0100
0100
,
1000
0000
0010
0000
0001
0010
0001
0000
,
0010
0100
0001
0010
0002
0000
1003
0000
,
0100
1000
0010
0001
,
0100
1000
0010
0001
,
1000
1100
0001
0011
,
0100
0100
0010
0010
,
0001
0011
1000
1100
,
0001
0000
1000
0000
0001
1000
0001
0000
,
0001
0011
0100
0011
,
0010
0100
0100
1000
,
1001
0010
1001
0100
,
0010
0100
0001
0000
0010
0100
1000
0000
,
0010
0100
0010
0001
,
0010
0100
0001
1000
,
0100
0010
0100
1000
0100
0010
0100
0000
,
2000
0000
0001
3001
,
0001
0100
0010
1000
,
0010
0100
0010
0001
,
0010
0100
0001
0000
0010
0100
0000
2002
,
0000
0000
0000
0000
,
3003
0000
0000
0000
,
0010
0010
0010
0000
,
1000
1000
1000
0000
,
0001
0001
0001
0000
,
0100
1000
0100
0010
0100
0000
0100
0000
,
0001
0001
0001
0000
,
1000
1000
1000
0000
,
0100
1010
0010
0101
,
0010
0100
1000
0000
0010
0100
0001
1000
,
0001
0011
0100
1100
,
0010
0100
0002
1003
,
0100
1100
0010
0110
,
0100
0000
1001
0000
0010
0100
0001
0000
,
0010
0011
0100
1100
,
0010
0001
0100
1000
,
0002
0000
2003
0000
,
3200
0000
0000
0000
0301
0010
0001
0000
,
0010
0100
0001
1000
,
0100
0100
0100
0000
,
0010
0100
0001
0010
0100
0010
0001
0000
,
0002
0000
1000
1003
,
0010
0100
1000
0000
0010
0100
0001
0000
,
1000
1000
0001
0001
,
0100
1000
0100
0000
0010
0100
0000
0022
,
0000
0000
0033
0000
,
0001
0001
0001
0000
0000
0000
0000
0000
,
1000
1000
1000
0000
0000
0000
0000
0000
,
0100
0100
0100
0000
0000
0000
0000
0000
,
0010
0100
1000
0000
0010
0100
0001
1000
;

//--------------- dance-single - K. Ward ----------------
#NOTES:
     dance-single:
     K. Ward:
     Hard:
     10:
     0.434187,0.409644,0.260993,0.050515,0.084191,361,330,31,6,0,0,0.434187,0.409644,0.260993,0.050515,0.084191,361,330,31,6,0,0:
0000
0000
0000
0000
,
0000
0000
0000
0000
,
1100
0000
0110
0000
,
1100
0000
1100
0000
0001
0100
0001
0000
,
1000
0000
0000
0000
1000
0000
0000
0000
0010
0000
0000
0010
0000
0000
0010
0000
,
0100
0000
0000
0000
0100
0000
0000
0000
0001
0000
0000
0001
0000
0000
0001
0000
,
0010
0000
0000
0000
0010
0000
0000
0000
0001
0000
0000
0001
0000
0000
0001
0000
,
0100
0000
0000
0000
0100
0000
0000
0000
0010
0000
0000
0010
0000
0000
0010
0000
,
1000
0000
0001
0000
1000
0000
0000
0000
0010
0000
0000
0010
0000
0000
0010
0000
,
0100
0000
0010
0000
0100
0000
0000
0000
0001
0000
0000
0001
0000
0000
0001
0000
,
0010
0000
0001
0000
1000
0000
0000
0000
0001
0000
0000
0001
0000
0000
0001
0000
,
0100
0000
0010
0000
0100
0000
0000
0000
0010
0000
0000
0010
0000
0000
0010
0000
,
1000
0010
0100
0000
0001
0100
0100
0000
,
0010
1000
0001
1000
0010
0100
0100
0000
,
0001
0010
0001
0000
1000
0100
1000
0000
,
0100
0010
0001
0010
0100
1000
1000
0000
,
0010
0100
0001
0000
0100
0010
1000
0000
,
0001
0100
0010
0100
0001
1000
1000
0000
,
0001
0100
0010
1000
,
0100
0010
0100
0000
0110
0000
0101
0000
,
1000
0000
0000
0000
0001
0000
0000
1000
0001
0000
0100
0000
0001
0000
1000
0000
,
0010
0100
0001
1100
,
0001
0000
0001
0000
1000
0010
1000
0002
,
0000
0000
0013
0000
0100
0010
0110
0000
,
1000
0000
0000
0000
0001
0000
0000
1000
0001
0000
0100
0000
0001
0000
1000
0000
,
0010
0100
0001
1100
,
0001
0000
0001
0000
1000
0010
1000
0000
,
0100
0000
0100
0000
0010
0001
1000
0000
,
0010
1100
0010
0011
,
0100
0000
0010
0000
0100
0010
1010
0000
,
0100
0001
0100
0010
0100
1000
0100
0000
,
2000
0000
0000
0000
3100
0100
0010
0000
,
0100
1100
0010
0011
,
0100
0000
0010
0000
1000
0001
0011
0000
,
1000
0000
0000
0001
0000
0000
0100
0000
0010
0000
0000
1000
0000
0000
0200
0000
,
0000
0000
1000
0310
,
1001
1001
0000
0000
,
0001
0100
0001
0000
0100
0010
1000
0000
,
0100
1000
0100
0000
0010
0001
0001
0000
,
0100
0010
0100
0000
0001
0010
0001
0000
,
0010
0100
1000
0000
0100
1000
1000
0000
,
0100
0000
1001
0000
0001
0100
0010
0000
,
1000
0100
0010
0100
0001
0100
0100
0000
,
0010
0100
0010
1001
,
0001
0100
0010
0000
0110
0000
0101
0000
,
1000
0000
0000
0000
0001
0000
0000
1000
0001
0000
0100
0000
0001
0000
1000
0000
,
0010
0100
0001
1100
,
0001
0000
0001
0000
0100
0010
0100
0002
,
0000
0000
1003
0000
0100
0010
0110
0000
,
1000
0000
0000
0000
0001
0000
0000
1000
0001
0000
0100
0000
0001
0000
1000
0000
,
0010
0100
0001
1100
,
0010
0000
0010
0000
0100
0010
0001
0000
,
0101
0000
0100
0000
0010
0100
1000
0000
,
0100
0110
0001
1001
,
0100
0000
0010
0000
0100
0010
1001
0000
,
1000
0100
0001
0100
0010
0100
0010
0000
,
0200
0000
0000
0000
0310
0001
0001
0000
,
0010
0100
0110
0000
0001
1000
1100
0000
,
0010
0000
1000
0000
0100
0010
1001
0000
,
1000
0000
0000
0001
0000
0000
0100
0000
0010
0000
0000
1000
0000
0000
0200
0000
,
0000
0000
1000
0310
,
0000
0000
0001
0000
0001
0000
0001
0000
0100
0000
0000
0100
0000
0000
0100
0000
,
0000
0000
0010
0000
0010
0000
0010
0000
1000
0000
0000
1000
0000
0000
1000
0000
,
0000
0000
0010
0000
0010
0000
0010
0000
0100
0000
0000
0100
0000
0000
0100
0000
,
0000
0000
0001
0000
0001
0000
0001
0000
1000
0000
0000
1000
0000
0000
1000
0000
;

//--------------- dance-single - J. Casarino ----------------
#NOTES:
     dance-single:
     J. Casarino:
     Challenge:
     13:
     0.665112,0.62812,0.606178,0.050515,0.416747,553,481,72,6,76,0,0.665112,0.62812,0.606178,0.050515,0.416747,553,481,72,6,76,0:
0000
0000
0000
0000
,
0000
0000
0000
0000
,
1MM1
MMMM
M11M
MMMM
,
1MM1
000M
1M10
MMMM
0101
MMM0
MM11
0000
,
0001
0000
0100
0000
0010
0000
1000
0000
0100
0000
0010
0001
0000
0100
0010
0000
,
0100
0000
1000
0000
0100
0000
0001
0000
1000
0000
0010
0100
0000
0001
0010
0000
,
0100
0000
0010
0000
0100
0000
1000
0000
0010
0000
0100
0001
0000
0010
0100
0000
,
1000
0000
0010
0000
0001
0000
0010
0000
0100
0000
0001
0010
0000
0100
1000
0000
,
0100
0000
0010
0000
0100
0000
0001
0000
0100
0000
0010
0001
0000
0100
0010
0000
,
0100
0000
1000
0000
0100
0000
1000
0000
0100
0000
0001
1000
0000
0100
0010
0000
,
0001
0000
1000
0000
0010
0000
0100
0000
0001
0000
0010
0001
0000
0100
0010
0000
,
1000
0000
0100
0000
0001
0000
0100
0000
0010
0001
0010
0001
1000
0100
1000
0100
,
0010
0000
0001
0100
0000
0010
0000
1000
0000
1000
0100
0000
1001
0000
0000
0000
,
0001
0100
1000
0010
1000
0100
0101
0000
,
1000
0010
0100
0010
1000
0000
0100
0000
0010
0000
0001
0000
0101
0000
0000
1000
,
0001
0100
0010
1000
0001
0011
1100
0000
,
0010
0000
1000
0000
1000
0000
0100
0000
0010
0000
0001
0000
0010
0000
0000
0001
,
0100
0001
0010
0000
0100
0000
0010
0000
0010
0000
1000
0000
0101
0000
0M0M
0000
,
0001
0000
0010
0000
0100
0000
1000
0000
0001
0000
0100
0000
1010
0000
0000
1000
,
0100
0000
0010
0001
0010
0000
0001
0100
0010
0000
1000
0000
0101
0000
0000
0000
,
1001
0000
0000
0000
1100
0000
0000
0001
1000
0000
0100
M000
0100
0000
0001
0M00
,
1000
000M
0100
M000
0100
0000
0001
0M00
1000
000M
0010
M000
0010
0000
0001
00M0
,
1001
0000
1001
0000
0010
1000
0001
0101
,
1000
0000
0011
0000
0110
1000
0110
0001
,
1001
0000
0000
0000
0101
0000
0000
1000
0001
0000
0010
000M
0010
0000
1000
00M0
,
0001
M000
0010
000M
0010
0000
10M0
0000
0010
M000
0010
0000
0001
00M0
1000
0000
,
1001
0000
1100
0000
0011
0100
1100
0000
,
1010
0000
0000
0000
0101
0000
0000
0000
1000
0010
1000
0010
0100
0001
0100
0001
,
0010
0001
0100
0010
1000
0100
0020
0001
,
0100
0000
0000
0030
0010
0000
0000
0000
0001
0000
0000
0000
0100
0000
0000
0000
0010
0000
0000
0000
1000
0000
0000
0000
0200
0000
0000
0000
0010
0000
0000
0000
,
1000
0000
0000
0300
0100
0000
0000
0000
0010
0000
0000
0000
0001
0000
0000
0000
0100
0000
0000
0000
0010
0000
0000
0000
1000
0000
0000
0000
0001
0000
0000
0000
,
0200
00M0
0010
M0M0
1000
M000
0310
0000
,
0M01
0100
1001
0010
1000
0100
1001
0100
,
0001
0010
1001
0100
0010
0100
1001
0100
,
0001
0000
0000
0101
0000
0000
1001
0000
1010
0000
0000
1100
0000
0000
0011
0000
,
1001
0000
1100
0000
0011
1000
0100
0010
,
0101
0000
0000
0000
11MM
0000
0000
0000
1000
0001
0000
0010
0100
0000
1000
0000
,
0001
0000
0100
0000
0001
0000
0010
0000
0100
0000
1000
0010
0000
0000
00M0
0000
,
0010
0001
0100
0010
1000
0100
0110
0000
,
0100
1000
0001
1000
0100
0000
MM00
0000
0100
0001
1000
0001
0100
0000
MM00
0000
,
0010
0000
1000
0000
0100
0000
0010
0000
0001
0000
1000
0100
0000
0000
0000
0100
,
1000
0000
0010
0000
0010
0000
0100
0000
1000
0000
0100
0000
0110
0000
0000
0010
,
0100
0010
1000
0000
0010
0000
0100
0000
0100
0000
0001
0000
0011
0000
0000
0000
,
1000
0010
0100
0001
1000
0100
0011
0000
,
1000
0100
0010
0100
0010
0001
0010
0100
1000
0100
0010
0001
1000
0000
0000
0000
,
1001
0000
0000
0000
1010
0000
0000
0001
1000
0000
0100
M000
0100
0000
0001
0M00
,
0010
000M
0010
0000
1000
00M0
0100
M000
0100
0000
0001
0M00
0010
000M
0010
0000
,
1001
0000
1001
0000
0010
0100
0001
0010
,
1001
0000
1100
0000
0011
0100
1000
0100
,
1001
0000
0000
0000
0011
0000
0000
1000
0001
M000
0010
000M
0010
0000
1000
00M0
,
0100
M000
0100
0000
0M01
0000
0100
000M
0100
0000
1000
0M00
0010
M000
0010
0000
,
1001
0000
0011
0000
0101
0100
0001
0010
,
1001
0000
0000
0000
0011
0000
0000
0000
0001
0100
0010
1000
0010
0100
0001
1000
,
0001
0010
0100
1000
0010
0100
0002
0010
,
1000
0003
0100
0000
0010
0000
0001
0000
1000
0000
0010
0000
0200
0000
0010
0000
,
0001
0300
1000
0000
0100
0000
0010
0000
1000
0000
0010
0000
0001
0000
1000
0000
,
0200
000M
0001
M00M
1000
M00M
0301
000M
,
0M01
1000
0110
0001
1000
0001
0110
1000
,
0100
0010
1001
1000
0001
1000
0100
0010
,
0001
0000
0000
1010
0000
0000
1100
0000
0001
0000
0000
0011
0000
0000
1001
0000
,
0100
0000
1001
0000
1100
0010
0001
0100
,
1001
0000
0010
0000
0010
0000
0010
0000
0100
0000
0001
0010
0000
0010
0100
0000
,
0000
0000
1000
0000
1000
0000
1000
0000
0100
0000
0010
0001
0000
0010
0100
0000
,
0000
0000
1000
0000
1000
0000
1000
0000
0010
0000
1000
0100
0000
0010
0001
0000
,
0000
0000
1000
0000
1000
0000
1000
0000
0010
0000
0100
0001
0000
1000
0010
0000
;

//--------------- dance-double - M. Emirzian ----------------
#NOTES:
     dance-double:
     M. Emirzian:
     Easy:
     4:
     0.291062,0.273096,0.202059,0.277832,0,242,218,24,33,0,0,0.291062,0.273096,0.202059,0.277832,0,242,218,24,33,0,0:
00000000
00000000
00000000
00000000
,
00000000
00000000
00000000
00000000
,
10000000
00000000
01000000
00000000
,
00100000
00100000
00001000
00010000
,
00000000
00000100
00000100
00001010
,
00000000
00000100
00000100
00001001
,
00000000
00000100
00000100
00001010
,
00000000
00000100
00000100
00011000
,
00000000
00100000
00100000
01010000
,
00000000
00100000
00100000
11000000
,
00000000
00100000
00100000
01010000
,
00000000
00100000
00100000
00011000
,
00010000
00000100
00001000
00001000
,
00000010
00000100
00000001
00000001
,
00000100
00000010
00010000
00010000
,
00001000
01000000
00010000
00010000
,
10000000
01000000
00100000
00100000
,
00001000
00010000
00000100
00000100
,
00001000
00000001
00000100
00000100
,
00000010
00000010
00001000
00001000
,
00000100
00010000
00001000
01000000
,
00010000
01000000
00010000
01000000
,
00100000
10000000
00010000
01000000
,
00001000
00010000
00000010
00000100
,
00000001
00001000
00000100
00000010
,
00000001
00001000
00000100
00010000
,
00001000
01000000
00100000
10000000
,
01000000
01000000
00100000
00000000
,
00001000
00001000
00020020
00030030
,
00001000
00001000
00000220
00000330
,
00001000
00001000
00020200
00030300
,
00001000
00001000
00022000
00033000
,
00010000
00010000
20200000
30300000
,
00010000
00010000
02002000
03003000
,
00010000
00010000
00202000
00303000
,
00010000
00010000
00022000
00033000
,
00020000
00000000
00000000
00000000
,
00031000
00010000
00000100
00000100
,
00001000
00000010
00000100
00000100
,
00000001
00000100
00000010
00000010
,
00001000
00000010
00010000
00010000
,
00001000
01000000
00010000
00010000
,
01000000
00100000
10000000
10000000
,
01000000
00100000
00010000
00010000
,
00100000
00001000
00010000
00010000
,
00001000
00010000
00000100
00001000
,
00000001
00001000
00000001
00001000
,
00000100
00010000
00001000
01000000
,
00010000
10000000
01000000
00100000
,
00001000
00010000
00000100
00001000
,
00000001
00000010
00000100
00001000
,
00000010
00010000
00001000
01000000
,
00100000
10000000
01000000
00100000
,
00010000
00010000
00202000
00303000
,
00010000
00010000
02002000
03003000
,
00010000
00010000
02200000
03300000
,
00010000
00010000
00022000
00033000
,
00000100
00000100
00002020
00003030
,
00000100
00000100
00002002
00003003
,
00000100
00000100
00022000
00033000
,
00000100
00000100
00020200
00030300
,
00000000
00010000
00001000
00010000
,
00000000
00001000
01000000
00001000
,
00000000
01000000
00100000
01000000
,
00000000
00000000
00100000
00000000
10000000
00000000
00000000
01000000
;

//--------------- dance-double - M. Emirzian ----------------
#NOTES:
     dance-double:
     M. Emirzian:
     Medium:
     6:
     0.371645,0.382334,0.202059,0.042096,0.050515,309,285,24,5,0,0,0.371645,0.382334,0.202059,0.042096,0.050515,309,285,24,5,0,0:
00000000
00000000
00000000
00000000
,
00000000
00000000
00000000
00000000
,
00000010
00000000
00010000
00001000
,
00100000
00000000
01000000
00000000
10000000
00100000
01000000
00000000
,
00010000
00000000
00000000
00000000
01000000
00000000
00000000
00000000
00010000
00000000
00000000
00010000
00000000
00000000
00010000
00000000
,
00000000
00000000
00000000
00000000
01000000
00000000
00000000
00000000
00001000
00000000
00000000
00001000
00000000
00000000
00001000
00000000
,
00000000
00000000
00000000
00000000
00010000
00000000
00000000
00000000
00000010
00000000
00000000
00000010
00000000
00000000
00000010
00000000
,
00000000
00000000
00000000
00000000
00001000
00000000
00000000
00000000
00000100
00000000
00000000
00000100
00000000
00000000
00000100
00000000
,
00000000
00000000
00000000
00000000
00000010
00000000
00000000
00000000
00000001
00000000
00000000
00000001
00000000
00000000
00000001
00000000
,
00000000
00000000
00000000
00000000
00000100
00000000
00000000
00000000
00000010
00000000
00000000
00000010
00000000
00000000
00000010
00000000
,
00000000
00000000
00000000
00000000
00010000
00000000
00000000
00000000
00001000
00000000
00000000
00001000
00000000
00000000
00001000
00000000
,
00000000
00000000
00000000
00000000
01000000
00000000
00000000
00000000
00100000
00000000
00000000
00100000
00000000
00000000
00100000
00000000
,
10000000
00000000
01000000
00000000
00100000
00001000
00010000
00000000
,
00001000
00000000
01000000
00000000
00001000
00010000
00000010
00000000
,
00000100
00000000
00000001
00000000
00000100
00000010
00001000
00000000
,
00000100
00000000
00010000
00000000
00001000
01000000
00010000
00000000
,
00100000
00000000
00001000
00000000
01000000
00010000
10000000
00000000
,
01000000
00000000
00100000
00000000
00010000
00100000
00001000
00000000
,
00010000
00000000
00000100
00000000
00001000
00000010
00000100
00000000
,
00000001
00000000
00000010
00000000
00000100
00001000
00000010
00000000
,
00010000
00000000
00001000
00000000
01000000
00010000
01000000
00000000
,
00100000
10000000
00100000
00000000
01000000
00000000
00110000
00000000
,
00001000
00010000
00001000
00000000
00010000
00000000
00000100
00000000
,
00001000
00000010
00001000
00000000
00000100
00000000
00000011
00000000
,
00000100
00000000
00000010
00000000
00010000
00000100
00010000
00000000
,
00001000
00010000
00001000
00000000
00010000
00000000
01001000
00000000
,
00010000
01000000
00010000
00000000
00100000
00000000
01000000
00000000
,
10000000
00010000
10000000
00000000
00100000
00000000
01010000
00000000
,
00100000
01001000
00100000
00011000
,
00100000
00000000
01001000
00000000
00010000
00001000
00010000
00000000
,
00000100
00000000
00000010
00000000
00000001
00000100
00000001
00000000
,
00002020
00000000
00000000
00003030
,
00000100
00001010
00000100
00010010
,
00000100
00000000
00011000
00000000
00001000
00010000
00001000
00000000
,
01000000
00000000
00100000
00000000
10000000
00100000
10000000
00000000
,
01010000
00100000
00001000
00010000
,
00002000
00000000
00000000
00000000
,
00013000
00000000
00000100
00000000
00000010
00000001
00001000
00000000
,
00000100
00000000
00010000
00000000
00001000
01000000
00010000
00000000
,
01000000
00000000
00100000
00000000
10000000
00100000
01000000
00000000
,
00001000
00000000
00010000
00000000
00000100
00010000
00001000
00000000
,
00010000
00000000
00000010
00000000
00001000
00000001
00000100
00000000
,
00000010
00000000
00010000
00000000
00001000
01000000
00010000
00000000
,
00100000
00000000
00001000
00000000
00100000
00010000
10000000
00000000
,
00100000
00000000
01000000
00000000
00100000
01000000
00001000
00000000
,
00010000
00000000
00000100
00000000
00001000
00000010
00001000
00000000
,
00000001
00000100
00000001
00000000
00000010
00000000
00001100
00000000
,
00010000
00001000
00010000
00000000
00001000
00000000
01000000
00000000
,
00100000
10000000
00100000
00000000
01000000
00000000
01100000
00000000
,
00010000
00000000
01000000
00000000
00001000
00010000
00001000
00000000
,
00000010
00000100
00000010
00000000
00000001
00000000
00000101
00000000
,
00000010
00001000
00000010
00000000
00000100
00000000
00000010
00000000
,
00010000
00001000
00010000
00000000
00010000
00000000
01001000
00000000
,
00010000
01100000
00010000
10100000
,
00010000
00000000
01001000
00000000
00010000
00001000
00010000
00000000
,
00000100
00000000
00001000
00000000
00000010
00000100
00000010
00000000
,
00002002
00000000
00000000
00003003
,
00010000
00001100
00010000
00101000
,
00010000
00000000
01100000
00000000
01000000
00010000
01000000
00000000
,
00100000
00000000
10000000
00000000
01000000
00100000
01000000
00000000
,
00110000
00100000
00001000
00010000
,
00000010
00000000
00000000
00000000
00010000
00000000
00000000
00000000
00000100
00000000
00000000
00000100
00000000
00000000
00000100
00000000
,
00000000
00000000
00000000
00000000
00000010
00000000
00000000
00000000
00000001
00000000
00000000
00000001
00000000
00000000
00000001
00000000
,
00000000
00000000
00000000
00000000
00000100
00000000
00000000
00000000
00000010
00000000
00000000
00000010
00000000
00000000
00000010
00000000
,
00000000
00000000
00000000
00000000
00010000
00000000
00000000
00000000
00001000
00000000
00000000
00001000
00000000
00000000
00001000
00000000
;

//--------------- dance-double - M. Emirzian ----------------
#NOTES:
     dance-double:
     M. Emirzian:
     Hard:
     8:
     0.491918,0.436953,0.404119,0.109449,0.050515,409,361,48,13,0,0,0.491918,0.436953,0.404119,0.109449,0.050515,409,361,48,13,0,0:
00000000
00000000
00000000
00000000
,
00000000
00000000
00000000
00000000
,
10010000
00000000
00011000
00000000
,
00001001
00000000
00000110
00000000
00000001
00000100
00000010
00001000
,
00000100
00000000
00000010
00000000
00000100
00000000
00010000
00000000
00001000
00000000
00000000
01000000
00000000
00000000
01100000
00000000
,
00000000
00000000
00010000
00000000
01000000
00000000
00100000
00000000
10000000
00000000
00000000
00010000
00000000
00000000
00101000
00000000
,
00000000
00000000
01000000
00000000
00001000
00000000
00010000
00000000
00000010
00000000
00000000
00001000
00000000
00000000
00010010
00000000
,
00000000
00000000
00000100
00000000
00001000
00000000
00000001
00000000
00000100
00000000
00000000
00000010
00000000
00000000
00010010
00000000
,
00000000
00000000
00010000
00000000
00001000
00000000
00100000
00000000
00010000
00000000
00000000
01000000
00000000
00000000
01001000
00000000
,
00000000
00000000
00010000
00000000
01000000
00000000
00100000
00000000
10000000
00000000
00000000
01000000
00000000
00000000
00110000
00000000
,
00000000
00000000
01000000
00000000
00001000
00000000
00010000
00000000
00000010
00000000
00000000
00001000
00000000
00000000
00010010
00000000
,
00000000
00000000
00001000
00000000
00010000
00000000
00000100
00000000
00010000
00000000
00000000
00001000
00000000
00000000
00000010
00000000
,
00000001
00000100
00000010
00000100
00000001
00000100
00001000
00000000
,
00010000
00001000
01000000
00100000
01000000
00001000
00100000
00000000
,
00010000
01000000
00100000
10000000
01000000
00100000
00001000
00000000
,
01000000
00001000
00010000
00000010
00001000
00000100
00000010
00000000
,
00000001
00000100
00000010
00000100
00000001
00000010
00000100
00000000
,
00010000
00000010
00010000
00001000
01000000
00100000
10000000
00000000
,
00100000
01000000
00010000
10000000
01000000
00100000
00001000
00000000
,
01000000
00001000
00010000
00000100
00001000
00000010
00000100
00000000
,
00000001
00000000
00000011
00000000
00000100
00000010
00001000
00000100
,
00010000
00011000
01001000
00011000
,
00001000
00000000
01000000
00000000
00100000
10000000
01000000
00100000
,
00001000
01000000
00010000
00100000
00001000
00010000
00000100
00000000
,
00000010
00000000
00000011
00000000
00000100
00000010
00010000
00000100
,
00001000
00001001
00000110
00001001
,
00000010
00000000
00010000
00000000
00001000
00100000
00001000
01000000
,
00010000
00100000
01000000
10000000
00010000
01000000
00100000
00000000
,
01000000
00120000
01030000
00012000
,
01003000
00000000
00102000
00000000
01003000
00010000
00100000
00000000
,
00010000
01000000
00001000
00010000
00000010
00000000
00001010
00000000
,
00001001
00000000
00000100
00000000
00001000
00000010
00000100
00000000
,
00000010
00001200
00000310
00021000
,
00030010
00000000
00012000
00000000
00003010
00001000
00010000
00000000
,
00100000
01000000
00010000
00100000
01000000
00000000
00101000
00000000
,
00011000
00000000
00001000
00000000
00000010
00000100
00001000
00000001
,
00001002
00000000
00000000
00000000
,
00000013
00000100
00001000
00000010
00010000
00000100
00001000
00000000
,
00000010
00010000
00001000
01000000
00100000
10000000
00010000
00000000
,
10000000
01000000
00100000
00001000
00010000
00000010
00010000
00000000
,
00001000
00010000
00000100
00010000
00000010
00001000
00000100
00000000
,
00000010
00000001
00000100
00000010
00000100
00000001
00000010
00000000
,
00001000
00010000
00000100
00010000
00001000
01000000
00100000
00000000
,
01000000
00001000
00100000
00010000
01000000
00100000
10000000
00000000
,
01000000
00100000
00001000
00010000
00000010
00001000
00000100
00000000
,
00000010
00000000
00000011
00000000
00000100
00000010
00010000
00001000
,
00100000
01001000
00011000
01001000
,
00010000
00000000
01000000
00000000
00100000
10000000
00010000
00100000
,
01000000
00100000
00001000
00010000
00001000
01000000
00010000
00000000
,
10000000
00000000
00011000
00000000
00000100
00001000
00000010
00000100
,
00000001
00000011
00000101
00000011
,
00000100
00000000
00010000
00000000
00001000
00100000
00001000
01000000
,
00010000
10000000
01000000
00100000
00010000
01000000
00100000
00000000
,
00100000
01020000
00130000
00012000
,
00103000
00000000
01002000
00000000
00103000
00001000
00010000
00000000
,
00000010
00000100
00000001
00000100
00000010
00000000
00001010
00000000
,
00001100
00000000
00000001
00000000
00000010
00000100
00010000
00000000
,
00001000
00010200
00001300
00020010
,
00031000
00000000
00010200
00000000
00001300
00000100
00010000
00000000
,
00001000
00100000
00001000
00010000
01000000
00000000
11000000
00000000
,
00110000
00000000
10000000
00000000
00100000
00010000
00001000
01000000
,
00100000
00000000
00000000
00000000
01000000
00000000
00000000
00000000
00100000
00000000
00000000
10000000
00000000
00000000
01000000
00000000
,
00000000
00000000
00000000
00000000
10000000
00000000
00000000
00000000
01000000
00000000
00000000
00010000
00000000
00000000
00001000
00000000
,
00000000
00000000
00000000
00000000
00010000
00000000
00000000
00000000
00001000
00000000
00000000
00000100
00000000
00000000
00000001
00000000
,
00000000
00000000
00000000
00000000
00000010
00000000
00000000
00000000
00000100
00000000
00000000
00001000
00000000
00000000
00000001
00000000
;

//--------------- dance-double - M. Emirzian ----------------
#NOTES:
     dance-double:
     M. Emirzian:
     Challenge:
     9:
     0.619408,0.546192,0.48831,0.008419,0.126287,515,457,58,1,1,0,0.619408,0.546192,0.48831,0.008419,0.126287,515,457,58,1,1,0:
00000000
00000000
00000000
00000000
,
00000000
00000000
00000000
00000000
,
00101000
00011000
00010010
00011000
,
01001000
00000000
00000000
00000000
00010010
00000000
00000000
00000000
00000100
00000001
00000000
00000010
00000100
00000000
00010000
00000000
,
00011000
00000000
00001000
00000000
01000000
00000000
00100000
00000000
00010000
00000000
00001000
01000000
00000000
00100000
10000000
00000000
,
01000000
00000000
00010000
00000000
00001000
00000000
00000010
00000000
00000100
00000000
00010000
00000100
00000000
00001000
00000010
00000000
,
00000100
00000000
00000001
00000000
00000010
00000000
00000100
00000000
00000010
00000000
00000001
00000100
00000000
00000010
00010000
00000000
,
00001000
00000000
01000000
00000000
00100000
00000000
10000000
00000000
01000000
00000000
00100000
00001000
00000000
00010000
00000010
00000000
,
00001000
00000000
00000100
00000000
00010000
00000000
00000100
00000000
00000010
00000000
00000001
00000100
00000000
00000010
00010000
00000000
,
00001000
00000000
00100000
00000000
00001000
00000000
00010000
00000000
01000000
00000000
10000000
00100000
00000000
01000000
00001000
00000000
,
00010000
00000000
00100000
00000000
01000000
00000000
00001000
00000000
00100000
00000000
00010000
10000000
00000000
01000000
00100000
00000000
,
00001000
00000000
00010000
00000000
00000010
00000000
00010000
00000000
00001000
00000000
00000010
00000001
00000000
00000100
00000010
00000000
,
00001000
00000100
00000010
00000100
00010000
00001000
01000000
00001000
,
00100000
01000000
00100000
00001000
00010000
00100000
10000000
00100000
,
01000000
00010000
00100000
01000000
00010000
00001000
00000100
00000010
,
00000100
00000001
00000010
00000100
00010000
00001000
00010000
00000010
,
00010000
00001000
00100000
01000000
00100000
00001000
01000000
00100000
,
01000000
00001000
00000010
00000100
00010000
00000100
00000010
00001000
,
00010000
00100000
01000000
00001000
01000000
00100000
10000000
01000000
,
00100000
00001000
00010000
00001000
00010100
00000110
00001001
00000000
,
00000100
00001000
00010000
00100000
01000000
00100000
00010000
00001000
,
00011000
00000000
01001000
00000000
01100000
10000000
01000000
00100000
,
01000000
10000000
00100000
00010000
00001000
01000000
00001000
00010000
,
00000010
00000000
00001001
00000000
00000110
00000010
00000100
00001000
,
00000010
00000100
00001000
00000100
00001000
00010000
00001000
00010000
,
00110000
00000000
01001000
00000000
00010100
00001000
00000010
00000100
,
00000010
00001000
00000100
00000010
00000100
00010000
00000010
00001000
,
00000001
00000000
00011000
00000000
10010000
01000000
00100000
00000000
,
00010000
00000000
01000000
00000000
10000000
00000000
01000000
00000000
00010000
01000000
00010000
00000000
10000000
00000000
00010000
00000000
,
00100000
00001000
00100000
00000000
00001000
00000000
00010000
00000000
00000100
00000000
00001000
00000000
00000010
00000000
00000100
00000000
,
00000101
00001100
00010100
00101000
,
01001000
00000000
00010000
01000000
00100000
10000000
01000000
00000000
,
10000000
00000000
01000000
00000000
00010000
00000000
01000000
00000000
10000000
01000000
10000000
00000000
01000000
00000000
00100000
00000000
,
00001000
00010000
00001000
00000000
00000100
00000000
00000010
00000000
00000100
00000000
00001000
00000000
00000010
00000000
00000100
00000000
,
00001010
00011000
00101000
01100000
,
10010000
00000000
00100000
00000000
00001000
00010000
00000010
00010010
,
00021000
00000000
00000000
0000M000
,
00031000
00000010
00000001
00000010
00000100
00001000
00000010
00000100
,
00001000
00010000
00000100
00010000
00001000
01000000
00100000
01000000
,
00001000
00010000
01000000
10000000
00100000
01000000
00001000
00010000
,
00000010
00001000
00000001
00000010
00000100
00000010
00000001
00000100
,
00000010
00010000
00001000
00100000
01000000
10000000
01000000
00100000
,
00001000
00000100
00000010
00010000
00000010
00000100
00000001
00000100
,
00000010
00010000
01000000
00100000
00001000
00100000
01000000
10000000
,
01000000
00100000
00001000
00010000
00101000
00011000
01001000
00000000
,
01000000
00010000
00100000
00001000
00010000
00001000
00000100
00001000
,
00011000
00000000
01001000
00000000
00110000
01000000
00100000
01000000
,
10000000
00100000
01000000
00001000
00010000
00000010
00000100
00000010
,
00001010
00000000
00010100
00000000
01001000
01000000
00001000
00100000
,
00010000
00100000
00001000
00000010
00000100
00001000
00000010
00000100
,
00000101
00000000
00010100
00000000
00101000
00100000
00010000
10000000
,
01000000
00100000
00010000
01000000
00001000
00010000
00000100
00001000
,
00001010
00000000
00010100
00000000
00101000
00010000
00000010
00000000
,
00010000
00000000
00001000
00000000
01000000
00000000
00001000
00000000
00010000
00001000
00010000
00000000
01000000
00000000
10000000
00000000
,
01000000
00100000
01000000
00000000
00100000
00000000
00001000
00000000
00010000
00000000
00000100
00000000
00000010
00000000
00000100
00000000
,
00001100
00011000
01001000
00110000
,
00101000
00000000
01000000
10000000
00100000
01000000
00001000
00000000
,
00100000
00000000
01000000
00000000
00100000
00000000
00001000
00000000
01000000
00100000
01000000
00000000
00001000
00000000
00010000
00000000
,
00001000
00010000
00001000
00000000
00000100
00000000
00000001
00000000
00000010
00000000
00000100
00000000
00001000
00000000
00000010
00000000
,
00000101
00001100
00010010
00011000
,
00010100
00000000
00001000
01000000
00100000
10000000
01000000
00110000
,
00000000
00000000
00100000
00000000
00010000
00000000
01000000
00000000
00100000
00000000
00000000
00010000
00000000
00000000
00001000
00000000
,
00000000
00000000
00010000
00000000
01000000
00000000
00010000
00000000
00001000
00000000
00000000
00000100
00000000
00000000
00000001
00000000
,
00000000
00000000
00000010
00000000
00000100
00000000
00010000
00000000
00001000
00000000
00000000
01000000
00000000
00000000
00000100
00000000
,
00000000
00000000
00010000
00000000
00100000
00000000
10000000
00000000
01000000
00000000
00000000
00010000
00000000
00000000
00001000
00000000
;

//--------------- lights-cabinet - ----------------
#NOTES:
     lights-cabinet:
     :
     Easy:
     1:
     0.56769,0.720994,0.926105,0.075772,0.079982,472,344,110,9,0,15,0.56769,0.720994,0.926105,0.075772,0.079982,472,344,110,9,0,15:
000000
000000
000000
000000
,
110000
000000
001100
000000
,
110000
001100
110000
001100
,
110000
000000
011000
000000
,
111100
011000
111100
111100
,
100100
000000
000000
000000
100100
000000
000000
000000
011000
000000
000000
011000
000000
000000
011000
000000
,
100100
000000
000000
000000
011000
000000
000000
000000
100100
000000
000000
100100
000000
000000
100100
000000
,
011000
000000
000000
000000
011000
000000
000000
000000
100100
000000
000000
100100
000000
000000
100100
000000
,
011000
000000
000000
000000
011000
000000
000000
000000
011000
000000
000000
011000
000000
000000
011000
000000
,
100100
000000
100100
000000
100100
000000
000000
000000
001000
000000
000000
001000
000000
000000
001000
000000
,
010000
000000
001000
000000
010000
000000
000000
000000
000100
000000
000000
000100
000000
000000
000100
000000
,
001000
000000
000100
000000
100000
000000
000000
000000
000100
000000
000000
000100
000000
000000
000100
000000
,
010000
001000
010000
000000
111100
000000
111100
000000
,
100100
001000
010000
000000
000100
010000
010000
000000
,
001000
100000
000100
100000
001000
010000
010000
000000
,
000100
001000
000100
000000
100000
010000
100000
000000
,
000100
010000
001000
100000
000100
100000
100000
000000
,
001000
010000
000100
000000
010000
001000
100000
000000
,
000100
010000
001000
010000
001000
100100
100100
000000
,
000100
010000
001000
100000
,
000100
010000
001000
100000
011000
000000
010100
000000
,
100000
000000
000000
000000
000100
000000
000000
100000
000100
000000
010000
000000
000100
000000
100000
000000
,
001000
010000
000100
110000
,
100100
000000
100100
000000
100000
001000
100000
000200
,
000000
000000
100300
000000
001000
100000
001100
000000
,
100000
000000
000000
000000
000100
000000
000000
100000
000100
000000
010000
000000
000100
000000
100000
000000
,
001000
010000
000100
110000
,
100100
000000
100100
000000
011000
011000
100100
000000
,
100100
000000
100100
000000
010000
001000
110000
000000
,
001000
100000
110000
000000
001000
000100
001100
000000
,
010000
000000
001000
000000
100000
000100
001100
000000
,
010000
000100
010000
000100
100000
001000
100000
000100
,
200000
000000
011000
000000
300100
010000
001000
000000
,
001000
100000
110000
000000
001000
000100
001100
000000
,
010000
000000
001000
000000
100000
000100
001100
000000
,
100100
000000
000000
001100
000000
000000
011000
000000
101000
000000
000000
100100
000000
000000
022000
000000
,
000000
000000
100100
133100
,
111100
111100
000000
000000
,
000100
010000
000100
000000
010000
001000
100000
000000
,
010000
100000
010000
000000
100000
000100
000100
000000
,
010000
001000
010000
000000
000100
001000
000100
000000
,
100000
000000
001000
000000
100000
000100
000100
000000
,
100000
000000
001000
000000
100000
000100
010000
000000
,
001000
010000
000100
010000
000100
011000
011000
000000
,
100100
011000
011000
100100
,
100100
010000
001000
100000
011000
000000
010100
000000
,
100000
000000
000000
000000
000100
000000
000000
100000
000100
000000
010000
000000
000100
000000
100000
000000
,
001000
010000
000100
110000
,
011000
000000
011000
000000
100100
011000
100100
200200
,
000000
000000
311300
000000
001000
100000
001100
000000
,
100000
000000
000000
000000
000100
000000
000000
100000
000100
000000
010000
000000
000100
000000
100000
000000
,
001000
010000
000100
110000
,
000100
000000
000100
000000
100000
001000
100000
000000
,
000100
000000
111100
000000
010000
001000
110000
000000
,
000100
010000
011000
000000
000100
100000
100100
000000
,
001000
000000
100000
000000
010000
100000
100100
000000
,
001000
100000
001000
100000
010000
100000
000100
100000
,
020000
000000
000000
000000
130000
001000
100000
000000
,
001000
010000
011000
000000
000100
100000
100100
000000
,
001000
000000
100000
000000
010000
100000
100100
000000
,
100100
000000
000000
011000
000000
000000
001100
000000
110000
000000
000000
100100
000000
000000
022000
000000
,
000000
000000
100100
133100
,
000000
000000
000100
000000
000100
000000
000100
000000
010000
000000
000000
010000
000000
000000
010000
000000
,
000000
000000
001000
000000
001000
000000
001000
000000
100000
000000
000000
100000
000000
000000
100000
000000
,
000000
000000
001000
000000
001000
000000
001000
000000
010000
000000
000000
010000
000000
000000
010000
000000
,
000000
000000
000100
000000
000100
000000
000100
000000
100100
000000
000000
011000
000000
000000
111100
000000
;
