#TITLE:Lady Marmalade (Thunderpuss Club Mix);
#SUBTITLE:;
#ARTIST:Christina Aguilera, Pink, Mya, Lil' Kim feat. Missy Elliott;
#TITLETRANSLIT:;
#SUBTITLETRANSLIT:;
#ARTISTTRANSLIT:;
#GENRE:Pop;
#CREDIT:;
#MUSIC:ladymarmalade.ogg;
#BANNER:ladymarmalade.png;
#BACKGROUND:ladymarmalade-bg.png;
#CDTITLE:;
#SAMPLESTART:0.000;
#SAMPLELENGTH:0.000;
#SELECTABLE:YES;
#OFFSET:-3.875;
#BPMS:0.000=129.990;
#STOPS:;
#BGCHANGES:;
#FGCHANGES:;

//--------------- dance-single - ----------------
#NOTES:
     dance-single:
     :
     Easy:
     5:
     0,0,0,0,0:
0010
1000
0100
0010
,
0010
0001
0010
0100
,
0110
0000
1001
0000
,
0010
0000
0100
0000
,
0002
0000
0010
0003
,
2000
0000
0100
3000
,
1000
1000
0001
0000
,
0001
0010
0100
0000
,
0010
0100
0110
0000
,
0100
0010
0110
0000
,
2002
0000
0000
3003
,
0220
0000
0000
0330
,
1000
1000
0001
0001
,
0010
1000
0100
0001
,
1000
1000
0001
0001
,
0100
0010
1000
0001
,
1000
0001
1000
0001
,
2002
0000
0000
3003
,
1000
0100
0010
0001
,
2002
0000
0000
0000
,
0000
0000
0000
3003
,
1000
1000
1000
1000
,
0001
0001
0001
0001
,
0100
0010
0100
0010
,
1000
0000
0001
0000
,
1000
0110
0001
0110
,
2000
0100
0001
3010
,
0010
1001
0100
1001
,
0002
0010
0100
1003
,
1000
1000
0001
0000
,
0001
0001
1000
0000
,
0100
1001
0110
1001
,
0220
0000
0000
0000
,
0000
0000
0000
0330
,
1000
0001
1000
0001
,
1000
0001
1000
0001
,
0100
0010
0100
0010
,
1000
0100
0010
0001
,
1000
0010
0100
0001
,
2000
3000
0002
0003
,
2000
3000
0002
0003
,
0220
0000
0000
0330
,
1000
1000
0010
0100
,
0001
0001
0010
0100
,
2000
0100
0100
3100
,
0020
0001
0001
0031
,
0110
0000
0100
0000
,
1001
0000
0100
0000
,
2002
0000
0000
3003
,
0100
0010
1000
0001
,
1010
0010
0011
0001
,
1000
0000
0001
0000
,
1100
0100
0101
0001
,
0010
0000
0100
0000
,
1000
1000
0001
0001
,
1000
1001
0001
1001
,
0100
0010
0100
0010
,
1001
0110
1001
0110
,
1100
0011
1100
0011
,
1010
0101
1010
0101
,
1001
0220
0000
0330
;

//--------------- dance-single - ----------------
#NOTES:
     dance-single:
     :
     Medium:
     10:
     0,0,0,0,0:
1000
1010
0100
0101
,
1000
1100
0010
0011
,
1000
0000
0010
0000
1000
0100
0010
0001
,
1000
0000
0001
0000
0100
0010
1000
0001
,
0100
0000
0001
0000
1000
0100
1000
0100
,
0010
0001
0010
0001
0100
0010
0100
0010
,
0200
0001
1000
0301
,
0020
1000
0001
0130
,
1000
0001
1000
0001
0000
0100
0010
0100
,
1010
1001
1100
1001
,
1000
0000
0010
0000
0100
0001
0010
0000
,
1000
0000
0001
0000
0100
0010
0100
0000
,
1000
0100
0001
0100
1000
0001
0000
0000
,
2000
0010
0001
3010
,
1000
0010
0001
1000
0010
0001
0000
0000
,
0200
0010
0001
0310
,
1000
0010
0100
1000
0001
1000
0000
0000
,
0002
0100
0010
0103
,
1000
0100
1000
0100
1000
0000
0001
0100
,
0000
0000
0000
0100
1001
0000
0000
0010
,
1001
0000
0000
1000
1001
0000
0010
0000
,
1000
0010
1000
0001
1000
0010
1000
0001
,
2000
0100
0001
3100
,
1000
0100
0010
0001
1000
0010
0100
0001
,
2000
0010
0001
3010
,
1001
0000
0100
0010
1001
0000
0010
0100
,
0000
1000
0100
1000
0000
0001
0100
0001
,
0110
0000
1000
0001
0110
0000
0001
1000
,
0000
0010
1000
0010
0000
0100
0001
0100
,
0010
1000
0010
1000
0001
1000
0000
0000
,
1000
0100
0001
0100
1000
0001
0100
0000
,
0001
0010
0100
1000
0001
0000
0000
0220
,
0000
0000
0000
0000
,
0000
0000
0000
0330
,
1000
0000
0010
0100
0001
0000
0010
0100
,
1000
0000
0001
1000
0010
0000
0100
0000
,
1001
0000
0010
0100
0010
0000
0001
1000
,
0001
0000
1000
0010
0100
0000
0001
0000
,
0110
0000
1000
0100
0001
0000
0001
0100
,
1000
0000
0010
0100
0001
0000
0100
0000
,
1010
0011
0101
1100
,
1000
0100
1000
0001
0100
0001
1000
0100
,
0020
0001
1000
0031
,
0200
0010
0001
0310
,
0010
0100
0001
1000
0000
0100
0010
0001
,
0000
1010
0101
1010
,
1000
0010
0100
0000
0100
0010
1000
0000
,
0001
0010
1000
0000
0001
0010
1000
0000
,
1000
0100
0010
0000
0100
0010
0001
0000
,
1000
0100
0001
0100
1000
0010
0001
0010
,
1000
0010
1000
0010
1000
1000
0000
0000
,
0220
0000
0000
0330
,
0001
0010
0100
1000
0001
0010
0000
0000
,
2002
0000
0000
3003
,
0100
1001
0100
1001
,
0100
0000
0010
0000
,
1000
0100
0010
0001
,
1000
0100
0010
0001
1000
0010
0100
0001
,
0010
0100
1000
0001
0100
0010
1000
0100
,
0010
0001
0001
0100
0001
0010
0100
1000
,
1010
0202
0000
0303
;

//--------------- dance-single - ----------------
#NOTES:
     dance-single:
     :
     Hard:
     12:
     0,0,0,0,0:
1000
0000
0000
0010
0100
0000
0010
0000
0100
0000
0000
0001
0100
0000
0010
0000
,
1000
0000
0000
0100
0010
0000
0100
0000
1000
0000
0000
0001
0100
0000
0010
0000
,
1001
0000
0010
0000
1000
0000
0001
0000
1000
0010
0000
1000
0010
0000
0100
0000
,
0001
0000
0010
0000
0100
0000
1000
0000
0010
0100
0000
0100
0010
0000
1000
0000
,
0010
0001
0010
1000
0100
0001
0100
1000
,
0001
0010
0100
1000
0010
0100
0001
1000
,
0100
0010
0001
0002
0000
1003
0010
0020
,
0000
0000
0130
0000
0001
0000
1000
0010
0100
0000
0000
0000
0100
0000
0000
0000
,
1000
0010
1000
0020
0000
0130
0001
1000
,
0000
0100
0010
0000
0000
0000
1000
0000
0100
0000
0001
0000
0100
0000
1000
0010
,
0000
0000
1000
0020
0000
0000
0130
0000
0001
0000
0000
0000
0000
1000
0100
0010
,
0001
0010
0100
2000
0000
0000
3100
0000
0000
0000
0010
0000
0100
0000
0010
0000
,
1000
0101
0010
1100
1000
0001
0000
2000
,
0000
3001
0000
1000
0010
0100
0010
1000
,
0001
0110
1000
0110
0010
0100
0000
0200
,
0000
0000
0000
0310
1000
0000
0100
0000
0010
0000
0001
0000
0010
0000
0100
0000
,
1000
1100
0100
0101
0001
0100
0000
0002
,
0000
1003
0000
0010
1000
0001
1000
0010
,
2000
3001
0020
0130
1000
0000
0001
0200
,
0000
0000
0000
0001
0010
0000
0000
0010
,
1000
0000
0000
1000
0001
0000
0310
0000
,
1000
1000
0010
0100
0001
0010
0100
0100
,
1001
0000
0100
1001
0000
1100
0001
1000
,
0010
0100
0010
0100
0001
1000
0001
1000
,
0010
0000
0100
0001
1000
0000
0010
0001
0100
0000
0010
0100
1000
0000
1000
0000
,
2000
0000
0010
3001
0020
0000
1030
0001
,
0000
0000
0100
0001
0100
0000
0010
0000
2000
0000
0000
0000
3010
0000
0100
0000
,
0002
0000
0010
1003
0020
0000
0130
0001
,
0000
0000
1000
0010
1000
0000
0001
0000
0020
0000
0000
0000
0130
0000
1000
0000
,
1000
0010
1000
0010
0100
0200
0000
0000
,
0301
1000
0001
1000
0010
1000
0001
0000
,
1000
0010
0100
0001
0010
0100
0000
2000
,
0000
0000
0000
0100
0010
0000
0000
0010
,
0001
0000
0000
0001
0100
0000
3100
0000
,
1001
0000
0000
0100
0010
0100
1001
0000
0000
1000
0010
1000
,
1001
0000
0000
1000
0100
0010
0001
1000
0010
0100
0001
0100
,
1010
0000
0000
0100
1000
0001
1010
0000
0000
0100
0001
1000
,
1010
0000
0000
1000
0100
0001
0100
1000
0010
0100
0001
1000
,
0101
0000
0000
0010
1000
0001
0101
0000
0000
0001
1000
0010
,
0101
0000
0000
0010
0100
0010
0100
0000
0000
1001
0000
0000
,
1010
0011
0101
1100
,
2002
0000
0000
0000
0000
0000
0000
3003
,
1000
0010
1000
0010
0100
0001
0100
0001
,
1000
0010
0100
0001
0100
0010
1000
0000
,
1000
0001
1000
0010
0000
0100
0001
0100
,
0000
1010
1001
1010
,
1000
0001
0100
0000
0001
1000
0010
0000
,
1000
0010
0001
0010
1000
0100
0001
0100
,
2002
0000
3003
0000
0010
0000
2002
0000
0000
0000
3003
0010
1000
0000
0001
0000
,
1000
0010
1000
0010
1000
0010
1000
0010
,
0101
1001
0101
1001
0010
0100
0000
0002
,
0000
1003
0000
0010
1000
0010
1000
0001
,
1010
1001
1010
1001
0100
0020
0000
0000
,
1000
1000
0100
0100
1000
1000
0100
0130
,
0110
0101
0110
0101
1000
0010
0000
2000
,
0000
3001
0000
1000
0100
0001
0100
1000
,
0010
0100
0001
1000
0010
0000
0100
0010
,
1000
1010
0100
0101
0010
0110
0001
1001
,
0010
0101
0100
1010
0100
1100
0010
0011
,
0100
1001
0010
1001
1000
0110
0001
0110
,
0110
1001
0200
0300
;
