#TITLE:Kiss Me Red;
#SUBTITLE:;
#ARTIST:Crispy;
#TITLETRANSLIT:;
#SUBTITLETRANSLIT:;
#ARTISTTRANSLIT:;
#GENRE:;
#CREDIT:;
#MUSIC:Kiss Me Red.ogg;
#BANNER:Kiss Me Red.png;
#BACKGROUND:Kiss Me Red-bg.png;
#CDTITLE:;
#SAMPLESTART:15.700;
#SAMPLELENGTH:14.020;
#SELECTABLE:YES;
#OFFSET:0.002;
#BPMS:0.000=137.512;
#STOPS:;
#BGCHANGES:;
#FGCHANGES:;

//--------------- dance-single - M. Puls ----------------
#NOTES:
     dance-single:
     M. Puls:
     Beginner:
     1:
     0.079,0.113,0.055,0,0:
0000
0000
0000
0000
,
0000
0000
0000
0000
,
0000
0000
0000
0000
,
0000
0000
0000
0000
,
1000
0000
0000
0000
,
1000
0000
0000
0000
,
0001
0000
0000
0000
,
0001
0000
0000
0000
,
0000
0000
0000
0000
,
1000
0000
0000
0000
,
0100
0000
0000
0000
,
0100
0000
0000
0000
,
0010
0000
0000
0000
,
0001
0000
0000
0000
,
0010
0000
0000
0000
,
0010
0000
0000
0000
,
0100
0000
0000
0000
,
0100
0000
0000
0000
,
0100
0000
0000
0000
,
0010
0000
0000
0000
,
0010
0000
0000
0000
,
0010
0000
0000
0000
,
0010
0000
0000
0000
,
0100
0000
0000
0000
,
0100
0000
0000
0000
,
1001
0000
0000
0000
,
1000
0000
0000
0000
,
0001
0000
0000
0000
,
1000
0000
0000
0000
,
1001
0000
0000
0000
,
0100
0000
0000
0000
,
0010
0000
0000
0000
,
0100
0000
0000
0000
,
1001
0000
0000
0000
,
0000
0000
0000
0000
,
1000
0000
1000
0000
,
0000
0000
0000
0000
,
0001
0000
0001
0000
,
0000
0000
0000
0000
,
1000
0000
0000
0000
,
0001
0000
0000
0000
,
1000
0000
0000
0000
,
1000
0000
0000
0000
,
0100
0000
0000
0000
,
0100
0000
0000
0000
,
0001
0000
0000
0000
,
0001
0000
0000
0000
,
0010
0000
0000
0000
,
0010
0000
0000
0000
,
1001
0000
0000
0000
,
0000
0000
0000
0000
,
1001
0000
0000
0000
,
0000
0000
0000
0000
,
1001
0000
0000
0000
,
0100
0000
0000
0000
,
0001
0000
0000
0000
,
0010
0000
0000
0000
,
1000
0000
0000
0000
,
0100
0000
0000
0000
,
0010
0000
0000
0000
,
0001
0000
0000
0000
,
1000
0000
0000
0000
;

//--------------- dance-single - M. Puls ----------------
#NOTES:
     dance-single:
     M. Puls:
     Easy:
     3:
     0.15,0.197,0,0,0:
0000
0000
0000
0000
,
0000
0000
0000
0000
,
0000
0000
0000
0000
,
0000
0000
0000
0000
,
1000
0000
0010
0000
,
1000
0000
0100
0000
,
1000
0000
0010
0000
,
1000
0000
0001
0000
,
0000
0000
0000
0000
,
1000
0000
0001
0000
,
1000
0000
0010
0000
,
1000
0000
0000
0000
,
1000
0000
0001
0001
,
0001
0000
1000
0000
,
0010
0000
1000
0000
,
1000
1000
1000
0000
,
0001
0000
0100
0000
,
0000
0001
0000
0000
,
0000
0001
0000
0000
,
0000
0100
0000
0000
,
0000
0010
0000
0000
,
0000
1000
0001
0000
,
0000
0100
0010
0000
,
0000
1000
0001
0000
,
0100
0000
0000
0000
,
0001
0000
0000
0000
,
1000
0000
0001
0001
,
0001
0000
0000
0000
,
0100
0000
0001
0001
,
0001
0000
1000
0000
,
1000
0000
0100
0000
,
1000
0000
1000
0000
,
0000
0000
0010
0000
,
0000
0000
0001
0000
,
0000
0000
0100
0000
,
0001
0001
1000
1000
,
0010
0010
0000
0000
,
1000
1000
0010
0010
,
0100
0100
0000
0000
,
0001
0000
1000
0000
,
0001
0000
0000
0000
,
1000
0000
0001
0000
,
1000
0000
0010
0000
,
1000
0000
0000
0000
,
1000
0000
0001
0001
,
0001
0000
1000
0000
,
0001
0000
1000
1000
,
1000
0000
0001
0000
,
0010
0001
0010
0001
,
0000
1000
0000
0000
,
0000
0001
0000
0000
,
0000
0100
0000
0000
,
0000
0010
0000
0000
,
0000
1000
0001
0000
,
0000
0100
0010
0000
,
0000
1000
0001
0100
,
0010
0010
0010
0000
,
1000
1000
0100
0000
,
0001
0001
0010
0000
,
1000
0000
0001
0000
,
1000
0001
0010
0001
,
1000
0000
0000
0000
;

//--------------- dance-single - M. Puls ----------------
#NOTES:
     dance-single:
     M. Puls:
     Medium:
     8:
     0.408,0.424,0.212,0.194,0:
0000
0000
0000
0000
,
0000
0000
0000
0000
,
0000
0000
0000
0000
,
0000
0000
0000
0000
,
1000
0001
0100
0000
,
0001
1000
0010
0000
,
2000
0000
0000
0000
3001
0100
0002
0000
,
0100
0100
0103
0000
,
0000
0000
0220
0330
,
0001
0000
0000
1000
1000
0000
0000
0000
,
0100
0000
0010
0000
0001
0010
0001
0000
,
1000
0000
1000
0001
0100
0000
0010
0000
,
1000
1000
0001
0000
0100
0010
0000
0000
,
1100
0000
0000
0011
0011
0000
0000
0000
,
1000
0001
0100
0010
1000
0000
0001
0000
,
1000
1000
0001
0010
0001
1000
0100
1000
,
0002
2003
3020
0230
,
0301
1000
0100
0001
,
0100
1000
0101
0101
,
1000
0100
1000
0000
0001
0000
1000
0000
,
0100
0000
0001
0000
1000
0001
1000
1000
,
1000
0001
0010
1000
,
0010
0001
1010
1010
,
0001
0010
0001
0000
1000
0000
0001
0000
,
0010
0000
1000
0000
0001
1000
0001
0001
,
1000
0000
0110
0000
0001
0000
0010
0001
,
0010
0000
0100
1000
0100
0000
1000
0000
,
0002
1000
0003
1000
0100
0010
0000
0001
,
0000
0001
0001
0001
0000
1000
0100
0000
,
0001
0000
0110
0000
1000
0000
0100
1000
,
0100
0000
0010
0001
0010
0000
0001
0000
,
2000
0001
3000
0001
0010
0100
0000
1000
,
0000
1000
1000
1000
0000
0001
0010
0000
,
1000
0000
0001
0000
1000
0000
0001
0100
,
0000
0010
0000
1001
0000
0000
0000
0001
,
0001
1000
0100
0000
0001
0000
1000
0010
,
0020
0000
0030
0000
,
0001
0000
1000
0000
0001
0000
1000
0010
,
0000
0100
0000
1001
0000
0000
0000
1000
,
1000
0001
0010
0000
1000
0000
0001
0100
,
0100
0000
0001
1000
0100
0000
0011
0000
,
1000
0000
0000
0001
0001
0000
0000
0000
,
0010
0000
0100
0000
1000
0100
1000
0000
,
0001
0000
0001
1000
0010
0000
0100
0000
,
0001
0001
1000
0000
0010
0100
0000
0000
,
0011
0000
0000
1100
1100
0000
0000
0000
,
0001
1000
0010
0100
0001
0000
1000
0000
,
0001
0001
1000
0100
1000
0001
0010
0001
,
2000
3002
0203
0320
,
1030
0001
0010
1000
,
0010
0001
1010
1010
,
0001
0010
0001
0000
1000
0000
0001
0000
,
0010
0000
1000
0000
0001
1000
0001
0001
,
0001
1000
0100
0001
,
0100
1000
0101
0101
,
1000
0100
1000
0000
0001
0000
1000
0000
,
0100
0000
0001
0000
1000
0001
0100
0000
,
0110
0000
0000
1001
1001
0000
1000
0100
,
1000
0000
0010
0000
0001
0010
0001
1000
,
1000
0001
0001
1000
0200
0000
0320
0000
,
0032
2003
3002
0203
,
0310
1000
0000
0000
;

//--------------- dance-single - M. Puls ----------------
#NOTES:
     dance-single:
     M. Puls:
     Hard:
     10:
     0.476,0.452,0.24,0.249,0.046:
0000
0000
0000
0000
,
0000
0000
0000
0000
,
0000
0000
0000
0000
,
0000
0000
0000
0000
,
1000
0001
0100
0000
0001
0000
0001
0000
,
0001
1000
0100
0000
1000
0000
1000
0000
,
1000
0002
0000
0003
1000
1000
0001
0200
,
0000
0310
1001
2002
,
3003
0000
0000
0000
,
1001
0000
0000
1000
0010
0000
1100
0000
,
1000
0100
0010
0100
0010
0001
0001
0000
,
0010
0000
0100
0001
2000
0000
3010
0000
,
1000
1000
0020
0000
1030
0001
0000
0000
,
1000
0000
0001
0010
0001
0000
0000
0000
,
0001
0000
1000
0000
0010
0100
0001
0000
,
1000
0100
0010
0000
0100
0000
0010
0000
,
1001
1001
0110
1001
,
1000
0000
0001
0000
0100
0000
0000
0000
1000
0000
0000
0001
0000
0000
0100
0000
,
0001
0000
0000
0000
1000
0000
0001
0000
1000
0000
0000
0010
0000
0000
1000
0000
,
0001
0100
0001
1000
0001
1000
0000
0100
,
0001
0000
1000
0001
0100
0010
0100
0010
,
0001
0000
1000
0000
0010
0000
0000
0000
0001
0000
0000
1000
0000
0000
0010
0000
,
1000
0000
0000
0000
0001
0000
1000
0000
0001
0000
0000
0100
0000
0000
0001
0000
,
1000
0010
1000
0001
1000
0001
0000
0010
,
1000
0000
0001
1000
0010
0100
0010
0100
,
1000
1100
0001
0011
,
1000
0000
1100
0000
1000
0001
0010
0000
,
2000
0000
3001
0100
0010
1000
0020
0000
,
1030
0100
1000
0000
0001
0000
0002
0000
,
1003
0011
1000
1100
,
0001
0000
0011
0000
0001
1000
0100
0000
,
0002
0000
1003
0010
0100
0001
0200
0000
,
0301
0010
0001
0000
1000
0000
2000
0000
,
3002
0100
0203
0001
,
0301
0010
0002
0000
1003
0010
0100
0000
,
1010
0000
0001
0010
0001
1000
0001
1000
,
2000
3000
0000
0000
,
0001
1100
0001
0011
,
1000
0000
1100
0000
1000
0001
0010
0000
,
2000
0000
3001
0100
0010
1000
0020
0000
,
1030
0100
0010
0001
0010
0100
1001
0000
,
1001
0000
0000
0001
0100
0000
0011
0000
,
0001
0010
0100
0010
0100
1000
1000
0000
,
0100
0000
0010
1000
0002
0000
0103
0000
,
0001
0001
0200
0000
0301
1000
0000
0000
,
0001
0000
1000
0100
1000
0000
0000
0000
,
1000
0000
0001
0000
0100
0010
1000
0000
,
0001
0010
0100
0000
0010
0000
0100
0000
,
1001
1001
0110
1001
,
1000
0000
0001
0000
0100
0000
0000
0000
1000
0000
0000
0001
0100
0000
0001
0000
,
0001
0000
0001
0000
1000
0000
0001
0000
1000
0000
0000
0010
0000
0000
1000
0000
,
0001
0000
0100
0000
0001
0000
2000
0000
0001
0000
0000
0001
3000
0000
0100
0000
,
0001
0000
1000
0001
0100
0010
0100
0010
,
1000
0000
0001
0000
0010
0000
0000
0000
0001
0000
0000
1000
0010
0000
1000
0000
,
1000
0000
1000
0000
0001
0000
1000
0000
0001
0000
0000
0100
0000
0000
0001
0000
,
1000
0000
0010
0000
1000
0000
0002
0000
1000
0000
0000
1000
0003
0000
0010
0000
,
1000
0000
0001
1000
0010
0100
0010
0100
,
1000
0000
0001
1000
0100
0000
0000
0000
,
0100
0010
0010
0100
1000
0100
0200
0000
,
1300
0000
0001
1000
0010
1000
0100
0000
,
0200
2300
3002
0103
,
0120
0031
0000
0000
;

//--------------- dance-single - M. Puls ----------------
#NOTES:
     dance-single:
     M. Puls:
     Challenge:
     13:
     0.607,0.593,0.323,0.138,0.355:
0000
0000
0000
0000
,
0000
0000
0000
0000
,
0000
0000
0000
0000
,
0000
0000
0000
0000
,
1100
0010
1000
0000
0110
0000
0000
0000
,
0011
0100
0001
0000
0110
0000
1001
0000
,
0100
0000
0001
1000
0010
0100
0001
1000
,
0100
0010
0100
0001
,
1000
0000
0200
0310
,
1000
0000
0000
0000
0000
0000
0001
0000
0010
0000
1000
0100
1000
0000
0000
0000
,
1000
0000
0001
0000
0010
0000
0001
0000
0100
0001
1000
0000
0100
0000
0000
0000
,
0001
0000
0100
0000
0010
0000
1000
0010
0100
0000
0200
0000
0001
0000
0001
0000
,
0310
1000
0010
1000
1000
0100
0011
0000
,
0001
0000
0000
0000
0000
0000
1000
0000
0100
0000
0001
0010
0001
0000
0000
0000
,
0001
0000
1000
0000
0100
0000
1000
0000
0010
1000
0001
0000
0010
0000
0000
0000
,
1000
0000
0010
0000
0100
0000
0001
0100
0010
0000
0020
0000
1000
0000
1000
0000
,
0130
0011
1100
0011
,
0001
0010
0100
0000
1000
0000
0000
0000
1000
0000
0000
0010
0000
0000
1000
0001
,
1000
0100
0010
0000
0001
0000
0000
0000
0001
0000
0000
0100
0000
0000
0001
1000
,
0001
0010
0100
0000
1000
0000
0100
0000
1000
0000
0000
0010
0000
0000
1000
0001
,
1000
0100
0010
0000
0002
0000
0000
0000
1003
0000
1000
0000
0010
0000
1000
0000
,
1000
0100
0010
0000
0001
0000
0000
0000
0001
0000
0000
0100
0000
0000
0001
1000
,
0001
0010
0100
0000
1000
0000
0000
0000
1000
0000
0000
0010
0000
0000
1000
0001
,
1000
0100
0010
0000
0001
0000
0010
0000
0001
0000
0000
0100
0000
0000
0001
1000
,
0001
0010
0100
0000
2000
0000
0000
0000
3001
0000
0001
0000
0100
0000
0001
0000
,
0001
0000
1000
0001
0100
0000
0010
0000
0001
0000
0000
0000
0100
0000
0001
0000
,
0010
1100
0000
0110
0000
0011
0000
1001
,
0000
0000
1000
0100
1000
0000
0000
0000
0001
0010
0100
0000
1000
0000
1000
0000
,
0002
0000
1000
0000
0103
0000
0010
0000
0001
0000
0000
0001
0100
0001
0000
0000
,
0010
0000
0100
1000
0001
0000
0000
0000
1000
0000
0000
0000
0010
0000
1000
0000
,
0100
0011
0000
0110
0000
1100
0000
1001
,
0000
0000
0001
0010
0001
0000
0000
0000
1000
0100
0010
0000
0001
0000
0001
0000
,
2000
0000
0001
0000
3010
0000
0100
0000
1000
0000
0000
1000
0010
1000
0000
0000
,
0011
0000
0000
0000
0100
1000
0010
0000
1000
0000
0011
0000
1000
0000
0100
0000
,
0010
0000
1000
0100
0022
0000
0033
0000
,
1000
0001
0100
0000
0001
0000
0010
0000
0001
1000
0100
0000
1001
0000
0110
0000
,
2002
3003
0000
0000
,
0010
0100
0010
1000
0001
0000
0100
0000
,
1000
0001
0100
0000
0000
0000
0000
0000
0000
0000
0000
0000
0000
0000
0000
0000
,
1000
0000
0100
0000
1000
0100
0010
0000
0001
0000
1000
0000
0110
0000
1001
0000
,
1000
0001
1000
0001
1000
0000
0000
0001
1000
0010
0100
0010
0100
0001
1000
0001
,
1000
0000
0000
0000
0000
0000
0001
0000
0010
0000
1000
0100
1000
0000
0000
0000
,
1000
0000
0001
0000
0010
0000
0001
0000
0100
0001
1000
0000
0100
0000
0000
0000
,
0001
0000
0100
0000
0010
0000
1000
0010
0100
0000
0200
0000
0001
0000
0001
0000
,
0310
1000
0010
1000
1000
0100
0011
0000
,
0001
0000
0000
0000
0000
0000
1000
0000
0100
0000
0001
0010
0001
0000
0000
0000
,
0001
0000
1000
0000
0100
0000
1000
0000
0010
1000
0001
0000
0010
0000
0000
0000
,
1000
0000
0010
0000
0100
0000
0001
0100
0010
0000
0020
0000
1000
0000
1000
0000
,
0130
0011
1100
0011
,
0001
0010
0100
0000
1000
0000
0000
0000
1000
0000
0000
0010
0000
0000
1000
0001
,
1000
0100
0010
0000
0001
0000
0000
0000
0001
0000
0000
0100
0000
0000
0001
1000
,
0001
0010
0100
0000
1000
0000
0100
0000
1000
0000
0000
0010
0000
0000
1000
0001
,
1000
0100
0010
0000
0002
0000
0000
0000
1003
0000
1000
0000
0010
0000
1000
0000
,
1000
0100
0010
0000
0001
0000
0000
0000
0001
0000
0000
0100
0000
0000
0001
1000
,
0001
0010
0100
0000
1000
0000
0000
0000
1000
0000
0000
0010
0000
0000
1000
0001
,
1000
0100
0010
0000
0001
0000
0010
0000
0001
0000
0000
0100
0000
0000
0001
1000
,
0001
0010
0100
0000
2000
0000
0000
0000
3001
0000
0001
0000
0100
0000
0001
0000
,
0001
0000
0000
0000
0000
0000
1001
0000
0110
0000
0000
0000
0000
0000
1000
0001
,
1000
0001
0010
1000
0010
0001
0010
1000
,
0100
0000
1000
0100
0010
0000
0001
1000
0001
0000
1000
0000
0001
0000
0100
0000
,
0011
0110
0011
1100
,
0001
1000
0100
0000
0000
0000
0000
0000
;

//--------------- dance-double - K. Ward ----------------
#NOTES:
     dance-double:
     K. Ward:
     Easy:
     3:
     0.262,0.282,0.24,0.157,0:
00000000
00000000
00000000
00000000
,
00000000
00000000
00000000
00000000
,
00000000
00000000
00000000
00000000
,
00000000
00000000
00000000
00000000
,
00010000
10000000
00010000
10000000
,
00100000
01000000
10010000
00000000
,
00001000
00100000
00001000
00010000
,
00011000
00000000
00022000
00000000
,
00033000
00000000
00000000
00000000
,
00001001
00000000
00011000
00000000
,
00100000
00010000
01000000
00010000
,
10010000
00000000
00011000
00000000
,
00000010
00001000
00001001
00000000
,
00000011
00000000
00000110
00000000
,
00001000
00000010
00010000
00010000
,
00001000
00000000
00100000
00000000
,
00010000
10000000
10000000
10000000
,
00020000
00000000
00130000
00000000
,
00002000
00000000
00013000
00000000
,
00000020
00000000
00001030
00000000
,
00001000
00001000
00000010
00000010
,
00000200
00000000
00000301
00000000
,
00000020
00000000
00000031
00000000
,
00000001
00001000
00000010
00010000
,
00002000
00000000
00103000
00000000
,
00001000
00000000
00100000
00000000
,
00010000
00000000
10000000
10000000
,
10000000
00000000
00100000
00000000
,
01000000
00000000
00011000
00011000
,
00001000
00000000
00010000
00000000
,
00000010
00000000
00001000
00001000
,
00001000
00000001
00000100
00000010
,
00001000
00000000
00001100
00000000
,
00100000
00010000
00110000
00000000
,
00010000
01000000
01100000
00000000
,
10000000
00100000
01000000
00010000
,
00110000
00000000
00000000
00000000
,
00000100
00001000
00001100
00000000
,
00001000
00000010
00000110
00000000
,
00000001
00000100
00000010
00001000
,
00000200
00000000
00000000
00001300
,
00011000
00000000
00110000
00000000
,
00100000
00010000
01000000
00010000
,
00110000
00000000
00011000
00000000
,
00000010
00001000
00001100
00000000
,
00000110
00000000
00011000
00000000
,
00001000
00010000
00000100
00000100
,
00001000
00000000
00000010
00000000
,
00000100
00000001
00000001
00001000
,
00002000
00000000
00003100
00000000
,
00020000
00001000
00031000
00000000
,
02000000
00000000
03010000
00000000
,
00010000
00010000
01000000
01000000
,
00200000
00000000
10300000
00000000
,
02000000
10000000
13000000
00000000
,
10000000
00010000
01000000
00001000
,
00020000
00000100
00030100
00000000
,
00002000
00000000
00003000
00000000
,
00000020
00000000
00000030
00000000
,
00000100
00000000
00000010
00000000
,
00001000
00001000
00001000
00000100
,
00010000
00011000
00000000
00000000
;

//--------------- dance-double - K. Ward ----------------
#NOTES:
     dance-double:
     K. Ward:
     Medium:
     4:
     0.341,0.339,0.397,0.157,0:
00000000
00000000
00000000
00000000
,
00000000
00000000
00000000
00000000
,
00000000
00000000
00000000
00000000
,
00000000
00000000
00000000
00000000
,
00000001
00000001
00000001
00000110
,
00001000
00001000
00001000
00001100
,
00010000
00010000
00010000
00011000
,
00100000
00010000
01000000
00100000
,
10100000
00000000
00000000
00010000
,
01100000
00001000
00011000
00000000
,
00000001
00000100
00000010
00001100
,
00001000
00001010
00001000
00000100
,
00010000
00101000
00110000
00000000
,
10000000
00010000
00110000
00000000
,
00001000
00010000
00000010
00001100
,
00000001
00000010
00000001
00001000
,
00000010
00001000
00000100
00001100
,
00100000
00001000
00010000
00001000
,
00100000
00010000
10000000
00010000
,
00100000
00010000
01000000
00100000
,
20000000
30010000
00200000
00301000
,
00010000
00000010
00001000
00000010
,
00000100
00000001
00001000
00001001
,
00000002
00000103
00000020
00001030
,
00000100
00001000
00000100
00000000
00001100
00000000
00000000
00000000
,
00100000
00010000
01100000
10000000
,
10010000
00000000
00000000
00000000
,
00010000
10000000
00100000
01000000
,
01010000
00000000
00110000
00000000
,
00000100
00001000
00000110
00000001
,
00001001
00000000
00000000
00000000
,
00001000
00000001
00000100
00000010
,
00001010
00000000
00001100
00001100
,
00000020
00001000
00000000
00001030
,
00000200
00010000
00000000
00010300
,
00002000
00100000
00010000
00103000
,
01100000
00000000
00000000
00000000
,
20000000
00010000
00000000
30010000
,
00200000
00001000
00000000
00301000
,
00020000
00000100
00001000
00030100
,
00000110
00000000
00011000
00000000
,
00000010
00001000
00001100
00000000
,
00100000
00010000
01000000
00110000
,
00001000
00011000
00000010
00001000
,
00000010
00010100
00001100
00000000
,
00000001
00001000
00001100
00000000
,
00010000
00001000
01000000
00110000
,
10000000
01000000
10000000
00010000
,
02000000
00010000
03100000
01100000
,
10000000
01000000
00100000
00010000
,
00100000
00001000
00010000
00000010
,
00001000
00000010
00001000
00000100
,
00020000
00030010
00000200
00000301
,
00001000
00000100
00100000
00010000
,
10000000
01100000
00000000
01100000
,
00200000
10300000
02000000
13000000
,
10000000
01000000
10000000
00000000
00200000
00000000
10000000
00000000
,
10300000
00000000
00110000
00000000
,
00001100
00000000
00011000
00011000
,
00110000
00000000
00011000
00000000
,
10000000
00010000
01000000
00100000
,
20000000
30100000
00000000
00000000
;

//--------------- dance-double - K. Ward ----------------
#NOTES:
     dance-double:
     K. Ward:
     Hard:
     6:
     0.43,0.424,0.433,0.12,0:
00000000
00000000
00000000
00000000
,
00000000
00000000
00000000
00000000
,
00000000
00000000
00000000
00000000
,
00000000
00000000
00000000
00000000
,
00000001
00000110
00010000
00011000
,
01000000
10100000
10000000
10100000
,
01000000
00011000
00010000
00000110
,
00000001
00000000
00001100
00000000
00000010
00001000
00000100
00020000
,
00000000
00000000
00030100
00000000
,
00010000
00001000
00100000
00010000
,
10010000
00000000
00010000
00000000
00100000
00001000
00001000
00000000
,
00010000
00000010
00001000
00000001
,
00000110
00000000
00011000
00000000
,
01000000
10000000
00100000
01000000
,
10010000
00000000
00010000
00000000
00100000
00001000
00010000
00000000
,
00000100
00000010
00000001
00000001
,
00000100
00000010
00010000
00001000
00100000
00010000
10000000
00000000
,
10000000
10000000
00100000
01000000
,
00010000
00100000
01000000
00000000
10010000
00000000
00000000
00000000
,
00100000
00000000
00001000
00000000
00010000
00000010
00000100
00000001
,
00000000
00001010
00000000
00001010
00001010
00000000
00000000
00000000
,
00000001
00000000
00000010
00000000
00000100
00010000
00001000
00000000
,
00100000
00010000
10000000
00000000
01100000
00000000
00000000
00000000
,
00010000
00100000
00001000
00010000
00002000
00000000
00013000
00000000
,
00000010
00001100
00000000
00001100
00001100
00000000
00000000
00000000
,
00001000
00010000
00001000
00000000
00010000
00001000
00100000
00000000
,
01000000
10000000
00100000
00000000
00110000
00000000
00110000
00000000
,
01000000
00001000
00100000
00000000
00010000
01000000
00100000
00000000
,
10000000
00010000
00100000
00001000
00010000
00000100
00002000
00000000
,
00003001
00000000
00000001
00000000
00000010
00000100
00001000
00000000
,
00000011
00000000
00000011
00000000
00000100
00010000
00001000
00000000
,
00100000
00000000
01000000
00000000
10000000
00010000
00100000
00000000
,
11000000
00110000
01100000
00011000
,
00000020
00000000
00001000
00000000
00001030
00000000
00000200
00000010
,
00000000
00000310
00000000
00000011
00000000
00000000
00000000
00001000
,
00000010
00000000
00001000
00000010
00001000
00000100
00010000
00000200
,
00000000
00010300
00000000
00000000
00000000
00000000
00000000
00000000
,
00001000
00100000
00010000
00000000
01000000
00100000
10000000
00000000
,
10000000
00000000
00100000
00000000
01001000
00010000
00001000
00000000
,
00010000
00000000
00000100
00000000
00000010
00000001
00000100
00000010
,
00001000
00000000
00000100
00000000
00010000
00001000
00010000
00000000
,
00000100
00000000
00000010
00000000
00000001
00000100
00000010
00000000
,
00001001
00000000
00000000
00000000
00000010
00010000
00001000
00000000
,
01000000
00000000
00100000
00000000
10000000
01000000
00100000
00000000
,
10010000
00000000
00100000
01000000
00001000
00000000
00010000
00000000
,
00000100
00000000
00000010
00000000
00000001
00000100
00000010
00000000
,
00001001
00000000
00000000
00000000
00000100
00000010
00010000
00000000
,
00011000
01000000
00100000
00100000
,
10000000
01000000
00010000
00001000
00000100
00000000
00001001
00000000
,
00000001
00000001
00000100
00000010
,
00001000
00000100
00000010
00000000
00001001
00000000
00000000
00000000
,
00000100
00000000
00010000
00000000
00001000
01000000
00100000
10000000
,
00000000
01010000
00000000
01010000
01010000
00000000
00110000
00000000
,
10000000
00000000
01000000
00000000
00100000
00001000
00010000
00000000
,
00000100
00001000
00000001
00000000
00000110
00000000
00000110
00000000
,
00001000
00000100
00010000
00001000
00020000
00000000
00031000
00000000
,
01000000
00110000
00000000
00110000
00110000
00000000
00010000
00000000
,
20000000
00000000
00000000
00010000
30200000
00000000
00000000
00001000
,
00320000
00000010
00030010
00000101
,
00000002
00000000
00000000
00001000
00000203
00000000
00000000
00010000
,
00002300
00100000
00010000
00013000
,
00001100
00011000
00000000
00000000
;

//--------------- dance-double - K. Ward ----------------
#NOTES:
     dance-double:
     K. Ward:
     Challenge:
     9:
     0.61,0.565,0.433,0.267,0.235:
00000000
00000000
00000000
00000000
,
00000000
00000000
00000000
00000000
,
00000000
00000000
00000000
00000000
,
00000000
00000000
00000000
00000000
,
10000000
00100000
01000000
00010000
00100000
00001000
00010000
00000100
,
00001000
00000010
00000100
00000001
00000010
00000001
00000020
00000001
,
00000031
00000100
00000010
00001000
00000100
00010000
00001000
00100000
,
00010000
01000000
00100000
10000000
01000000
10000000
10000000
00200000
,
00000000
00000000
01300000
0MM00000
,
00001000
00010000
00001000
00000010
00000001
00000000
00000011
00000000
,
00000001
00000000
00000010
00000000
00000100
00000000
00001000
00000000
00000100
00000000
00010000
00001000
00011000
00000000
00000000
00000000
,
00001000
00010000
01000000
10000000
00100000
01000000
00010000
00100000
,
00001000
01000000
00100000
10000000
11000000
00000000
00110000
00000000
,
00010000
00001000
00010000
01000000
10000000
00000000
11000000
00000000
,
10000000
00000000
00100000
00000000
01000000
00000000
00010000
00000000
00100000
00000000
00001000
00010000
00011000
00000000
00000000
00000000
,
00010000
00000000
00001000
00000000
00000100
00000000
00000001
00000000
00000010
00000000
00000001
00000000
00000100
00000010
00000100
00000010
,
00002000
00000100
00003200
00000010
00000320
00000001
00000032
00000000
,
00010003
00001000
00010000
00000000
00011000
00000000
00000000
00000000
00100000
00000000
00000000
00010000
00000000
00000000
01000000
00000000
,
00100000
10000000
01000000
00000000
10000000
00000000
00100000
00000000
01000000
00000000
00000000
01010000
00000000
00000000
00110000
00000000
,
00001000
00010000
00001000
00000000
00011000
00000000
00000000
00000000
00000100
00000000
00000000
00001000
00000000
00000000
00000010
00000000
,
00000100
00000001
00000010
00000000
00000001
00000000
00000100
00000000
00000010
00000000
00001000
00000000
00000100
00000000
00100000
00000000
,
00001000
00010000
00001000
00000000
00011000
00000000
00000000
00000000
00100000
00000000
00000000
00010000
00000000
00000000
01000000
00000000
,
00100000
10000000
01000000
00000000
10000000
00000000
00100000
00000000
01000000
00000000
00000000
00110000
00000000
00000000
00011000
00000000
,
00000100
00001000
00000100
00000000
00010000
00000000
00020000
00000000
00000100
00000000
00030000
00001000
00000000
00000000
00000010
00000000
,
00000100
00000001
00000010
00000000
00000100
00000000
00001000
00000000
00000010
00000000
00000100
00000000
00000001
00000000
00000010
00000000
,
00000000
00000000
00000000
00001100
00000000
00000000
00000000
000MM000
00000000
01010000
00000000
00000000
00000000
00MM0000
00000000
00110000
00000000
00000000
00000000
0MM00000
00000000
11000000
00000000
00000000
,
00M10000
00000000
00000000
00110000
00000000
00000000
00000000
00M0M000
00000000
00011000
00000000
00000000
00000000
0000M0M0
00000000
00000110
00000000
00000000
00000000
000MM000
00000000
00011000
00000000
00000000
,
00001000
00000000
00000000
00101000
00000000
00000000
00000000
0M0M0000
00000000
01010000
00000000
00000000
00000000
000MM000
00000000
00110000
00000000
00000000
00000000
MM000000
00000000
11000000
00000000
00000000
,
10000000
00000000
00000000
10100000
00000000
00000000
00000000
0MM00000
00000000
00110000
00000000
00000000
00000000
00MM0000
00000000
00011000
00000000
00000000
00110000
00000000
00000000
00000000
00000000
00000000
,
10000000
01000000
00100000
00010000
00100000
00001000
00010000
00000100
,
00001000
00000000
00000100
00000000
00000010
00000000
00000001
00000000
00000010
00000001
00000010
00000000
00000001
00000000
00000010
00000000
,
00000100
00001000
00000100
00010000
00001000
00100000
00010000
00100000
,
01000000
10000000
01000000
00000000
10000000
00000000
00100000
00000000
01000000
00010000
00100000
00000000
00110000
00000000
00000000
00000000
,
20000000
00000000
02000000
00000000
00100000
33000000
00000000
00000000
,
02000000
00000000
00200000
00000000
00010000
03300000
00000000
00000000
,
00001000
00010000
01000000
10000000
00010000
00100000
00000200
00020000
,
00000000
00001000
00001000
00000000
00001000
00030300
00000000
00000000
,
20000000
00000000
02000000
00000000
00100000
33000000
00000000
00000000
,
02000000
00000000
00200000
00000000
00010000
03300000
00000000
00000000
,
10000000
00000000
01000000
00000000
00100000
00000000
01000000
00000000
10000000
00000000
00100000
00000000
00010000
00001000
00010000
00001000
,
00010000
00001000
00000100
00000010
00000200
00000001
00000301
00000000
,
00010000
00001000
00010000
01000000
10000000
00000000
11000000
00000000
,
10000000
00000000
01000000
00000000
00100000
00000000
00010000
00000000
01000000
00001000
00010000
00000000
00011000
00000000
00000000
00000000
,
00010000
00001000
00000010
00000001
00000100
00000010
00001000
00000100
,
00001000
00000010
00000100
00000001
00000011
00000000
00011000
00000000
,
00001000
00010000
00001000
00000010
00000001
00000000
00000011
00000000
,
00000001
00000000
00000100
00000000
00000010
00000000
00001000
00000000
00000100
00100000
00001000
00000000
00011000
00000000
00000000
00000000
,
00001000
00010000
01000000
10000000
01000000
10000000
00100000
01000000
,
00020000
00100000
00230000
01000000
02300000
10000000
23000000
00000000
,
30100000
01000000
00100000
00000000
11000000
00000000
00000000
00000000
00010000
00000000
00000000
00100000
00000000
00000000
00010000
00000000
,
01000000
00100000
10000000
00000000
00100000
00000000
01000000
00000000
00110000
00000000
00000000
00011000
00000000
00000000
00001100
00000000
,
00000010
00000100
00000010
00000000
00000110
00000000
00000000
00000000
00000001
00000000
00000000
00000100
00000000
00000000
00000010
00000000
,
00000100
00000001
00000010
00000000
00000001
00000000
00000100
00000000
00000010
00000000
00001000
00000000
00001100
00000000
00000000
00000000
,
00010000
00001000
00010000
00000000
00011000
00000000
00000000
00000000
00100000
00000000
00000000
00010000
00000000
00000000
01000000
00000000
,
00100000
10000000
01000000
00000000
10000000
00000000
00010000
00000000
00100000
00000000
00000000
00110000
00000000
00000000
00011000
00000000
,
00000100
00001000
00000100
00000000
00001100
00000000
00000000
00000000
00000010
00000000
00000000
00000100
00000000
00000000
00000001
00000000
,
00000010
00000001
00000010
00000000
00000100
00000000
00001000
00000000
00000010
00000000
00000100
00000000
00000001
00000000
00000001
00000000
,
00002000
00000000
00003000
0000M010
00000200
00000000
00000300
00000M01
,
00000020
00000000
00000000
00000100
00000000
00000000
0000013M
00000000
00001000
00000000
00000100
00000000
00010000
00000000
00001000
00000000
,
00020000
00000000
00030000
010M0000
00200000
00000000
00300000
00M10000
,
02000000
00100000
10000000
03200000
,
10300000
11000000
00000000
00000000
;

//--------------- lights-cabinet - ----------------
#NOTES:
     lights-cabinet:
     :
     Easy:
     1:
     0.52,0.593,0.369,0.24,0.065:
000000
000000
000000
000000
,
000000
000000
000000
000000
,
000000
111100
000000
111100
,
000000
111100
000000
111100
,
100000
000100
010000
000000
000100
000000
000100
000000
,
000100
100000
010000
000000
100000
000000
100000
000000
,
100000
000200
000000
000300
100000
100000
000100
020000
,
000000
000000
031000
000000
100100
000000
100100
100100
,
000000
000000
000000
111100
,
100100
000000
000000
000000
000000
000000
000000
100000
001000
000000
000000
000000
110000
000000
000000
000000
,
100000
010000
001000
010000
001000
000100
000100
000000
,
001000
000000
010000
000100
200000
000000
301000
000000
,
100000
100000
002000
000000
103000
000100
000000
000000
,
100000
000000
000100
001000
000100
000000
000000
000000
,
000100
000000
100000
000000
001000
010000
000100
000000
,
100000
010000
001000
000000
010000
000000
001000
000000
,
100100
100100
011000
100100
,
100000
000000
000100
000000
010000
000000
000000
000000
100000
000000
000100
000000
000000
010000
000000
000000
,
000000
000100
000000
000000
100000
000000
000100
000000
100000
000000
001000
000000
000000
000000
100000
000000
,
000100
000000
010000
000000
000100
000000
200000
000000
000100
000000
000000
000100
300000
000000
010000
000000
,
000100
000000
100000
000100
010000
001000
010000
001000
,
100000
000000
000100
000000
001000
000000
000000
000000
000100
000000
100000
000000
000000
001000
000000
000000
,
000000
100000
000000
000000
000100
000000
100000
000000
000100
000000
010000
000000
000000
000000
000100
000000
,
100000
000000
001000
000000
100000
000000
000200
000000
100000
000000
000000
100000
000300
000000
001000
000000
,
100000
000000
000100
100000
001000
010000
001000
010000
,
100000
110000
000100
001100
,
100000
000000
110000
000000
100000
000100
001000
000000
,
200000
000000
300100
010000
001000
100000
002000
000000
,
103000
010000
100000
000000
000100
000000
000200
000000
,
100300
001100
100000
110000
,
000100
000000
001100
000000
000100
100000
010000
000000
,
000200
000000
100300
001000
010000
000100
020000
000000
,
030100
001000
000100
000000
100000
000000
111100
000000
,
000100
010000
110000
000100
,
000100
001000
000200
000000
100300
001000
010000
000000
,
101000
000000
000100
001000
000100
001100
110100
000000
,
222200
333300
000000
000000
,
000100
110000
000100
001100
,
100000
000000
110000
000000
100000
000100
001000
000000
,
200000
000000
300100
010000
001000
100000
002000
000000
,
103000
010000
001000
000100
001000
010000
100100
000000
,
100100
000000
000000
000000
000000
000000
000000
000100
010000
000000
000000
000000
001100
000000
000000
000000
,
000100
001000
010000
001000
010000
100000
111100
000000
,
010000
000000
001000
100000
000200
000000
010300
000000
,
000100
000100
020000
000000
030100
100000
000000
000000
,
000100
000000
100000
010000
100000
000000
000000
000000
,
100000
000000
000100
000000
010000
001000
100000
000000
,
000100
001000
010000
100000
001000
000000
011000
000000
,
100100
100100
011000
100100
,
100000
000000
000100
000000
010000
000000
000000
000000
100000
000000
000100
000000
000000
010000
000000
000000
,
000000
000100
000000
000000
100000
000000
000100
000000
100000
000000
001000
000000
000000
000000
100000
000000
,
000100
000000
010000
000000
000100
000000
200000
000000
000100
000000
000000
000100
300000
000000
010000
000000
,
000100
000000
100000
000100
010000
001000
010000
001000
,
100000
000000
000100
000000
001000
000000
000000
000000
000100
000000
100000
000000
000000
001000
000000
000000
,
000000
100000
000000
000000
000100
000000
100000
000000
000100
000000
010000
000000
000000
000000
000100
000000
,
100000
000000
001000
000000
100000
000000
000200
000000
100000
000000
000000
100000
000300
000000
001000
000000
,
100000
000000
000100
100000
001000
010000
001000
010000
,
100000
000000
000100
100000
010000
000000
000000
000000
,
010000
001000
000000
010000
100000
010000
020000
000000
,
130000
000000
000100
100000
001000
100000
010000
010000
,
020000
230000
300200
010300
,
011000
111100
000000
000000
;
