#TITLE:Kagami;
#SUBTITLE:;
#ARTIST:KaW;
#TITLETRANSLIT:;
#SUBTITLETRANSLIT:;
#ARTISTTRANSLIT:;
#GENRE:;
#CREDIT:;
#MUSIC:Kagami.ogg;
#BANNER:kagami.png;
#BACKGROUND:Kagami-bg.png;
#CDTITLE:;
#SAMPLESTART:28.000;
#SAMPLELENGTH:13.230;
#SELECTABLE:YES;
#OFFSET:-0.041;
#BPMS:0.000=146.000
,212.000=73.000
,224.000=73.040
,228.000=146.000
;
#STOPS:;
#BGCHANGES:;
#FGCHANGES:;

//--------------- dance-single - K. Ward ----------------
#NOTES:
     dance-single:
     K. Ward:
     Beginner:
     1:
     0.093,0.222,0.072,0,0:
0000
0000
0000
0000
,
0000
0000
0000
0000
,
0000
0000
0000
0000
,
0000
0000
0000
0000
,
1000
0000
0000
0000
,
0001
0000
0000
0000
,
0010
0000
0000
0000
,
0001
0000
0000
0000
,
1000
0000
0000
0000
,
0010
0000
0000
0000
,
0100
0000
0000
0000
,
0001
0000
0000
0000
,
0001
0000
0000
0000
,
0100
0000
0000
0000
,
0010
0000
0000
0000
,
1000
0000
0000
0000
,
1001
0000
0000
0000
,
1000
0000
0001
0000
,
1000
0000
0000
0000
,
0001
0000
1000
0000
,
0001
0000
0000
0000
,
0100
0000
0000
0000
,
0100
0000
0000
0000
,
0010
0000
0000
0000
,
0010
0000
0000
0000
,
1000
0000
0000
0000
,
0001
0000
0000
0000
,
0100
0000
0000
0000
,
0010
0000
0000
0000
,
1000
0000
0000
0000
,
0001
0000
0000
0000
,
0010
0000
0000
0000
,
0010
0000
0000
0000
,
1001
0000
0000
0000
,
0001
0000
0000
0000
,
1000
0000
0000
0000
,
0100
0000
0100
0000
,
1000
0000
0000
0000
,
0001
0000
0000
0000
,
1000
0000
0000
0000
,
0010
0000
0000
0000
,
0100
0000
0000
0000
,
0001
0000
0000
0000
,
1000
0000
0000
0000
,
0001
0000
1000
0000
,
0001
0000
0000
0000
,
0100
0000
0000
0000
,
0010
0000
0000
0000
,
1000
0000
0000
0000
,
1001
0000
0000
0000
,
0000
0000
0000
0000
,
0001
0000
0000
0000
,
1000
0000
0000
0000
,
1001
0000
0001
0000
,
1001
0000
1000
0000
,
1001
0000
0001
0000
,
1001
0000
1000
0000
,
0001
0000
0000
0000
,
0001
0000
0000
0000
,
0100
0000
0000
0000
,
0100
0000
0000
0000
,
0010
0000
0000
0000
,
1000
0000
0000
0000
,
0001
0000
0000
0000
,
1000
0000
0000
0000
,
1001
0000
0000
0000
,
0000
0000
0000
0000
,
0100
0000
0000
0000
,
0010
0000
0000
0000
,
1001
0000
0000
0000
;

//--------------- dance-single - K. Ward ----------------
#NOTES:
     dance-single:
     K. Ward:
     Easy:
     5:
     0.274,0.25,0.008,0.064,0:
0000
0000
0000
0000
,
0000
0000
0000
0000
,
0000
0000
0000
0000
,
0000
0000
0000
0000
,
0001
1000
0010
1000
,
0010
0001
0100
0010
,
0100
0010
1000
0010
,
1001
0000
0000
0000
,
0001
0001
0010
0000
,
0100
0100
1000
0000
,
0001
0001
0010
0000
,
0001
0010
0001
1000
,
0001
0001
0010
0000
,
0100
0100
1000
0000
,
0001
0001
0010
0000
,
0001
0100
0000
1000
,
0001
0000
0000
0000
,
0001
0001
0001
0010
,
0100
1000
1000
1000
,
0010
0100
0100
0100
,
0010
0001
0010
1000
,
0001
0001
0001
0010
,
0100
1000
1000
1000
,
0010
0100
0100
0100
,
0010
0001
0010
1000
,
0001
0001
0001
0010
,
0100
1000
1000
1000
,
0010
0100
0100
0100
,
0010
0001
0010
1000
,
0001
0001
0001
0010
,
0100
1000
1000
1000
,
0010
0100
0100
0100
,
0010
0001
0010
1000
,
0010
0002
0000
1003
,
0010
2000
0000
3001
,
0100
2000
0000
3010
,
0100
0000
1000
0000
,
0010
0002
0000
1003
,
0010
2000
0000
3001
,
0100
2000
0000
3010
,
0100
1000
0000
0010
,
1000
1000
0010
1000
,
0001
0001
0010
1000
,
0100
0100
1000
0100
,
0010
0100
0020
0000
,
1030
1000
0010
1000
,
0001
0001
0010
1000
,
0100
0100
1000
0100
,
0010
0100
0020
0000
,
0031
0001
0001
0010
,
0100
1000
1000
1000
,
0010
0100
0100
0100
,
0010
0001
0010
1000
,
0100
0100
0010
0001
,
0001
1000
1000
0001
,
0100
0100
0010
0001
,
0001
1000
0100
0000
,
0001
0010
0001
0100
,
0001
0010
0001
0100
,
0001
1000
0100
1000
,
0100
0000
0100
0000
,
0001
0010
0001
0100
,
0001
0010
0001
0100
,
0001
1000
0100
0001
,
0100
0000
0100
0000
,
0010
0010
0000
0001
,
0100
0100
0000
1000
,
0001
0001
0000
1000
,
0001
0100
0010
0100
,
0001
0000
0000
0000
;

//--------------- dance-single - K. Ward ----------------
#NOTES:
     dance-single:
     K. Ward:
     Medium:
     9:
     0.357,0.416,0.024,0.177,0:
0000
0000
0000
0000
,
0000
0000
0000
0000
,
0000
0000
0000
0000
,
0000
0000
0000
0000
,
0001
0100
0010
0100
,
0001
0001
0100
0010
,
1000
0010
0100
0010
,
0101
0000
0000
0000
,
0001
0010
0001
0000
0010
0000
0010
0000
,
1000
0100
1000
0000
0100
0000
0100
0000
,
0001
0010
0001
0000
0010
0000
0010
0000
,
0001
0100
0000
0100
0001
0000
0100
0000
,
0001
0010
0001
0000
0010
0000
0010
0000
,
0001
0010
0001
0000
0010
0000
0010
0000
,
1000
0100
1000
0000
0100
0000
0100
0000
,
0001
0010
0000
0001
0010
0000
1100
0000
,
2002
0000
0000
3003
,
0001
0010
0001
0000
0010
0000
0001
0000
,
0010
1000
0010
0000
1000
0000
0010
0000
,
0001
0010
0001
0000
0010
0000
0100
0000
,
0010
1000
0000
0100
0010
0000
0001
0000
,
0001
0010
0001
0000
0010
0000
0001
0000
,
0010
1000
0010
0000
1000
0000
0010
0000
,
0001
0010
0001
0000
0010
0000
0100
0000
,
0010
1000
0000
0100
0010
0000
0001
0000
,
0001
0010
0001
0000
0010
0000
0001
0000
,
0010
1000
0010
0000
1000
0000
0010
0000
,
0001
0010
0001
0000
0010
0000
0100
0000
,
0010
1000
0000
0100
0010
0000
0001
0000
,
0001
0010
0001
0000
0010
0000
0001
0000
,
0010
1000
0010
0000
1000
0000
0010
0000
,
0001
0010
0001
0000
0010
0000
0100
0000
,
0010
1000
0000
0100
0010
0000
0001
0000
,
0010
0000
0100
0000
0020
0000
0000
0030
,
1000
0000
0001
0000
0200
0000
0000
0300
,
0010
0000
0100
0000
0020
0000
0000
0030
,
1000
0010
0100
0100
,
0010
0000
0100
0000
0020
0000
0000
0030
,
1000
0000
0001
0000
0200
0000
0000
0300
,
0010
0000
0100
0000
0020
0000
0000
0030
,
1000
0001
0010
0001
0100
0000
0100
0000
,
2000
0000
3020
0000
0000
0030
0100
0000
,
0200
0000
2300
0000
0000
3000
0001
0000
,
2000
0000
3020
0000
0000
0030
0100
0000
,
0200
1000
0000
1000
,
2300
0000
3020
0000
0000
0030
0100
0000
,
0200
0000
2300
0000
0000
3000
0001
0000
,
2000
0000
3020
0000
0000
0030
0100
0000
,
0200
0000
0000
0000
0000
0000
0000
0000
0000
0000
0000
0000
0000
0000
0000
0000
0000
0000
0000
0000
0000
0000
0000
0000
1000
0000
0000
0000
0000
0000
0000
0000
0000
0000
0000
0000
0000
0000
0000
0000
0000
0000
0000
0000
0000
0000
0000
0000
0000
0000
0000
0000
0000
0000
0000
0000
0000
0000
0000
0000
0000
0000
0000
0000
0000
0000
0000
0000
0000
0000
0000
0000
1000
0000
0000
0000
0000
0000
0000
0000
0000
0000
0000
0000
0000
0300
0000
0000
0000
0000
0000
0000
0000
0000
0000
0000
,
0001
0010
0001
0000
0010
0000
0001
0000
,
0010
1000
0010
0000
1000
0000
0010
0000
,
0001
0010
0001
0000
0010
0000
0100
0000
,
0010
1000
0000
0100
0010
0000
0001
0000
,
1000
0100
1000
0100
0010
0100
0001
0010
,
0001
0010
0100
1000
0100
0000
0001
0000
,
1000
0100
1000
0100
0010
0100
0001
0010
,
0001
0010
0100
1000
0100
0000
0001
1000
,
0001
0000
0100
0001
0100
0000
0010
0000
,
0010
0000
0010
0100
0001
0000
0010
0000
,
0001
0000
0100
0001
0100
0000
0010
0000
,
0010
1000
0000
0001
,
0001
0000
0100
0001
0100
0000
0010
0000
,
0010
0000
0010
0100
0001
0000
0010
0000
,
0001
0000
0100
0001
0100
0000
0010
0000
,
0010
1000
0000
0001
,
0010
0010
1000
0001
,
1000
1000
0010
0100
,
0001
0001
0100
0100
,
0001
0000
0100
0000
,
0010
0000
0000
0000
;

//--------------- dance-single - K. Ward ----------------
#NOTES:
     dance-single:
     K. Ward:
     Hard:
     11:
     0.516,0.638,0.274,0.121,0.097:
0000
0000
0000
0000
,
0000
0000
0000
0000
,
0000
0000
0000
0000
,
0000
0000
0000
0000
,
1000
0000
0010
0000
0100
0001
0010
0000
,
0001
0000
0100
0000
0010
1000
0100
0000
,
1000
0000
0010
0000
0100
0001
0010
0000
,
0022
0000
0033
0000
,
1000
0100
0010
0001
0020
0000
0031
0000
,
1000
0010
0100
0001
0200
0000
0310
0000
,
1000
0100
1000
0010
0200
0000
0301
0000
,
0100
1000
0010
0001
,
0001
0010
0100
1000
0200
0000
1300
0000
,
1000
0100
0010
0001
0020
0000
0130
0000
,
0010
0001
0100
0010
1000
0100
1000
0010
,
0100
0001
0010
0011
,
0001
0010
0001
0000
0100
0000
0010
1000
0100
0000
1000
0000
2000
0000
0000
0000
,
3001
0001
0001
0000
0001
1000
0010
0100
,
0000
0100
0100
0010
0100
0001
0010
0000
,
0001
0001
0001
0000
0100
0010
1000
1000
,
0000
1000
0000
0010
0100
0000
0110
0000
,
0100
0100
0100
0000
0010
1000
0100
1000
,
0000
0010
0010
0100
0001
0010
0001
0000
,
0010
0010
0010
0000
0001
0100
0001
0200
,
0000
0310
0000
1000
0100
0000
1100
0000
,
1000
1000
1000
0000
0010
0100
0001
0010
,
0000
0001
0001
0100
0010
1000
1000
0000
,
0001
0001
0001
0000
0100
0010
1000
1000
,
0000
0010
0000
0100
0001
0000
0011
0000
,
1000
1000
1000
0000
0010
0100
0010
1000
,
0000
0010
0010
1000
0100
0010
0100
0000
,
1000
1000
1000
0000
0010
0100
0001
0001
,
0000
1000
0000
0100
1000
0000
1100
0000
,
1000
0010
0100
0001
0020
0000
0031
0000
,
0100
0010
1000
0001
0200
0000
0310
0000
,
1000
0100
1000
0010
0200
0000
0301
0000
,
0010
0001
0100
0010
1000
0000
0100
0000
,
1000
0100
1000
0100
1000
0000
0000
0000
0010
0000
0000
0000
0110
0000
0000
0000
,
0100
0010
0100
0010
0100
0000
0000
0000
0001
0000
0000
0000
0011
0000
0000
0000
,
1000
0100
1000
0100
1000
0000
0000
0000
0010
0000
0000
0000
0110
0000
0000
0000
,
1000
0100
0010
0100
1000
0000
1100
0000
,
0001
0010
0001
0010
0001
0000
0000
0000
0100
0000
0010
0000
0110
0000
0000
0000
,
0010
0100
0010
0100
0010
0000
0000
0000
1000
0000
0100
0000
1100
0000
0000
0000
,
0001
0010
0001
0010
0001
0000
0000
0000
0100
0000
0010
0000
0110
0000
0000
0000
,
0001
0100
0010
1000
0200
0000
1300
0000
,
1000
0100
1000
0100
1000
0000
0000
0000
0110
0000
0110
0000
0110
0000
0000
0000
,
0001
0010
0001
0010
0001
0000
0000
0000
0110
0000
0110
0000
0110
0000
0000
0000
,
1000
0100
1000
0100
1000
0000
0000
0000
1001
0000
1001
0000
1001
0000
0000
0000
,
1000
0001
0100
0010
2000
0000
3100
0000
,
1000
1000
1000
0000
1000
0001
0100
0010
,
0000
0010
0010
0100
0010
0100
0001
0000
,
1000
1000
1000
0000
0001
0100
0001
0001
,
0000
0100
0000
0010
1000
0000
1001
0000
,
0001
0000
0100
0000
0010
0000
1000
0100
1000
0000
0100
0000
1000
0000
0000
0000
,
0010
0000
0100
0000
0001
0000
0010
0001
0100
0000
0010
0000
0110
0000
0000
0000
,
1000
0000
0100
0000
1000
0000
0010
0100
0001
0000
0010
0000
0001
0000
0000
0000
,
0001
0000
0010
0000
0001
0000
0100
0010
1000
0000
0100
0000
1100
0000
0000
0000
,
1000
0010
0100
0001
1000
0000
1100
0000
,
0010
0100
0001
0010
0001
0000
0011
0000
,
1000
0010
0100
0001
0100
0000
1100
0000
,
0010
0001
0100
1000
,
0001
0100
0001
1000
0010
1000
1100
0000
,
1000
0010
0100
0001
0100
0001
0011
0000
,
0001
0100
0010
1000
0010
0100
0110
0000
,
0001
0010
0100
1000
0010
0100
0002
0000
,
1003
0100
1000
0010
,
0100
0000
0001
0000
0010
0000
0001
0100
,
0010
1000
0100
1000
,
0110
0000
0011
0000
,
1001
0000
0000
0000
;

//--------------- dance-single - K. Ward ----------------
#NOTES:
     dance-single:
     K. Ward:
     Challenge:
     15:
     0.795,1,0.402,0.257,0.897:
0000
0000
0000
0000
,
0000
0000
0000
0000
,
0000
0000
0000
0000
,
0000
0000
0000
0000
,
1000
0100
1000
0100
1000
0000
0000
0000
0010
0100
0010
0100
0010
0000
0000
0000
,
1000
0010
1000
0010
1000
0000
0000
0000
0001
1000
0001
1000
0001
0000
0000
0000
,
1000
0010
1000
0010
1000
0000
0000
0000
0001
0010
0001
0010
0001
0000
0000
0000
,
2002
0000
0000
0000
0000
0000
0000
0000
3003
0000
0000
M00M
0000
0000
0000
0000
,
1000
0000
0000
1000
0010
0000
0000
0010
0100
0000
0000
0100
0001
0010
0001
0000
,
1000
0000
0000
1000
0010
0000
0000
0010
0100
0000
0000
0100
0001
0010
0001
0000
,
1000
0000
0000
1000
0010
0000
0000
0010
0100
0000
0000
0100
0010
1000
0100
0000
,
1000
0100
0110
0010
02M0
0000
1300
1000
,
0001
0000
0000
1000
0010
0000
0000
0010
0100
0000
0000
0100
0001
1000
0001
0000
,
1000
0000
0000
0001
0010
0000
0000
0001
0100
0000
0000
0010
1000
0100
1000
0000
,
0010
0000
0000
1000
0010
0000
0000
0100
0001
0000
0000
0100
0010
0100
0010
0000
,
1000
0100
1010
0100
0010
1100
0010
0100
,
0001
0010
0001
0000
0100
0000
0010
1000
0100
0000
1000
0000
1000
0000
0010
0000
,
1001
0000
1000
0000
0110
0000
0010
0000
0011
0000
0010
0000
1010
0000
0010
0100
,
0001
0000
0001
0000
0101
0000
1000
0000
1100
0000
0100
0000
0011
0000
0100
0010
,
1000
0000
1000
0000
0101
0000
1000
0000
1100
0000
1000
0000
0011
0000
0100
0001
,
0200
0010
0010
0300
0M02
0100
0103
000M
,
0011
0000
0001
0000
0110
0000
0010
0000
1100
0000
0001
0000
0110
0000
0001
1000
,
0001
0000
0001
0000
0110
0000
0001
0000
0011
0000
1000
0000
1100
0000
0010
0100
,
0001
0000
0001
0000
1010
0000
0001
0000
0011
0000
0001
0000
0110
0000
0001
1000
,
0002
0000
0000
0000
0010
0000
0000
0000
0013
0000
0000
0000
0000
00MM
0000
0000
0200
0000
0000
0000
0010
0000
0000
0000
0310
0000
0000
0000
0000
0MM0
0000
0000
,
1010
0000
0000
0000
0011
0000
1000
0100
1000
0100
1000
0000
0010
0000
0010
0000
,
0011
0000
0000
0000
1000
0000
0001
0100
0001
0100
0001
0000
0010
0000
0010
0000
,
0011
0000
0000
0000
1000
0000
0100
1000
0100
1000
0100
0000
1000
0000
0001
0000
,
0011
0000
0000
0000
0100
0000
0001
0010
0001
0000
0010
0000
0001
0000
0100
0000
,
1010
0000
0000
0000
0001
0000
1000
0100
1000
0100
1000
0000
0010
0000
0100
0000
,
0011
0000
0000
0000
1000
0000
0001
0100
0001
0100
0001
0000
0010
0000
0100
0000
,
1010
0000
0000
0000
0001
0000
1000
0100
1000
0100
1000
0000
0010
0000
1000
0000
,
2000
0200
0020
3330
,
1000
0000
0100
0000
1000
0000
0100
1000
0010
0000
0100
0000
0001
0100
0010
1000
,
0001
0000
0010
0000
0001
0000
0100
0010
1000
0000
0100
0000
1000
0100
0010
0001
,
0010
0000
0001
0000
0100
0000
0010
1000
0100
0000
1000
0000
0010
0100
0001
0010
,
0001
1000
0010
0100
0011
0011
0011
0000
,
1000
0010
0100
0001
0010
0000
0000
0000
1100
0000
MM00
1100
0000
MM00
1100
0000
,
1000
0000
0010
0000
0100
0000
0001
0000
0010
0000
0000
0000
0000
0000
0000
0000
0011
0000
0000
00MM
0000
0000
0011
0000
0000
0000
00MM
0000
0011
0000
0000
0000
,
0001
0000
0100
0000
0010
0000
1000
0000
0100
0000
0000
0000
0000
0000
0000
0000
1100
0000
0000
MM00
0000
0000
0110
0000
0000
0000
0MM0
0000
0011
0000
0000
0000
,
0001
0100
0010
0100
0001
1000
2000
0000
,
3001
0000
0000
0100
0000
0000
0001
0000
0000
0000
0000
0000
0100
0000
0000
0010
0000
0000
1000
0000
0000
0000
0000
0000
0010
0000
0000
0100
0000
0000
0001
0000
0000
0100
0000
0000
0001
0000
0000
0000
0000
0000
0000
0000
00MM
0000
0000
0000
,
1000
0000
0000
0010
0000
0000
1000
0000
0000
0000
0000
0000
0010
0000
0000
0100
0000
0000
0001
0000
0000
0000
0000
0000
0100
0000
0000
0010
0000
0000
1000
0000
0000
0010
0000
0000
1000
0000
0000
0000
0000
0000
0000
0000
MM00
0000
0000
0000
,
0001
0000
0000
0100
0000
0000
0001
0000
0000
0000
0000
0000
0010
0000
0000
0001
0000
0000
0100
0000
0000
0000
0000
0000
0010
0000
0000
0100
0000
0000
0001
0000
0000
0100
0000
0000
0001
0000
0000
0000
0000
0000
0000
0000
00MM
0000
0000
0000
,
0010
0000
0000
0001
0000
0000
1000
0000
0000
0000
0000
0000
0010
0000
0000
0000
0000
0000
0100
0000
0000
0000
0000
0000
1000
0000
000M
0000
0000
0000
1000
0000
00MM
0000
0000
0000
0200
0000
00MM
0000
0000
0000
0000
0000
00M0
0000
0000
0000
,
0301
0000
0000
0010
0000
0000
0001
0000
0000
0000
0000
0000
0100
0000
0000
0010
0000
0000
1000
0000
0000
0000
0000
0000
0001
0000
0000
0100
0000
0000
0010
0000
0000
0100
0000
0000
0010
0000
0000
0000
0000
0000
0000
0000
0MM0
0000
0000
0000
,
1000
0000
0000
0001
0000
0000
1000
0000
0000
0000
0000
0000
0001
0000
0000
0100
0000
0000
0010
0000
0000
0000
0000
0000
0100
0000
0000
0001
0000
0000
0010
0000
0000
0001
0000
0000
0010
0000
0000
0000
0000
0000
0000
0000
00MM
0000
0000
0000
,
0001
0000
0000
0100
0000
0000
0010
0000
0000
0000
0000
0000
0100
0000
0000
0010
0000
0000
1000
0000
0000
0000
0000
0000
0010
0000
0000
0100
0000
0000
0001
0000
0000
0100
0000
0000
0002
0000
0000
0000
0000
0000
0000
0000
0MM0
0000
0000
0000
,
1003
0000
0000
0000
0010
0000
0000
0000
0100
0000
0000
0000
0001
0000
0000
0000
0010
0000
0001
0000
0010
0M00
0000
0000
0011
0000
0000
0000
0000
0000
0000
0000
,
2200
0000
0000
0000
0010
3300
0000
0000
,
0020
0000
0000
0000
1100
0030
0000
0000
,
2200
0000
0000
0000
0001
3300
0000
0000
,
0002
0000
1100
0000
1100
0003
0000
0000
,
1000
0001
1000
0000
0001
1000
0001
0000
1000
0001
1000
0001
1000
0000
0000
0000
0010
0100
0010
0000
0100
0010
0100
0000
0010
0100
0010
0100
0010
0000
0000
0000
,
1000
0001
1000
0000
0001
1000
0001
0000
1000
0001
1000
0001
1000
0000
0000
0000
0010
0100
0010
0100
0010
0000
0MM0
0000
0100
0010
0100
0010
0100
0000
0000
0000
,
0001
1000
0001
0000
1000
0001
1000
0000
0001
1000
0001
1000
0001
0000
0000
0000
0100
0010
0100
0000
0010
0100
0010
0000
0100
0010
0100
0010
0100
0000
0000
0000
,
0001
1000
0001
0000
1000
0001
1000
0000
0001
1000
0001
1000
0001
0000
0000
0000
1000
0100
1000
0100
1000
0000
0000
M000
0M01
0010
0001
0010
0002
0000
00M0
0000
,
1003
0000
M010
0000
10M0
0000
0010
0100
0000
0001
0100
0000
0010
0M00
1000
00M0
,
M100
0000
1000
0000
0M10
0000
1000
0100
0000
1000
0010
0000
M200
0000
0001
0300
,
0010
0100
M020
0000
0001
0030
0100
0010
0000
1M00
0010
0000
0200
0000
03M1
0000
,
0020
0000
010M
0030
0200
0000
0000
0310
0000
0010
0001
0000
0010
000M
M100
0000
,
0010
0001
0M10
0000
0001
00M0
1000
0010
0000
1000
0100
0000
2000
0000
0010
3000
,
M100
0010
1000
0000
M010
0000
0100
0001
0000
0010
0001
0000
0100
0000
001M
0000
,
0100
0000
0000
0001
0000
0000
0010
0000
0M00
0000
0000
0000
0001
0000
0000
0000
0000
0000
0010
0000
0000
0001
0000
0000
0000
0000
0000
0100
0000
0000
0010
0000
0000
0M00
0000
0000
1000
0000
0000
0000
0000
0000
0010
0000
0000
0000
0000
0000
,
2000
0000
0100
3000
0200
000M
0000
1300
0000
1000
0010
0000
010M
M000
0010
0000
,
1000
0100
1000
01M0
2000
0000
0000
0000
3001
0100
0001
0100
0002
0000
0000
0000
,
1003
0100
1000
0100
2000
0000
0000
0000
3001
0010
0001
0010
0002
0000
0000
0000
,
1003
0010
1000
0010
1000
0000
0010
0000
0100
0001
0100
0001
0100
0000
0010
0000
,
1000
0100
0010
0000
0010
0100
1000
0000
0100
1000
0100
0010
0001
0100
0010
1000
,
0001
0000
0000
0000
;

//--------------- dance-double - M. Emirzian ----------------
#NOTES:
     dance-double:
     M. Emirzian:
     Easy:
     5:
     0.302,0.363,0.169,0.225,0:
00000000
00000000
00000000
00000000
,
00000000
00000000
00000000
00000000
,
00000000
00000000
00000000
00000000
,
00000000
00000000
00000000
00000000
,
20000000
31000000
00200000
00310000
,
02000000
03001000
00020000
00031000
,
00000020
00000130
00002000
00003100
,
00000010
00000001
00000000
00000100
,
00000020
00010030
00002000
00013000
,
00200000
10300000
20000000
30100000
,
00020000
00031000
00000020
00000031
,
00000100
00000020
00010030
00001000
,
00000100
00001000
00010000
01000000
,
10000000
00100000
01000000
01010000
,
00100000
10000000
01000000
00010000
,
00001000
00000000
00000000
00020000
,
00001000
00000000
00000000
00000000
,
00031000
00000010
00000001
00001001
,
00000100
00000010
00010000
00001000
,
00010100
00010000
00001000
00100000
,
01000000
10000000
00100000
01000000
,
20020000
00000000
00000000
30030000
,
00100000
01000000
00001000
00010000
,
00022000
00000000
00000000
00033000
,
00000010
00000001
00000010
00001000
,
00000100
00010000
00001000
00010000
,
00100000
10000000
01000000
00010000
,
01000000
10000000
00100000
01000000
,
00001000
00010000
00000010
00000100
,
00000001
00000100
00001000
00000100
,
00000001
00000100
00001000
00010000
,
01000000
10000000
01000000
00010000
,
01000000
10000000
10010000
00000000
,
01000000
00000000
10100000
00000000
,
11000000
00000000
01010000
00000000
,
00110000
00000000
00011000
00000000
,
00001100
00000000
00000101
00000000
,
00000011
00000000
00001010
00000000
,
00011000
00000000
00101000
00010000
,
01000000
00100000
01000000
00010000
,
01000000
10000000
01000000
00010000
,
10000000
01000000
00010000
00001000
,
00000100
00000001
00000010
00001000
,
00000010
00000001
00001000
00000010
,
00000100
00001000
00000100
00000010
,
00010000
00001000
00000010
00001000
,
00010000
00100000
10000000
10010000
,
00100000
01000000
00010000
10000000
,
02000000
00000000
00000000
00000000
,
03100000
00000000
00000000
00000000
,
00001000
00000000
00000000
00000000
,
00010000
00000000
00000000
00000000
,
00000100
00000000
00000010
00000001
,
00000100
00000000
00000010
00000000
00001000
00000100
00000001
00000000
,
00000100
00000000
00001000
00000000
00000010
00000100
00001000
00000000
,
00010000
00000000
00001000
00000000
01000000
00010000
10000000
00000000
,
01000000
00000000
00100000
00000000
00010000
01000000
00100000
01000000
,
00001000
00000000
00010000
00000000
,
00000100
00001000
00000100
00000001
,
00000100
00001000
00000010
00000000
,
00000100
00000001
00000100
00001000
,
00022000
00000000
00000000
00033000
,
00010000
00100000
10000000
00100000
,
20020000
00000000
00000000
30030000
,
01000000
00000000
00010000
01000000
,
10000000
00000000
00100000
00000000
,
00020000
00031000
00000200
00001300
,
00000200
00000301
00000100
00000000
,
00000010
00000000
00001000
00000000
,
00020020
00000000
00030030
00000000
;

//--------------- dance-double - M. Emirzian ----------------
#NOTES:
     dance-double:
     M. Emirzian:
     Medium:
     8:
     0.43,0.475,0.145,0.048,0.084:
00000000
00000000
00000000
00000000
,
00000000
00000000
00000000
00000000
,
00000000
00000000
00000000
00000000
,
00000000
00000000
00000000
00000000
,
00000000
20000000
00000000
30200000
,
00000000
02300000
00000000
03001000
,
00010000
00001000
00000110
00000011
,
00000020
00000000
00000130
00001010
,
00010000
00001000
00010000
00100000
,
10000000
00010000
01000000
00000000
11000000
00000000
01010000
01000000
,
00010000
00100000
00101000
00010000
,
00000010
00001000
00000100
00000000
00000001
00000100
00001000
00000010
,
00000100
00000100
00010010
00001000
,
00100000
01000000
10000000
00000000
01010000
00000000
11000000
01000000
,
00010000
00000000
01000000
00010000
00100000
00000000
01000000
00000000
,
00100000
00000000
00100000
00000000
,
00100000
00001000
00010000
00000010
,
00000100
00000000
00000000
00000100
00000001
00000000
00000000
00000000
00000100
00000000
00000000
00000100
00000010
00000000
00000000
00000000
,
00000100
00000000
00000000
00000100
00001000
00000000
00000000
00000000
00001000
00000000
00000000
00001000
00010000
00000000
00000000
00000000
,
00010000
00000000
00000000
00010000
00001000
00000000
00000000
00000000
00010000
00000000
00000000
00010000
01000000
00000000
00000000
00000000
,
01000000
00000000
00000000
01000000
10000000
00000000
00000000
00000000
01000000
00000000
10000000
00000000
00010000
00000000
00000000
00000000
,
11000000
00000000
00000000
00000000
01000000
00000000
00000000
01000000
00010000
00000000
00000000
00000000
00010000
00000000
00000000
00010000
,
00001000
00000000
00000000
00000000
00001000
00000000
00000000
00001000
00000010
00000000
00000000
00000000
00000010
00000000
00000000
00000010
,
00000001
00000000
00001000
00000000
00001000
00000100
00000001
00000000
,
00001100
00000000
00000010
00000100
00001000
00010000
01000000
10000000
,
00100000
00000000
00000000
00000000
01000000
00000000
00000000
00000000
00010000
00000000
00000000
00000000
01000000
00000000
00000000
00100000
,
10000000
01000000
00010000
00001000
,
00000010
00000000
00000000
00000000
00000001
00000000
00000000
00000000
00000100
00000000
00000000
00000010
00001000
00000000
00000000
00000000
,
00000100
00000010
00000001
00000000
00000010
00000100
00010000
00001000
,
00100000
00000000
00000000
00000000
00001000
00000000
00000000
00000000
00010000
00000000
00000000
00000000
00010000
00000000
00000000
00010000
,
00001000
00000000
00000000
00000000
00010000
00000000
00000000
00010000
01000000
00000000
00000000
00000000
01000000
00000000
00000000
00000000
,
10000000
00100000
01000000
00000000
00010000
00100000
01000000
00010000
,
00001000
00000000
00000000
00000000
00000010
00000000
00000000
00000000
00000001
00000000
00000000
00000100
00000000
00000000
00000010
00000000
,
00000100
00000000
00000010
00000100
00001000
00000000
00010000
00100000
,
10000000
00000000
01000000
00010000
00001000
00000000
00000010
00000001
,
00000100
00000000
00000001
00000010
00001000
00000000
00010000
00100000
,
10000000
00000000
01000000
00000000
01010000
00000000
11000000
01000000
,
00100000
00000000
00001000
00010000
00000100
00000000
00001000
00000010
,
00000001
00000000
00000010
00001000
00000100
00000000
00000010
00001000
,
00010000
00000000
00100000
10000000
01000000
00000000
00010000
01000000
,
10000000
00000000
00100000
00000000
01010000
00000000
00010000
00100000
,
00101000
00000000
00010000
00000000
00001000
00000000
00000010
00000001
,
00001000
00000100
00000000
00000000
00000100
00000010
00001000
00010000
,
00000000
00000000
00010000
00001000
01000000
00010000
10000000
00000000
,
10000000
01000000
00010000
00001000
00000100
00000001
00001001
00000000
,
00000010
00000100
00001000
00000010
00000000
00000000
00010000
00001000
,
01000000
00010000
00000000
00000000
01000000
00100000
10000000
00010000
,
00000000
00000000
10000000
01000000
00100000
00001000
00010000
00000000
,
00000100
00001000
00000010
00000001
00000010
00001000
00000100
00000000
,
00000010
00000000
00000001
00000000
00000100
00000100
00000000
00000010
,
00000000
00001000
00001000
00000000
00000100
00000000
00000100
00000000
,
00010000
00000000
00010000
00000000
00001000
00001000
00000000
00010000
,
00010000
00001000
01000000
00100000
,
10000000
00000000
01000000
00000000
00010000
00000000
00000000
00000000
00001000
00000000
00000010
00000100
00001000
00000000
00000001
00000000
,
00000100
00000000
00001000
00000000
00010000
00000000
00000000
00000000
00001000
00000000
01000000
00010000
00100000
00000000
01000000
00000000
,
10000000
00000000
01000000
00000000
00010000
00000000
00000000
00000000
00001000
00000000
00000010
00000001
00000100
00000000
00000010
00000000
,
00001000
00000000
00000100
00000000
00010000
00000000
00001000
00000000
00010000
00000000
01000000
00000000
00010000
00001000
00000100
00000001
,
00000010
00000000
00000010
00000000
00000100
00001000
00000100
00000000
,
00000010
00000000
00000010
00000000
00000001
00000010
00000001
00000000
,
00000010
00000000
00000010
00000000
00001000
00010000
00001000
00000000
,
00100000
00000000
00100000
00000000
00010000
01000000
10000000
01000000
,
00010000
00000000
10000000
01000000
00010000
00000000
00001000
00100000
,
00010000
00000000
01000000
00100000
00010000
00001000
00000010
00000000
,
00000100
00000000
00001010
00000000
00000011
00000010
00001000
00000000
,
00000100
00000010
00001000
00000000
00010000
00001000
01000000
00100000
,
20000000
00000000
31000000
01000000
,
01000000
00000000
00010000
00010000
,
00010000
00000000
00001000
00001000
,
00001000
00000010
00000001
00000000
00000100
00000000
00000100
00000010
,
00002000
00000000
00003000
00000000
;

//--------------- dance-double - M. Emirzian ----------------
#NOTES:
     dance-double:
     M. Emirzian:
     Hard:
     9:
     0.608,0.867,0.265,0.097,0.294:
00000000
00000000
00000000
00000000
,
00000000
00000000
00000000
00000000
,
00000000
00000000
00000000
00000000
,
00000000
00000000
00000000
00000000
,
00000000
10000000
10000000
01000000
00010000
00010000
00001000
00020000
,
00000000
00031000
00001000
00010000
00001000
00001000
00000010
00000002
,
00000000
00000103
00000100
00001000
00000100
00001000
00001000
00010000
,
01000000
10000000
00000000
00100000
00000000
10010000
00000000
10000000
,
01000000
00000000
00100000
00010000
01000000
00000000
10000000
01000000
,
00010000
00000000
10100000
00000000
00110000
00000000
00010000
00001000
,
00000010
00000011
00001100
00000101
,
00000001
00000100
00001000
00000000
00000010
00000100
00001000
00010000
,
01000000
00000000
11000000
00000000
01010000
00000000
00010000
01000000
,
10000000
00000000
00100000
00010000
00001000
00010000
00010000
00001000
,
00000010
00000010
00000001
00000100
00001000
00000100
00000001
00000010
,
00001000
00010000
00100000
01000000
00010000
10000000
10000000
00000000
,
02000000
03020000
00032000
00003200
,
00000301
00000000
00000000
00000001
00000100
00000000
00000000
00000100
00001000
00000000
00010000
00000000
01000000
00000000
10000000
00000000
,
20100000
00000000
00000000
00000000
30100000
00000000
10000000
00000000
01000000
00000000
00000000
00000000
10000000
00000000
00000000
10000000
,
01000000
00000000
00000000
01000000
00010000
00000000
00000000
00010000
00001000
00000000
00000100
00000000
00000001
00000000
00000010
00000000
,
00002100
00000000
00000000
00000000
00003010
00000000
00000100
00000000
00000001
00000000
00000000
00000000
00000010
00000000
00000000
00000010
,
00001000
00000000
00000000
00001000
00010000
00000000
00000000
00010000
00100000
00000000
10000000
00000000
00010000
00000000
10000000
00000000
,
20100000
00000000
00000000
00000000
30100000
00000000
00010000
00000000
00001000
00000000
00000000
00000000
00000010
00000000
00000000
00000010
,
00000001
00000000
00000000
00000001
00000100
00000000
00000000
00000100
00001000
00000000
00010000
00000000
00000010
00000000
00010000
00000000
,
00012000
00000000
01003000
00100000
10000000
01000000
00010000
01000000
,
10000000
00100000
10000000
01000000
00100000
00001000
00010000
00100000
,
00010000
00001000
00000010
00000100
00000001
00000100
00001000
00000001
,
00000100
00000010
00010000
00001000
00000010
00001000
00010000
00100000
,
10000000
01000000
00010000
01000000
10000000
00100000
00010000
00100000
,
01000000
00010000
00100000
01000000
00010000
00001000
00000010
00000001
,
00001000
00000100
00000001
00000100
00001000
00000010
00010000
00001000
,
01000000
00010000
10000000
00100000
00010000
00100000
01000000
00010000
,
10000000
01000000
00010000
00001000
00000010
00000001
00000101
00000000
,
00000010
00000000
00000000
00000100
00000000
00000000
00001010
00000000
00000000
00000000
00010000
00000000
00001000
00000000
00000010
00000000
,
00001000
00000000
00000000
00010000
00000000
00000000
10100000
00000000
00000000
00000000
01000000
00000000
00010000
00000000
00001000
00000000
,
00000100
00000000
00000000
00001000
00000000
00000000
00011000
00000000
00000000
00000000
00010000
00000000
00001000
00000000
00000100
00000000
,
00000001
00000010
00001000
00010000
00001000
00000010
00000001
00000000
,
00000100
00000000
00000000
00000010
00000000
00000000
00010010
00000000
00000000
00000000
00010000
00000000
00001000
00000000
00000100
00000000
,
00001000
00000000
00000000
00010000
00000000
00000000
01001000
00000000
00000000
00000000
00100000
00000000
10000000
00000000
01000000
00000000
,
00010000
00000000
00000000
00001000
00000000
00000000
00101000
00000000
00000000
00000000
00001000
00000000
00010000
00000000
00100000
00000000
,
10000000
01000000
00010000
00001000
00010000
01000000
10000000
00000000
,
01000000
00000000
01000000
00100000
00000000
00100000
00001000
00000000
00001000
00010000
00000000
00010000
00000010
00000000
00000000
00000000
,
00000100
00000000
00000100
00000001
00000000
00000001
00000010
00000000
00000010
00000100
00000000
00000100
00010000
00000000
00000000
00000000
,
00001000
00000000
00001000
00100000
00000000
00100000
01000000
00000000
01000000
00010000
00000000
00010000
00001000
00000000
00000010
00000000
,
00000001
00000100
00000010
00000100
00001000
00010000
01000000
10000000
,
00100000
00010000
00100000
10000000
10000000
01000000
00010000
00001000
,
00001000
00000010
00000001
00000100
00000100
00001000
00010000
01000000
,
00100000
00000000
00100000
00010000
00000000
00010000
01000000
00000000
01000000
00100000
00000000
00100000
10000000
00000000
01000000
00000000
,
00010000
00001000
00000010
00000001
00000101
00000011
00001001
00000000
,
00001000
00000000
00000100
00000000
00010000
00011000
00000000
00001000
,
01001000
00000000
00100000
01000000
10000000
00010000
01000000
00000000
,
10100000
00000000
00100000
00000000
01010000
01000000
00000000
00001000
,
01001000
00000000
00010000
00001000
00000010
00000001
00000100
00000000
,
00000010
00000100
00001000
00000100
00000010
00001000
00000100
00000001
00000100
00001000
00000010
00010000
00001000
01000000
00001000
00000000
,
00001000
00100000
01000000
10000000
00010000
01000000
10000000
01000000
00010000
00100000
01000000
10000000
01000000
01000000
01000000
00000000
,
10000000
00100000
00010000
00001000
01000000
00010000
00100000
01000000
00010000
00001000
00000100
00000001
00001000
00000100
00000001
00000000
,
00000001
00000100
00001000
00000010
00000100
00000001
00000100
00001000
00010000
00001000
01000000
00010000
10000000
10000000
10000000
00000000
,
10000000
00000000
00000000
10000000
01000000
00000000
00000000
01000000
00010000
00000000
00000000
00010000
00001000
00000000
00010000
00000000
,
00011000
00000000
00000000
00001000
00000100
00000000
00000000
00000100
00000001
00000000
00000000
00000001
00000010
00000000
00000100
00000000
,
00000110
00000000
00000000
00000010
00000001
00000000
00000000
00000001
00000100
00000000
00000000
00000100
00001000
00000000
00010000
00000000
,
00011000
00000000
00000000
00010000
00100000
00000000
00000000
00100000
10000000
00000000
00000000
10000000
01000000
00000000
00100000
00000000
,
01100000
00000000
01000000
00010000
00001000
00000000
00010000
00001000
,
00000010
00000000
00001000
00000010
00000001
00000100
00000010
00000100
,
00001000
00001000
00010000
00100000
10000000
10000000
01000000
00100000
,
00010000
00010000
10000000
00100000
00010000
00001000
00000100
00001000
,
00011000
00000000
00001000
00000000
00001000
00000000
00001000
00000010
,
00000001
00000000
00000001
00000000
00000001
00000000
00000001
00000100
,
00001000
00000000
00010000
00000000
00010000
00000000
00001000
00010000
,
00100000
00000000
10000000
01000000
00010000
01000000
10000000
01000000
,
02200000
00000000
03300000
00000000
;

//--------------- dance-double - M. Emirzian ----------------
#NOTES:
     dance-double:
     M. Emirzian:
     Challenge:
     11:
     0.748,1,0.249,0.048,0.587:
00000000
00000000
00000000
00000000
,
00000000
00000000
00000000
00000000
,
00000000
00000000
00000000
00000000
,
00000000
00000000
00000000
00000000
,
00000000
00100000
10000000
10000000
01000000
00100000
00100000
00002000
,
00000100
00003100
00001000
00001000
00010000
00100000
00100000
00020000
,
00001000
00031000
00000010
00000010
00000001
00000100
00000100
00000100
,
00000010
00001001
0000M00M
00010100
000M0M00
01001000
0100M000
10010000
,
00010000
01000000
00100000
10000000
10000000
01000000
00100000
00001000
,
00010000
00000100
00000010
00000001
00000001
00000100
00000010
00002000
,
00000100
00003100
00000100
00000010
00000010
00000001
00000100
00000010
,
00001000
00001001
0000M00M
00001100
0000MM00
00110000
00MM0000
01100000
,
10000000
00010000
01000000
00100000
00100000
10000000
00010000
01000000
,
10000000
01000000
00001000
00100000
00100000
01000000
00010000
00002000
,
00000100
00000100
00003100
00001000
00001000
00010000
01000000
00010000
,
00001000
01001000
0M00M000
00110000
00MM0000
00001100
0000MM00
00001001
,
00000011
00000000
00000000
00000000
00000001
00000000
00000000
00000001
00000100
00000000
00000010
00000000
00001000
00000000
00000001
00000000
,
00000010
00000000
00000100
00000000
00010000
00000000
00000100
00000000
00001000
00000000
00000010
00000000
00010000
00000000
00000000
00010000
,
00001000
00000000
00000000
00001000
00000100
00000000
00001000
00000000
00010000
00000000
00001000
00000000
01000000
00000000
00100000
00000000
,
10000000
00000000
01000000
00000000
00100000
00000000
00010000
00000000
10000000
00000000
00100000
00000000
01000000
00000000
00000000
01000000
,
00001000
00000000
00000000
00001000
00010000
00000000
01000000
00000000
00010000
00000000
00000010
00000000
00001000
00000000
00000100
00000000
,
00000001
00000000
00000100
00000000
00001000
00000000
00000010
00000000
00000100
00000000
00001000
00000000
00010000
00000000
00000000
00010000
,
00000100
00000000
00000000
00000100
00000010
00000000
00001000
00000000
00010000
00000000
00000100
00000000
00010000
00000000
00100000
00000000
,
10000000
00000000
00010000
00000000
01000000
00000000
00100000
00000000
10000000
00000000
01000000
00000000
00100000
00000000
00000000
00100000
,
00001000
00000000
00000000
00001000
00010000
00000000
00001000
00000000
00000100
00000000
00000001
00000000
00000010
00000000
00000010
00000000
,
00000010
00000000
00000100
00000000
00001000
00000000
00000100
00000000
00000001
00000000
00000100
00000000
00001000
00000000
00000010
00000100
,
00001000
00000000
00010000
00000000
00001000
00000000
00000100
00000000
00000001
00000000
00000010
00000000
00001000
00000000
00010000
00000010
,
00010000
00001000
00010000
00000000
00001000
00000000
01000000
00000000
00100000
00000000
10000000
00000000
01000000
00000000
00100000
00001000
,
00010000
00000000
00001000
00000000
00010000
00100000
10000000
00010000
10000000
00000000
00010000
00000000
01000000
00000000
00100000
00000000
,
10000000
01000000
00010000
00000000
00001000
00000000
00010000
00000000
00100000
00000000
00010000
00000000
00001000
00000000
00000100
00000010
,
00001000
00000100
00000010
00000001
00000100
00000010
00001000
00000100
,
00000010
00001000
00010000
00000000
00001000
00000000
00001000
00000000
00000100
00001000
00010000
00000000
00100000
00000000
00100000
00000000
,
10000000
00010000
01000000
00000000
00100000
00010000
00001000
00000000
01000000
00100000
10000000
00000000
00010000
00100000
01000000
10000000
,
00100000
00000000
10000000
00010000
00000000
00000000
10000000
00000000
01000000
00000000
00100000
00000000
01000000
00000000
10000000
00000000
,
00010000
00000000
01000000
00001000
00000000
00000000
00010000
00000000
00001000
00000000
00000010
00000000
00000001
00000000
00000010
00000000
,
00000100
00000000
00001000
00000001
00000000
00000000
00000100
00000000
00000010
00000000
00010000
00000000
00000100
00000000
00000010
00000000
,
00000001
00000000
00000100
00000010
00000000
00000000
00010000
00000000
00001000
00000000
01000000
00000000
00100000
00000000
10000000
00000000
,
01000000
00000000
00100000
00010000
00000000
00000000
01000000
00000000
00100000
00000000
00010000
00000000
00100000
00000000
10000000
00000000
,
01000000
00000000
00010000
00001000
00000000
00000000
00010000
00000000
00001000
00000000
00000010
00000000
00001000
00000000
00010000
00000000
,
00000100
00000000
00001000
00000010
00000000
00000000
00000100
00000000
00000001
00000000
00000010
00000000
00001000
00000000
00000010
00000000
,
00000001
00000100
00000010
00000000
00010000
00001000
00010000
00000000
00100000
10000000
01000000
00000000
00100000
00010000
10000000
01000000
,
00100000
00000000
00100000
00010000
00000000
01000000
00001000
00000000
10000000
01000000
00000000
00010000
00001000
00000000
00010000
00000000
,
00001000
00000000
00000100
00000001
00000000
00010000
00000100
00000000
00001000
00000001
00000000
00000100
00000010
00000000
00010000
00000000
,
00001000
00000000
00000100
00001000
00000000
00010000
00100000
00000000
10000000
01000000
00000000
10000000
00100000
00000000
00010000
00000000
,
00000010
00000000
00001000
00000100
00000000
00010000
01000000
00000000
00010000
00001000
00000000
00010000
00100000
00000000
00010000
00000000
,
00001000
00000000
00010000
00000100
00000000
00000010
00000001
00000000
00010000
00001000
00000000
00000010
00000001
00000000
00000100
00000000
,
00001000
00000000
00010000
00001000
00000000
00000100
00001000
00000000
00010000
00100000
00000000
10000000
00100000
00000000
01000000
00000000
,
00010000
00000000
00100000
01000000
00000000
10000000
00010000
00000000
01000000
00001000
00000000
00010000
00000010
00000000
00001000
00000000
,
00000100
00000000
00000010
00001000
00000000
00100000
00010000
00000000
00000010
00001000
00000000
00100000
00010000
00000000
00100000
00000000
,
00001000
00000000
00011000
00000000
00010000
00000010
00001000
00001001
,
00000101
00000000
00000010
00001000
00000100
00000001
00000100
00000000
,
00001000
00000000
00001010
00000000
00000100
00001000
00010000
00001000
,
00101000
00000000
00010000
01000000
00100000
10010000
01000000
10010000
,
00100000
00000000
00010000
00000000
10000000
00000000
01000000
00000000
00100000
00010000
01000000
00000000
00100000
00000000
10010000
00000000
10000000
00000000
01000000
00000000
00010000
00000000
00001000
00000000
00010000
00000000
00001000
00010000
00000010
00001000
00000100
00000000
,
00000010
00000000
00000001
00000000
00000100
00000000
00000010
00000000
00001000
00000100
00000010
00000000
00000001
00000000
00001001
00000000
00000100
00000000
00000010
00000000
00010000
00001000
01000000
00000000
10010000
00000000
01010000
00000000
01100000
00000000
00000000
00000000
,
10000000
00000000
00100000
00000000
01000000
00000000
00001000
00000000
00010000
00100000
10000000
00000000
00010000
00000000
10010000
00000000
10000000
00000000
01000000
00000000
00100000
00000000
00001000
00000000
00010000
00000000
00001000
00010000
00000010
00000100
00000001
00000000
,
00000010
00000000
00000100
00000000
00001000
00000000
00000010
00000000
00001000
00000100
00000010
00000000
00000001
00000000
00001001
00000000
00000100
00000010
00001000
00000000
00000001
00000100
00001000
00000000
00010000
01000000
10000000
00000000
11000000
00000000
01100000
00000000
,
10010000
00000000
00100000
00000000
01000000
00000000
10000000
00100000
00010000
00000000
00100000
00000000
01000000
00000000
00010000
01000000
,
00100000
00000000
00100000
00000000
10000000
00000000
01000000
00000000
01000000
00000000
00010000
00001000
01000000
00001000
00010000
00000100
,
00001000
00000010
00010000
00000000
00000010
00000000
00001000
00000001
00001000
00000000
00000100
00000000
00000010
00000000
00000001
00001000
,
00000010
00000000
00000010
00000000
00000100
00000000
00000001
00000000
00000001
00000100
00000010
00001000
00000100
00010000
00001000
01000000
,
00001000
00010000
00100000
00000000
01000000
00000000
01000000
00100000
10000000
01000000
10000000
00000000
01000000
00000000
00100000
01000000
,
10000000
00100000
01000000
00010000
01000000
00000000
00001000
00000000
00010000
00100000
00010000
00001000
00010000
00000100
00001000
00000001
,
00000010
00000001
00000100
00000000
00000010
00000000
00000010
00000000
00010000
00001000
00000100
00000000
00001000
00000000
00001000
00000000
,
00010000
00100000
01000000
00000000
00001000
00000000
00001000
00000000
00100000
01000000
10000000
00000000
00010000
01000000
00001000
00010000
,
00000010
00000000
00001000
00000000
00000100
00000000
00000010
00000001
00000000
00000000
00000100
00000000
00000010
00000000
00010000
00000000
,
00010000
00000000
00001000
00000000
00000100
00000000
00000001
00001000
00000000
00000000
00000100
00000000
00000010
00000000
00001000
00000000
,
00001000
00000000
00010000
00000000
00100000
00000000
00010000
00001000
00000000
00000000
01000000
00000000
00100000
00000000
10000000
00000000
,
10000000
00000000
01000000
00000000
00100000
00000000
00001000
00010000
00000000
00001000
00000100
00000000
00000001
00000010
00000100
00001000
,
00002002
00000000
00003003
00000000
;

//--------------- lights-cabinet - ----------------
#NOTES:
     lights-cabinet:
     :
     Easy:
     1:
     0.484,1,0.418,0.024,0.129:
000000
000000
000000
000000
,
000000
000000
000000
000000
,
000000
000000
000000
000000
,
000000
000000
000000
000000
,
000100
010000
001000
010000
,
000100
000100
010000
001000
,
100000
001000
010000
001000
,
111100
000000
000000
000000
,
000100
001000
000100
000000
001000
000000
001000
000000
,
100000
010000
100000
000000
010000
000000
010000
000000
,
000100
001000
000100
000000
001000
000000
001000
000000
,
000100
010000
000000
010000
000100
000000
010000
000000
,
000100
001000
000100
000000
001000
000000
001000
000000
,
000100
001000
000100
000000
001000
000000
001000
000000
,
100000
010000
100000
000000
010000
000000
010000
000000
,
000100
001000
000000
000100
011000
000000
100100
000000
,
022000
000000
033000
000000
,
000100
001000
000100
000000
001000
000000
000100
000000
,
001000
100000
001000
000000
100000
000000
001000
000000
,
000100
001000
000100
000000
001000
000000
010000
000000
,
001000
100000
000000
010000
001000
000000
000100
000000
,
000100
001000
000100
000000
001000
000000
000100
000000
,
001000
100000
001000
000000
100000
000000
001000
000000
,
000100
001000
000100
000000
001000
000000
010000
000000
,
001000
100000
000000
010000
001000
000000
000100
000000
,
000100
001000
000100
000000
001000
000000
000100
000000
,
001000
100000
001000
000000
100000
000000
001000
000000
,
000100
001000
000100
000000
001000
000000
010000
000000
,
001000
100000
000000
010000
001000
000000
000100
000000
,
000100
001000
000100
000000
001000
000000
000100
000000
,
001000
100000
001000
000000
100000
000000
001000
000000
,
000100
001000
000100
000000
001000
000000
010000
000000
,
001000
100000
000000
010000
001000
000000
000100
000000
,
001000
010000
001000
100100
,
100000
000100
100000
011000
,
001000
010000
001000
100100
,
100000
000000
001000
000000
010000
001000
010000
001000
,
100100
010000
001000
011000
,
100000
000000
000100
000000
020000
000000
001000
030000
,
101000
010000
011000
100100
,
100000
000100
001000
000100
010000
000000
011000
000000
,
100000
001000
011000
000000
100100
000000
011000
000000
,
100100
011000
100100
000000
011000
000000
100100
000000
,
001000
100000
010000
000000
000100
000000
100000
001000
,
010100
111100
000000
100100
,
011000
100100
011000
100100
,
111100
010000
011000
000000
000000
000000
000100
000000
,
100000
001000
100100
000100
,
011000
000000
000000
111100
,
000100
001000
000100
000000
001000
000000
000100
000000
,
001000
100000
001000
000000
100000
000000
001000
000000
,
000100
001000
000100
000000
001000
000000
010000
000000
,
001000
100000
000000
010000
001000
000000
000100
000000
,
100000
000100
010000
001000
100011
000100
010000
001000
100000
000100
010000
001000
100011
000100
010000
001000
,
100000
000100
010000
001000
100011
000100
010000
001000
100000
000100
010011
001000
100011
000100
010011
001000
,
100000
000100
010000
001000
100011
000100
010000
001000
100000
000100
010000
001000
100011
000100
010000
001000
,
100000
000100
010000
001000
100011
000100
010000
001000
100000
000100
010011
001000
100000
000100
010011
001000
,
100000
000000
010000
000100
010000
000000
001000
000000
,
001000
000000
001000
010000
000100
000000
001000
000000
,
000100
000000
010000
000100
010000
000000
001000
000000
,
001000
100000
000000
000100
,
000100
000000
010000
000100
010000
000000
001000
000000
,
001000
000000
001000
010000
000100
000000
001000
000000
,
000100
000000
010000
000100
010000
000000
001000
000000
,
001000
100000
111100
011000
,
001100
110000
100100
000100
,
100000
100000
001000
010000
,
000100
000100
010000
010000
,
000100
100000
011000
000000
010000
001000
100100
000000
,
111100
000000
000000
000000
;
