#TITLE:It's Not Right But It's Okay (Thunderpuss Club Mix);
#SUBTITLE:;
#ARTIST:Whitney Houston;
#TITLETRANSLIT:;
#SUBTITLETRANSLIT:;
#ARTISTTRANSLIT:;
#GENRE:;
#CREDIT:;
#MUSIC:itsnotrightbutitsokay.ogg;
#BANNER:itsnotrightbutitsokay.png;
#BACKGROUND:itsnotrightbutitsokay-bg.png;
#CDTITLE:;
#SAMPLESTART:0.000;
#SAMPLELENGTH:0.000;
#SELECTABLE:YES;
#OFFSET:-7.464;
#BPMS:0.000=130.000
,157.000=67.000
,158.000=130.000
,185.000=97.500
,186.000=65.040
,187.000=130.000
,193.000=40.625
,194.000=130.000
;
#STOPS:187.000=0.216;
#BGCHANGES:;
#FGCHANGES:;

//--------------- dance-single - ----------------
#NOTES:
     dance-single:
     :
     Easy:
     4:
     0,0,0,0,0:
1000
1000
0010
0100
,
0001
0000
0001
0000
,
0010
0010
0100
0001
,
0100
0000
0010
0000
,
1000
0000
0000
0000
,
0001
0000
0000
0000
,
0010
0000
0000
0000
,
0000
0000
0000
0100
,
1000
0000
1000
0000
,
0001
0000
0001
0000
,
0010
0000
0100
0000
,
0010
0000
0100
0000
,
1000
1000
1000
0000
,
0001
0001
0001
0000
,
0100
0000
0001
0000
,
0010
0000
1000
0000
,
1000
0001
1000
0000
,
0010
0100
0010
0000
,
1001
0000
1001
0000
,
0220
0000
0000
0330
,
2000
0000
0000
3000
,
0002
0000
0000
0003
,
0100
0100
0010
0010
,
0110
0000
0000
0000
,
0100
0100
0100
0100
,
0010
0010
0010
0010
,
1000
0001
1000
0001
,
0220
0000
0000
0330
,
1000
0000
1001
0000
,
0001
0000
1001
0000
,
0100
0000
0010
0000
,
0010
0000
0100
0000
,
1000
0002
0000
0003
,
0001
2000
0000
3000
,
1000
1000
0001
0001
,
0010
0010
0100
0100
,
2002
0000
0000
3003
,
0100
0000
0010
0000
,
1000
0000
0001
0000
,
2002
3003
0000
0100
,
0000
0010
0000
1000
,
0000
0001
0000
1000
,
1000
0001
0001
0010
,
0100
0010
0100
1001
,
0000
0000
1001
0000
,
0000
1001
0000
1000
,
0001
2002
3003
0000
,
0000
0000
0000
0000
,
0000
0000
0000
0000
0000
0220
0000
0000
0000
0000
0000
0000
0000
0000
0000
0000
0000
0000
0000
0000
0000
0000
0000
0000
0000
0000
0000
0000
0000
0000
0000
0000
,
0000
0000
0000
0000
,
0000
0000
0330
1000
,
0000
0001
0000
1001
,
0000
1001
0000
1001
,
0000
0110
0000
1000
,
1000
0001
0001
0100
,
0100
0010
0100
1000
,
0100
0010
0001
1000
,
0010
0100
0001
0100
,
0110
0100
0110
1001
,
0000
0000
0110
0000
,
1001
0000
0110
0000
,
2002
0000
0000
3003
;

//--------------- dance-single - ----------------
#NOTES:
     dance-single:
     :
     Medium:
     8:
     0,0,0,0,0:
0100
0000
0010
0000
1000
0001
1000
0000
,
1000
0000
0010
0000
0100
0001
0100
0000
,
1000
1100
0010
0011
,
2002
0000
0000
3003
,
0010
0000
0100
0000
1000
0100
0001
0000
,
0010
0000
0100
0000
0001
0100
1000
0000
,
1000
0000
0010
0000
1000
0100
1000
0000
,
0001
0000
0010
0000
0100
0001
0100
0000
,
1000
0100
0010
0001
,
0010
1100
0100
0011
,
0100
0000
0010
0000
0100
0010
0100
0000
,
1000
0000
0001
0000
1000
0001
1000
0000
,
0010
1000
0100
0001
,
0100
1000
0010
0001
,
1000
0100
0001
0000
0001
0100
1000
0000
,
1000
0010
0001
0000
0001
0010
1000
0000
,
0200
0010
0001
0310
,
2000
0010
0100
3010
,
0020
0100
1000
0130
,
2002
0000
0000
3003
,
1000
0100
2000
0000
0001
0000
3000
0000
,
0001
0010
0002
0000
1000
0000
0003
0000
,
1010
0101
1001
0110
,
1001
0000
1000
0100
0010
0001
1000
0000
,
1100
0010
1100
0010
,
1001
0000
0100
0010
0001
1000
0100
0000
,
1100
0011
1001
0110
,
2002
0000
0000
3003
,
1000
0010
1000
0000
1000
0010
1000
0000
,
0002
0010
0100
1003
,
0001
0010
0001
0000
0001
0010
0001
0000
,
1000
1100
0010
0011
,
0100
0010
0100
0000
0010
0100
0010
0000
,
2002
0000
0000
3003
,
1010
0011
0101
1100
,
0101
0011
1010
1000
,
0002
0010
0100
1003
,
1000
0100
0010
0000
1000
0100
0010
0000
,
0001
0100
0010
0000
0001
0100
0010
1000
,
0000
2002
0000
0000
3003
0000
1010
0000
,
0100
0101
0010
1010
,
0010
1100
0010
0101
,
0100
1010
1000
1001
,
0010
1001
0100
1001
,
0100
0110
0100
0110
,
0100
0001
0100
0001
0100
0001
1000
0000
,
0001
2002
0000
3003
,
1000
0001
1000
0000
0000
0000
0000
0000
,
0000
0000
0000
2002
0000
0000
0000
0000
3000
0000
0000
0000
0010
0000
0000
0000
,
0100
0010
0100
1000
,
0010
1000
0010
0100
,
0100
0000
0010
0000
1003
0000
1000
0100
,
0010
0000
0100
0010
0001
0000
0001
0010
,
0100
0000
1001
0000
0100
0000
1000
0100
,
0001
0000
0001
0100
1000
0000
1000
0100
,
1000
0000
0001
0010
0001
0000
1000
0000
,
1100
0010
0011
2002
,
0000
0000
0000
0000
3003
0000
1000
0100
,
0010
0000
1000
0100
0010
0000
1000
0100
,
0001
0000
0001
0010
1000
0000
1000
0000
,
1010
0100
0101
1001
,
0110
2002
3003
0000
;

//--------------- dance-single - ----------------
#NOTES:
     dance-single:
     :
     Hard:
     12:
     0,0,0,0,0:
1010
0000
0000
0200
0000
0000
0301
0000
0011
0000
0000
0200
0000
0000
1300
0000
,
1001
0000
0000
0200
0000
0000
0310
0000
1001
0000
0000
2000
0000
0000
3010
0000
,
1100
0000
1000
0100
0011
0000
0010
0100
,
1100
0000
0000
0011
0000
0000
0101
0000
1010
0000
1000
0001
1000
0000
0010
0000
,
0100
0001
0010
0100
1000
0010
0100
0001
,
1000
0000
1001
0000
0100
0000
0020
0000
1000
0000
0000
1000
0000
0000
1030
0000
,
0100
0000
0110
0000
1000
0000
0002
0000
0010
0000
0000
0010
0000
0000
0013
0000
,
0001
0000
0101
0000
1000
0000
0020
0000
0100
0000
0000
0130
0000
0000
0001
0000
,
1000
0010
1000
0010
0100
0001
1000
0010
,
0100
0001
0010
0100
1100
0011
2200
3300
,
1000
0000
0200
0000
0000
0000
0310
0000
0001
0000
0000
0001
0000
0000
0001
0000
,
0010
0000
0200
0000
0000
0000
1300
0000
0010
0000
0000
0010
0000
0000
0010
0000
,
1100
0010
0001
0000
0011
0100
1000
0010
,
0200
0000
0300
0000
1001
0000
0020
0000
0100
0000
0000
1000
0000
0000
0130
0000
,
1001
0000
1000
0000
0000
0000
0002
0000
0010
0000
0000
0100
0000
0000
1003
0000
,
0110
0000
1000
0000
0000
0000
0020
0000
0100
0000
0000
0001
0000
0000
1030
0000
,
0010
0100
0001
1000
0100
0001
0100
1000
,
0010
0100
0001
0010
0001
0100
0001
0010
,
1001
0000
0000
1000
0001
1000
0010
0000
1000
0000
0000
0100
0000
0000
0010
0000
,
1100
0000
0000
0011
0000
0000
1100
0000
1001
0000
1000
0000
0020
0000
0000
0000
,
0130
1000
0100
0001
0100
1000
0020
0000
,
1000
0000
0000
0030
0000
0000
0100
0000
0001
0000
0000
0000
0000
0000
0000
0000
1010
0000
0000
0000
0100
0000
0000
0000
0010
0000
0000
0000
0001
0000
0000
0000
,
1000
1000
0010
0010
0100
0100
0001
0001
,
1001
0000
0010
1000
0001
0010
0100
1000
,
1010
0010
0100
0001
0010
0100
1000
0010
,
0202
0000
0303
1000
0001
0100
0001
0100
,
0010
1000
0010
1000
0001
0100
1000
0100
,
1010
0000
0000
0011
0000
0000
0101
0000
0011
0000
0000
1010
0000
0000
1100
0000
,
1000
0010
0100
0001
0010
0100
0002
0000
,
0013
0100
1000
0100
0000
1000
0010
0100
,
0001
0010
0002
0000
1000
0000
0000
0013
,
0100
0000
0100
0000
1000
0000
1000
0000
0010
0000
0000
0100
0010
0000
1000
0000
,
1001
0000
0100
0000
0010
0000
0100
0000
0001
0000
0000
0010
0000
0000
0100
1000
,
0001
0000
0100
0010
1000
0000
0001
0100
0020
0000
0000
0000
1030
0000
0000
0000
,
2000
3020
0230
0302
,
0023
0000
0230
0000
2300
0000
3002
0003
,
1001
0000
0010
0000
0000
0000
0200
0000
1000
0000
0000
1300
0000
0000
0010
0100
,
0002
0000
0000
0000
0013
0000
0000
0000
1010
0000
0000
1100
0000
0000
1010
0000
,
2000
0000
0000
0000
3010
0000
0000
0000
0101
0000
0000
1001
0000
0000
0101
0000
,
1001
0000
0010
0100
0020
0000
0000
0000
0030
0000
0000
0000
1001
0000
0000
0100
,
0000
0000
0010
0000
1100
0000
0000
0010
0000
0000
0001
0000
1010
0000
0100
0000
,
0001
0010
0100
1000
0010
0000
0100
0001
,
0020
0000
0130
1000
0002
0000
0013
0100
,
2000
0000
0000
0000
3010
0000
0100
0000
0001
0000
0000
0000
1010
0000
0000
0100
,
0000
0000
0010
0000
0101
0000
0000
0010
0000
0000
0100
0000
1000
0000
0001
0000
,
0100
0000
0000
0010
0000
0000
1000
0000
0000
0100
0000
0000
0010
0000
0000
0001
0000
0000
0010
0000
0010
0000
0010
0000
,
0100
0100
0100
2002
0000
0000
0000
0000
0000
3003
0000
0000
,
0000
1000
0000
0000
0000
0100
0000
0000
0000
0010
0000
0000
0000
0001
0000
0000
0000
1000
0000
0000
0000
0000
0000
0000
0000
0000
0000
0000
0100
0000
0000
0000
0000
0000
0000
0000
0000
0000
0000
0000
0000
0000
0000
0000
0000
0000
0000
0000
0000
0000
0000
0000
0100
0000
0000
0000
0000
0000
0000
0000
0000
0000
0000
0100
,
0000
0000
0000
0000
0000
0220
0000
0000
0000
0000
0000
0000
0000
0000
0000
0000
0000
0000
0000
0000
0300
0000
0000
0000
0100
0000
0000
0000
0000
0000
0100
0000
,
0000
0000
0100
0000
0001
0000
0000
0001
0000
0000
0001
0000
1000
0000
0000
1000
,
0000
0000
1000
0000
0100
0000
0000
0001
0000
0000
1030
0000
1000
0000
0100
0000
,
0010
0000
0001
0000
1000
0000
0010
0000
1000
0000
0010
0000
2000
0000
0000
0100
,
0000
0000
3010
0000
0002
0000
0000
0100
0000
0000
0013
0000
0110
0000
0000
1001
,
0000
0000
1010
0000
0101
0000
0100
0010
0100
0000
0000
0000
1000
0000
0100
0000
,
0010
0000
0001
0100
0020
0000
1030
0000
,
1001
0000
0100
0010
2000
0000
3001
0010
,
0100
1000
0010
0100
0001
0100
0010
0000
,
1010
0000
0100
0000
0101
0000
1001
0100
,
0010
0100
0002
0000
1003
0000
0110
1000
,
0001
0000
1000
0000
0002
0000
0000
0000
1003
0000
0000
0000
1010
0000
0000
0101
,
0000
0000
0011
0000
1100
0000
0000
1001
0000
0000
0110
0000
1000
0000
0000
0001
,
0000
0110
2002
0000
3003
0000
0000
0000
;
