#TITLE:Infection;
#SUBTITLE:;
#ARTIST:Inspector K;
#TITLETRANSLIT:;
#SUBTITLETRANSLIT:;
#ARTISTTRANSLIT:;
#GENRE:;
#CREDIT:;
#MUSIC:Infection.ogg;
#BANNER:infection-bn.png;
#BACKGROUND:Infection-bg.png;
#CDTITLE:;
#SAMPLESTART:25.430;
#SAMPLELENGTH:11.180;
#SELECTABLE:YES;
#OFFSET:-0.017;
#BPMS:0.000=170.000;
#STOPS:;
#BGCHANGES:;
#FGCHANGES:;

//--------------- dance-single - M. Puls ----------------
#NOTES:
     dance-single:
     M. Puls:
     Beginner:
     1:
     0.080081,0.137028,0.077857,0,0,72,62,10,0,0,0,0.080081,0.137028,0.077857,0,0,72,62,10,0,0,0:
0000
0000
0000
0000
,
0000
0000
0000
0000
,
0000
0000
0000
0000
,
0000
0000
0000
0000
,
1000
0000
0000
0000
,
0000
0000
0000
0000
,
0001
0000
0000
0000
,
0000
0000
0000
0000
,
0100
0000
0000
0000
,
0000
0000
0000
0000
,
0010
0000
0000
0000
,
0000
0000
0000
0000
,
0100
0000
0000
0000
,
0000
0000
0000
0000
,
0001
0000
0000
0000
,
0000
0000
0000
0000
,
1001
0000
0000
0000
,
0000
0000
0000
0000
,
1000
0000
0000
0000
,
0000
0000
0000
0000
,
1000
0000
0000
0000
,
0000
0000
0000
0000
,
0001
0000
0000
0000
,
0000
0000
0000
0000
,
0001
0000
0000
0000
,
0000
0000
0000
0000
,
0100
0000
0000
0000
,
0010
0000
0000
0000
,
1000
0000
0000
0000
,
0001
0000
0000
0000
,
0100
0000
0000
0000
,
0010
0000
0000
0000
,
1000
0000
0000
0000
,
0001
0000
0000
0000
,
0000
0000
0000
0000
,
1001
0000
0000
0000
,
0000
0000
0000
0000
,
1001
0000
0000
0000
,
0000
0000
0000
0000
,
0001
0000
0000
0000
,
0000
0000
0000
0000
,
1001
0000
0000
0000
,
0000
0000
0000
0000
,
1000
0000
0000
0000
,
0010
0000
0000
0000
,
1001
0000
0000
0000
,
0000
0000
0000
0000
,
0100
0000
0000
0000
,
0010
0000
0000
0000
,
1001
0000
0000
0000
,
0000
0000
0000
0000
,
0100
0000
0000
0000
,
0100
0000
0000
0000
,
0010
0000
0000
0000
,
0010
0000
0000
0000
,
1000
0000
0000
0000
,
1000
0000
0000
0000
,
0001
0000
0000
0000
,
0001
0000
0000
0000
,
0100
0000
0000
0000
,
0010
0000
0000
0000
,
1000
0000
0000
0000
,
0001
0000
0000
0000
,
1000
0000
0000
0000
,
0100
0000
0000
0000
,
0010
0000
0000
0000
,
0010
0000
0000
0000
,
1001
0000
0000
0000
,
0000
0000
0000
0000
,
0100
0000
0000
0000
,
0000
0000
0000
0000
,
1001
0000
0000
0000
,
0000
0000
0000
0000
,
0010
0000
0000
0000
,
0100
0000
0000
0000
,
0001
0000
0000
0000
,
1000
0000
0000
0000
,
0100
0000
0000
0000
,
1000
0000
0000
0000
,
0010
0000
0000
0000
,
0100
0000
0000
0000
,
0001
0000
0000
0000
,
1000
0000
0000
0000
,
0000
0000
0000
0000
,
1001
0000
0000
0000
,
0000
0000
0000
0000
,
0100
0000
0000
0000
,
0010
0000
0000
0000
,
1001
0000
0000
0000
;

//--------------- dance-single - M. Puls ----------------
#NOTES:
     dance-single:
     M. Puls:
     Easy:
     4:
     0.222448,0.308313,0,0.132356,0,200,200,0,17,0,0,0.222448,0.308313,0,0.132356,0,200,200,0,17,0,0:
0000
0000
0000
0000
,
0000
0000
0000
0000
,
0000
0000
0000
0000
,
0000
0000
0000
0000
,
2000
0000
0000
0000
,
3000
0000
0000
0000
,
0002
0000
0000
0000
,
0003
0000
0000
0000
,
1000
1000
1000
0000
,
0000
0000
0000
0000
,
0001
0001
0001
0000
,
0000
0000
0000
0000
,
0100
0100
0100
0000
,
0000
0000
0000
0000
,
0010
0010
0010
0000
,
0000
0000
1000
0000
,
0001
0000
0000
0000
,
1000
0000
0001
0001
,
1000
0100
1000
1000
,
0100
0000
2000
0000
,
3001
0001
0001
0010
,
0001
0000
0200
0300
,
0001
0010
0001
0001
,
0010
0000
0002
0000
,
1003
1000
1000
0100
,
1000
0000
0020
0030
,
1000
1000
1000
0010
,
0200
0000
0301
0000
,
0001
0001
0100
0001
,
0200
0000
0310
0000
,
1000
1000
0100
1000
,
0020
0000
0130
0000
,
0001
0010
0001
0001
,
2000
0000
3010
0000
,
1000
0000
0000
0000
,
0010
0000
0000
0000
,
0010
0000
0000
0000
,
0100
0000
0000
0000
,
0010
0000
0010
0000
,
1000
0000
0000
0000
,
1000
0000
0000
0000
,
0001
0000
0000
0000
,
0100
0000
0100
0000
,
0010
0000
0010
0000
,
0010
0000
0010
1000
,
0100
0000
0000
0000
,
1000
1000
1000
0000
,
0001
0000
0001
0000
,
0001
0000
0001
0100
,
0010
0000
0000
0000
,
1000
0001
1000
0001
,
1000
1000
1000
0000
,
0000
0000
0000
0000
,
0001
0001
0001
0000
,
0000
0000
0000
0000
,
0100
0100
0100
0000
,
0000
0000
0000
0000
,
0010
0010
0010
0000
,
0100
0000
0010
0000
,
1000
0001
1000
0001
,
1000
0000
0010
0000
,
1000
0001
1000
0001
,
1000
1000
0010
0000
,
1000
1000
0001
0001
,
1000
1000
0010
0000
,
1000
0001
1000
0001
,
1000
0000
0001
0000
,
1000
0100
1000
1000
,
0100
0000
2000
0000
,
3001
0001
0001
0010
,
0001
0000
0200
0300
,
0001
0010
0001
0001
,
0010
0000
0002
0000
,
1003
1000
1000
0100
,
1000
0000
0010
0010
,
1000
1000
1000
0010
,
0100
0100
0002
0003
,
0001
0001
0100
0001
,
0100
0100
0020
0030
,
1000
1000
0100
1000
,
0010
0010
0200
0300
,
0001
0010
0001
0001
,
1000
1000
0020
0000
,
1030
0000
0000
0000
,
1000
0000
0000
0000
,
0010
0000
0100
0000
,
0001
0000
0000
0000
,
0001
1000
0001
1000
,
0001
0000
0000
0000
;

//--------------- dance-single - M. Puls ----------------
#NOTES:
     dance-single:
     M. Puls:
     Medium:
     8:
     0.377049,0.376827,0.046714,0.194642,0,339,333,6,25,0,0,0.377049,0.376827,0.046714,0.194642,0,339,333,6,25,0,0:
0000
0000
0000
0000
,
0000
0000
0000
0000
,
0000
0000
0000
0000
,
0000
0000
0000
0000
,
2000
0000
0000
0000
,
3100
0000
0100
0100
,
0002
0000
0000
0000
,
0013
0000
1000
0100
,
1000
0000
1000
0000
1000
0001
1000
0000
,
0100
0010
0001
0100
,
0010
0000
1000
0000
0010
0100
0010
0000
,
0100
0001
1000
0100
,
0100
0000
1000
0000
0001
1000
0010
0000
,
1000
1000
0010
0100
,
0010
0000
1000
0000
0001
0100
0001
0000
,
0100
0001
0100
0010
,
1000
0000
0000
0000
,
0001
0000
0000
0000
,
1000
0000
0100
0000
1000
0100
0010
0000
,
0001
0000
0010
0100
2000
0000
0000
0000
,
3010
0000
0100
0000
0001
0010
0100
0000
,
1000
0000
0001
0100
0002
0000
0003
0000
,
0100
0000
0010
0000
1000
0010
0100
0000
,
0001
0000
0200
0310
2000
0000
0000
0000
,
3100
0000
0010
0000
0001
0100
0010
0000
,
1000
0001
0200
0300
,
0010
1000
0010
1000
,
1000
0100
0010
0001
2000
0000
0000
0000
,
3001
0100
0001
0100
,
0001
0010
0100
1000
0002
0000
0000
0000
,
0103
0001
0100
0001
,
0001
0010
0100
1000
0002
0000
0000
0000
,
1003
0010
1000
0010
,
1000
0100
0010
0001
2000
0000
0001
0000
,
3001
0000
0000
0000
,
1100
0010
0001
0001
,
0010
0200
1000
1300
,
2000
0000
0000
0000
,
3001
0000
0001
0000
0001
1000
0001
0000
,
1100
0010
0001
0001
,
0010
0200
1000
1300
,
2000
0000
0000
0000
,
3010
0000
0100
0000
0001
1000
0001
0000
,
0011
0100
1000
1000
,
0100
0020
0001
0031
,
0002
0000
0000
0000
,
1003
0000
1000
0000
1000
0001
1000
0000
,
0011
0100
1000
1000
,
0100
0020
0001
0031
,
0002
0000
0000
0000
,
0013
0000
0001
0000
1000
0001
1000
0000
,
0100
0010
0001
0100
,
0010
0000
0100
0000
0001
0000
1000
0010
,
1000
1000
0010
0100
,
0100
0000
0001
1000
0001
0000
1000
0001
,
0100
0010
1000
0100
,
0010
0000
0001
0000
0100
0000
0010
1000
,
0010
1000
0100
1000
,
1000
0000
0010
1000
0100
0000
1000
0000
,
1000
0010
0100
0001
,
0100
0010
1000
0100
,
1000
0010
0100
0001
,
0001
0000
1000
0000
,
0001
0100
0010
1000
,
0010
0100
0001
0010
,
0001
0100
0010
1000
,
1000
0000
0010
0000
,
0001
0000
0010
0000
0001
0010
0100
0000
,
1000
0000
0100
0010
0002
0000
0000
0000
,
0103
0000
0010
0000
1000
0100
0010
0000
,
0001
0000
1000
0010
2000
0000
3000
0000
,
0010
0000
0100
0000
0001
0100
0010
0000
,
1000
0000
0020
0130
0002
0000
0000
0000
,
0013
0000
0100
0000
1000
0010
0100
0000
,
0001
1000
0020
0030
,
0100
0001
0100
0001
,
0001
0010
0100
1000
0001
0000
0001
0000
,
1000
0010
1000
0010
,
1000
0100
0010
0001
1000
0000
1000
0000
,
0010
1000
0010
1000
,
1000
0100
0010
0001
1000
0000
1000
0000
,
0001
0100
0001
0100
,
0001
0010
0100
1000
0001
0000
1000
0000
,
2000
0000
3000
0000
,
0011
0100
0001
0001
,
1000
0010
1000
0000
,
1100
0010
1000
1000
,
0001
0000
0100
0000
0001
0000
1000
0010
,
1000
0000
0000
0000
;

//--------------- dance-single - D. D'Amato ----------------
#NOTES:
     dance-single:
     D. D'Amato:
     Hard:
     13:
     0.615068,0.585678,0.358141,0.163499,0,553,507,46,21,18,0,0.615068,0.585678,0.358141,0.163499,0,553,507,46,21,18,0:
0000
0000
0000
0000
,
0000
0000
0000
0000
,
0000
0000
0000
0000
,
0000
0000
0000
0000
,
1001
0000
0000
0101
0000
0110
0000
0010
,
1000
0000
0000
0001
0100
0001
1000
0000
,
1001
0000
0000
1100
0000
0110
0000
0010
,
0001
0000
0000
1000
0100
1000
0001
0000
,
0010
0000
0001
0000
1000
0001
1000
0010
,
0000
1000
0000
0001
0100
0000
0001
0000
,
0010
0000
0001
0000
1000
0001
1000
0100
,
0000
1000
0000
0001
0010
0000
0110
0000
,
0100
0000
1000
0000
0001
1000
0001
0100
,
0000
0001
0000
1000
0010
0000
1000
0000
,
0100
0000
1000
0000
0001
1000
0001
0010
,
0000
0001
0000
1000
0100
0000
0110
0000
,
0010
0000
0001
0100
0000
0001
1000
0100
,
0010
0000
0100
0000
0010
0001
1000
0000
,
0001
0100
0001
1000
0100
1000
0001
0100
,
0001
1000
0100
1000
0020
0000
0001
0000
,
1030
0100
1000
0001
0100
0001
1000
0100
,
1000
0001
0100
0001
0020
0000
1000
0000
,
0031
1000
0100
1000
0001
0100
0001
1000
,
0100
1000
0001
0100
0020
0000
0001
0000
,
1030
0001
0100
0001
1000
0100
1000
0001
,
0100
0001
1000
0100
0020
0000
1000
0000
,
0031
1000
0010
1000
0001
01M0
0001
1000
,
0M10
1000
0001
0100
0020
0000
0001
0000
,
1030
0001
0010
0001
1000
01M0
1000
0001
,
0M10
0001
1000
0100
0020
0000
1000
0000
,
0130
0001
0100
0010
M001
0010
0100
M001
,
0100
0010
M001
0100
0020
0000
0001
0000
,
0130
1000
0100
0010
100M
0010
0100
100M
,
0100
0010
100M
0100
0020
0000
1000
0000
,
0230
0000
0010
0000
1300
0001
0100
0000
,
0110
0000
0010
0100
1000
0100
0001
0000
,
1001
0000
1000
0001
0100
0001
0010
0000
,
0021
0000
0031
0100
0000
0010
0000
0100
,
0001
1000
0100
0001
0100
1000
0010
0000
,
0110
0000
0100
0010
0001
0010
1000
0000
,
1001
0000
0001
1000
0010
1000
0100
0000
,
1200
0000
1300
0010
0000
0010
1000
0000
,
0001
0100
1000
0100
0001
0010
0100
0000
,
0110
0000
0010
0100
0001
0100
1000
0000
,
1001
0000
0001
1000
0010
1000
0100
0000
,
2100
0000
3001
0010
0000
0010
0001
0000
,
1000
0010
0001
0010
1000
0100
0010
0000
,
0110
0000
0100
0010
1000
0010
0001
0000
,
1001
0000
1000
0001
0100
0001
0010
0000
,
0012
0000
1003
0100
0000
0010
0000
0100
,
1000
0001
0010
1000
0010
0001
0100
0000
,
1010
0000
0101
0000
0100
0001
0010
0001
,
0000
1000
0000
0001
0010
0000
0110
0000
,
0011
0000
1100
0000
0100
1000
0010
1000
,
0000
0001
0000
1000
0100
0000
0110
0000
,
0011
0000
0101
0000
0001
0100
1000
0100
,
0000
0010
0000
1000
0100
0000
0110
0000
,
1100
0000
1010
0000
1000
0010
0001
0010
,
0000
0100
0000
0001
0010
0000
0110
0000
,
1001
0000
0001
1000
0100
0010
0001
0100
,
0000
0010
1000
0001
0010
0000
0110
0000
,
1001
0000
1000
0100
1000
0010
0100
0001
,
0000
0010
0100
1000
0001
0100
0001
0000
,
1001
0000
1000
0001
0100
0010
1000
0100
,
0000
0010
0001
1000
0010
0000
0110
0000
,
1001
0000
1000
0100
0000
0110
0000
0011
,
0000
1001
0000
0001
0100
0000
0110
0000
,
0010
1000
0001
0010
1000
0001
0010
1000
,
0001
0010
1000
0001
0020
0000
1000
0000
,
0031
1000
0100
0001
1000
0100
0001
1000
,
0100
0001
1000
0100
0002
0000
1000
0000
,
0103
1000
0001
0100
1000
0001
0100
1000
,
0001
0100
1000
0001
0200
0000
1000
0000
,
0301
1000
0010
0001
1000
0010
0001
1000
,
0010
0001
1000
0010
0001
1000
10M0
100M
,
0100
0001
1000
0100
0001
1000
0100
0001
,
1000
0100
0001
1000
0200
0000
0001
0000
,
1300
0001
0010
1000
0001
0010
1000
0001
,
0010
1000
0001
0010
2000
0000
0001
0000
,
3010
0001
1000
0010
0001
1000
0010
0001
,
1000
0010
0001
1000
0020
0000
0001
0000
,
1030
0001
0100
1000
0001
0100
1000
0001
,
0100
1000
0001
0100
1000
0001
0M01
M001
,
0M20
M000
0M00
M000
,
0130
0000
0000
1100
0000
1001
0000
0001
,
0100
0000
0000
0010
0100
0010
1000
0001
,
0100
0000
0000
0101
0000
1001
0000
1000
,
0001
0010
0100
0010
0001
1000
0100
0000
,
0020
0000
0030
0000
;

//--------------- dance-single - M. Puls/K. Ward ----------------
#NOTES:
     dance-single:
     M. Puls/K. Ward:
     Challenge:
     17:
     0.87422,1.036468,0.171285,0.638425,0.926495,786,764,22,82,260,0,0.87422,1.036468,0.171285,0.638425,0.926495,786,764,22,82,260,0:
0000
0000
0000
0000
,
0000
0000
0000
0000
,
0000
0000
0000
0000
,
0000
0000
0000
0000
,
2000
0000
0000
0000
0000
0000
0100
0000
3000
0000
M100
0000
0000
0000
0100
1000
,
0100
0000
0000
0000
0000
0000
0100
0000
0100
0000
1000
0000
1000
0000
0001
0010
,
0002
0000
0000
0000
0000
0000
0000
0000
0000
0000
0000
0000
0000
0000
0000
0000
0000
0000
0010
0000
0000
0000
0000
0000
0003
0000
0000
0000
0000
0000
0010
0000
000M
0000
0000
0000
0000
0000
0000
0000
0000
0000
0010
0000
0000
0001
0000
0000
,
0010
0000
0000
0000
0000
0000
0001
0000
0000
1000
0000
0000
0000
0000
0000
0100
0000
0000
1000
0000
0000
0000
0000
0000
0100
0000
0000
0000
0000
0000
1000
0000
0000
0000
0000
0000
1000
0000
0000
0000
0000
0000
00M0
0000
M000
0000
0000
0000
,
0010
1000
0010
1000
0001
1000
0010
1000
0010
1000
0010
1000
0001
1000
0010
1000
,
0010
1000
0010
1000
0001
1000
0010
1000
0010
0000
1000
0000
1100
0000
MMMM
0000
,
0100
0001
0100
0001
1000
0001
0100
0001
0100
0001
0100
0001
1000
0001
0100
0001
,
0100
0001
0100
0001
1000
0001
0100
0001
0100
0000
0001
0000
0011
0000
MM00
000M
,
0010
1000
0010
0000
0M00
0000
01M0
0001
0100
M000
00M0
0000
1000
0001
1000
0000
,
0010
0000
0010
0000
0100
0000
0001
0000
0001
0000
0100
0010
0100
000M
0M00
M0M0
,
0100
0001
0100
00M0
0M00
0000
0010
1000
0010
000M
0M00
0000
0001
1000
0001
0000
,
0100
0000
0100
0000
0010
0000
1000
0000
1000
0000
0010
0100
0010
0000
1000
0000
,
0001
0000
1000
0000
0010
1000
0001
0100
0001
0000
0100
0010
0100
0000
0001
0000
,
1000
0000
0000
0000
0000
0000
1000
0000
0000
0000
0000
0000
0001
0000
0000
0100
0000
0000
0010
0000
0000
1000
0000
0000
0100
0000
0000
0000
0000
0000
1MM0
0000
000M
0000
0000
0000
0110
0000
0000
0000
M000
0000
0000
0000
0000
0MM0
0000
0000
,
1000
0000
0100
0000
1000
0000
0020
0M30
1000
00MM
0200
0300
0010
0000
MMM1
0000
,
0010
0000
0010
0100
0010
0000
MMM1
0000
0020
0000
0030
0000
0010
0100
0010
0002
,
0103
0000
0000
0010
000M
0000
1000
0000
0000
0100
0000
0000
1MMM
0000
0000
1000
0000
0000
0010
0000
0000
1MMM
0000
0000
,
0100
0000
0010
0000
0100
0000
1000
0000
0100
0010
0100
0010
0200
0000
1300
0000
,
1M00
0000
0000
0000
0000
0000
0100
0000
0000
0000
0000
0000
1000
0000
0000
0000
0000
0000
0020
0000
0000
0030
0000
0000
1M0M
0000
00M0
0000
0000
0000
0200
0000
0000
0300
0000
0000
0010
0000
0000
0000
0000
0000
MM01
0000
00M0
0000
0000
0000
,
1000
0000
0010
0000
0010
0000
1MMM
0000
2000
0000
3010
0000
0010
0100
0010
2000
,
3010
M100
0001
0100
MM1M
0100
0010
1MMM
,
0010
0000
0100
0000
0010
0000
1000
0000
0010
0100
0010
0100
0020
0000
0130
0000
,
00M1
0000
0000
0000
0000
0000
1000
0000
0000
0000
0000
0000
0001
0000
0000
0000
0000
0000
0200
0000
0000
0300
00M0
0000
M001
0000
0M00
0000
0000
0000
0020
0000
0000
0030
0000
0000
0100
0000
0000
0000
0000
0000
1MMM
0000
0000
0000
0000
0000
,
0100
0000
0100
0010
0100
0000
1MMM
0000
0020
0000
0130
0000
0010
0100
0010
2000
,
3100
1M00
0001
0100
MMM1
0100
0010
1MMM
,
0010
0000
0100
0000
0010
0000
1000
0000
0010
0100
0010
0100
0020
0000
1030
0000
,
00M2
0000
0000
0000
0000
0000
0000
0000
0000
0000
0000
0000
0023
0000
0000
0M00
0000
0000
0000
0000
0000
0000
0000
0000
M23M
0000
0000
0000
0000
0000
00M0
0000
0300
0000
0000
0000
2000
0000
0000
0000
0000
0000
0M00
0000
0000
0000
0000
0000
3200
0000
0000
0000
0000
0000
M0M0
0000
0000
0000
0000
0000
0320
0000
0000
0000
0000
0000
0M00
0000
0000
0000
0000
0000
0031
0000
0000
0000
0000
0000
1000
0000
0000
00M0
0000
0000
0002
0000
0000
0000
0000
0000
0000
0000
0000
0000
0000
0000
,
0013
M000
0100
0000
0010
0000
0001
0000
2000
0000
0001
0000
3010
0000
1000
0001
,
2000
0M00
0000
0000
3200
00M0
M000
0000
0320
000M
0M00
0000
0032
0000
00M0
0000
0023
0000
0M00
0000
023M
0000
0000
0000
13M0
0000
0M01
0000
2000
0000
0000
0000
,
3100
1M00
0010
0100
0002
1000
0103
0001
,
0100
0010
1000
0001
0010
0100
0010
0001
1000
0010
1000
0000
0MM0
0000
0MM0
0000
,
1100
0000
0001
0000
0001
0010
0001
0000
0001
0010
0001
0000
0010
0000
0010
0000
,
0010
0000
0001
0000
1000
0000
1000
0100
1000
0000
1000
0100
1000
0000
0010
M000
,
2000
0000
0000
0M00
0200
0000
03M0
0000
0M20
0000
0030
0MM0
0200
0000
3300
0000
,
M010
0100
0010
0100
0001
0100
0010
1000
0001
0000
1000
0010
1000
0000
0010
0000
,
1100
0000
0000
0000
0001
MM00
0000
0000
0001
0000
0010
0000
0001
0000
0000
0000
0001
0000
0010
0000
0001
0000
0000
0000
0010
0000
0000
0000
0010
0000
0000
0000
,
0001
0000
0001
0000
1000
0000
1000
0100
1000
0000
1000
0100
1000
0000
0001
M000
,
2000
0000
0000
0000
0000
0000
0M00
0000
0200
0000
0000
0000
0300
0000
0MM0
0000
0020
0000
0000
0000
0030
0000
0MM0
0000
0200
0000
0000
0000
3300
0000
0000
MM00
,
0010
0100
0010
1000
0010
0100
0010
1000
0001
1000
0001
0100
0001
0000
1000
0000
,
0011
0000
1000
0000
1000
0100
1000
0000
1000
0100
1000
0000
0100
0000
0100
0000
,
1000
0000
1000
0000
0001
0000
0001
0010
0001
0000
0001
0010
0001
0000
1000
000M
,
0002
0000
0000
0000
0000
0000
00M0
0000
0020
0000
0000
0000
0030
0000
0M00
00M0
0200
0000
0000
0000
0300
00M0
0000
0000
0M20
0000
0000
0000
0033
0000
0000
00M0
,
010M
0010
0100
0001
1000
0010
0100
0001
1000
0000
0001
0100
0001
0000
1000
0000
,
0011
0000
1000
0000
1000
0100
1000
0000
1000
0100
1000
0000
0100
0000
1000
0000
,
1000
0000
0001
0000
0100
0000
0001
0010
0001
0000
0001
0010
0001
1000
0001
00M0
,
0002
0000
00M0
0000
0020
0000
0M30
00M0
0200
0000
03M0
0000
0M20
0000
0033
0000
,
10MM
0100
1000
0000
10M0
0000
0100
10M0
0001
M000
0100
0010
1000
0000
0010
0000
,
1100
0000
0010
0000
1000
0000
0001
0000
1000
0000
0001
1000
0001
0000
0100
0010
,
0100
0010
0100
0010
1000
0000
1000
0000
0010
0000
0100
0000
0001
1000
0010
0000
,
1000
0000
1000
0000
0001
0000
0100
0000
0100
0000
0010
0000
1000
0001
0100
0010
,
1000
0000
0010
0000
0010
0000
1000
0000
M1M1
0000
0M00
0000
101M
0000
0M00
00M0
,
1000
0000
0100
0000
1000
0000
0010
0000
0100
0000
0010
0000
1000
0010
1000
0010
,
1000
0000
0010
0000
0100
0000
010M
0000
0001
M000
0002
0000
2003
0000
3000
0000
,
0001
0100
0010
0000
1000
0010
1000
0000
0010
0100
0001
1000
0010
0000
0010
0000
,
1000
1000
0001
0100
0010
1000
0020
0030
,
10M0
0000
0000
0000
0010
0000
0100
0000
0010
0100
0010
0100
0020
0000
1030
0000
,
MMMM
0000
1000
0000
0001
1000
0001
1000
0001
0000
1000
0000
1000
0000
MMMM
0000
,
1000
0000
0010
0000
0100
0000
0001
0000
1000
0000
1000
0000
0001
1000
0001
1000
,
0001
0000
0100
0000
0001
0000
0010
0000
0001
0001
0000
0000
1000
1000
0000
0000
,
0010
0000
0000
0000
0100
0000
0001
0000
0100
0010
0100
0010
0200
0000
0301
0000
,
MMMM
0000
0001
0000
1000
0001
1000
0001
1000
0000
0010
0000
1000
0000
1000
0000
,
MM11
0000
0000
0000
1000
0000
0010
0000
1000
0000
0010
0000
1000
0001
1000
0001
,
1000
0000
0000
0010
0000
0000
1000
0000
0000
0100
0000
0000
1100
0000
0000
0110
0000
0000
0011
0000
0000
0000
0MMM
0000
,
1000
0000
0000
0000
0100
0000
0000
0000
0001
0000
0000
0000
0200
0000
0300
0000
10M0
0M00
0000
0000
0010
0000
0000
0000
0001
0000
0000
0000
MM1M
0000
0000
0000
,
1000
0000
0010
0100
0010
0000
1MMM
0000
0200
0000
0300
0000
0010
0100
0010
0002
,
0013
0MM1
1000
0100
1MMM
0010
1000
1MMM
,
0001
0000
0010
0000
0100
0000
1000
0000
0010
0100
0010
0100
0020
0000
1030
0000
,
01M0
0000
1000
0000
0001
0000
2000
3000
01MM
M000
0020
0030
0100
0000
1MMM
0000
,
0100
0000
0010
0100
0010
0000
0MM1
0000
0200
0000
0300
0000
0100
0010
0100
0002
,
0013
0000
00M1
0000
010M
0000
0010
0000
1MMM
0000
0010
0000
0100
0000
M0M1
0M00
,
0010
0000
0100
0000
0010
0000
0001
0000
0010
0100
0010
0100
0020
0000
0031
0000
,
00M1
0000
0000
0000
0010
0000
0000
0000
0001
0000
0000
0000
0200
0000
0300
0000
M0M1
0M00
0000
0000
0020
0000
0030
0000
0100
0000
0000
0000
1MMM
0000
0000
0000
,
0100
0000
0100
0010
0100
0000
1MMM
0000
0100
0010
0100
0010
0200
0000
0010
0000
,
0310
M000
0100
0000
1000
0000
0100
0000
1MMM
0000
M010
0000
0100
0000
MMM1
0000
,
0100
0000
0000
0000
0010
0000
0000
0000
0100
0000
0000
0000
0010
0000
0000
0000
0100
0000
0010
0000
0100
0000
0010
0000
0200
0000
0000
0000
0301
0000
0000
0M00
,
2000
0000
0M00
0000
3200
0000
00M0
M000
0320
0000
000M
0M00
0032
0000
00M0
0000
0023
0000
0M00
000M
0230
0000
0000
00M0
1300
0000
0001
0M00
2000
0000
0000
0000
,
3100
0000
0100
0000
0010
0000
0001
0000
2000
0000
0001
0000
3010
0000
M000
0001
,
1000
0000
0M00
0000
0200
0000
M0M0
0000
0320
0000
0M0M
0000
0032
0000
00M0
0000
0023
0M00
0000
000M
0230
M000
0000
00M0
1300
0000
0001
0M00
2000
0000
0000
0000
,
3100
M000
0100
0000
0010
0000
0001
0000
2000
0000
0001
0000
0010
0000
0100
0000
,
3010
0100
0001
1000
0100
0010
0100
1000
0001
0100
0010
1000
0001
0100
0001
0000
,
0011
0000
0000
0000
0000
0000
0000
0000
00MM
0000
0000
0000
0000
0000
0000
0000
0000
0000
1010
0000
0000
0000
0000
0000
0000
0000
0000
0000
0000
0000
0010
0000
0000
0000
0000
0000
0000
0000
0000
0000
0000
0000
1000
0000
0000
0001
0000
0000
,
1001
0000
0000
0000
0000
0000
M000
0000
000M
0000
0000
0000
0000
0000
0000
0000
0000
0000
0001
0000
0000
0000
0000
0000
0010
0000
0000
0000
0000
0000
0001
0000
0000
0000
0000
0000
0010
0000
0000
0000
0000
0000
0100
0000
0000
1000
0000
0000
,
1100
0000
0M00
0000
0000
0000
0011
0000
0000
0000
0101
0000
0000
0000
0001
1000
,
0001
0000
010M
0010
0000
1000
0010
0000
1000
0000
0001
0000
0100
0000
M11M
0000
,
0011
0000
M00M
M0M0
MM00
M0M0
M00M
0000
;

//--------------- dance-double - M. Emirzian ----------------
#NOTES:
     dance-double:
     M. Emirzian:
     Easy:
     3:
     0.185744,0.239799,0.007786,0.194642,0,167,166,1,25,0,0,0.185744,0.239799,0.007786,0.194642,0,167,166,1,25,0,0:
00000000
00000000
00000000
00000000
,
00000000
00000000
00000000
00000000
,
00000000
00000000
00000000
00000000
,
00000000
00000000
00000000
00000000
,
00200000
00000000
00000000
00000000
,
00000000
00000000
00000000
00000000
,
00302000
00000000
00000000
00000000
,
00000000
00000000
00000000
00000000
,
00013000
00000000
00000100
00000010
,
00000000
00000000
00000001
00001000
,
00000100
00000000
00010000
00001000
,
00000000
00000000
01000000
00100000
,
10000000
00000000
00010000
00100000
,
00000000
00000000
00001000
00010000
,
00000010
00000000
00001000
00000100
,
00000000
00000000
00000010
00000002
,
00000000
00000000
00000000
00000000
,
00000000
00000000
00000000
00000000
,
00001003
00000000
00000100
00000000
,
00010000
00001000
00010000
00000000
,
00100000
00000000
10000000
00000000
,
00010000
00100000
00010000
00000000
,
10000000
00000000
01000000
00000000
,
00010000
00001000
00010000
00000000
,
00000100
00000000
00001000
00000000
,
00000001
00000100
00000001
00000000
,
00000010
00000000
00000100
00000000
,
00010000
00001000
00010000
00000000
,
00010000
00000000
00001000
00000000
,
01000000
00001000
01000000
00000000
,
00010000
00000000
00100000
00000000
,
01000000
10000000
01000000
00000000
,
00100000
00000000
00001000
00000000
,
00010000
00000100
00010000
00000000
,
00002000
00000000
00000000
00000000
,
00013000
00000000
00001000
00000000
,
00000000
00010000
00000100
00000000
,
00000020
00000000
00000000
00000000
,
00000000
00000000
00000000
00000000
,
00000031
00000000
00000100
00000000
,
00000000
00000010
00001000
00000000
,
00000200
00000000
00000000
00000000
,
00000000
00000000
00000000
00000000
,
00010300
00000000
00001000
00000000
,
00000000
01000000
00100000
00000000
,
20000000
00000000
00000000
00000000
,
00000000
00000000
00000000
00000000
,
31000000
00000000
00100000
00000000
,
00000000
00001000
00010000
00000000
,
00000020
00000000
00000000
00000000
,
00000000
00000000
00000000
00000000
,
00001030
00000000
00000100
00010000
,
00000000
00000000
00001000
01000000
,
00100000
00000000
10000000
01000000
,
00000000
00000000
00010000
00001000
,
01000000
00000000
00001000
00010000
,
00000000
00000000
00000010
00001000
,
00000001
00000000
00000100
00000010
,
00000000
00010000
00001000
00100000
,
00020000
00000000
02030000
00000000
,
03200000
00000000
20300000
00000000
,
32000000
00000000
03020000
00000000
,
00032000
00000000
00003200
00000000
,
00000302
00000000
00002003
00000000
,
00003200
00000000
00000320
00000000
,
00002030
00000000
00023000
00000000
,
00230000
00000000
02300000
00000000
,
03010000
00000000
10000000
00000000
,
01000000
00100000
01000000
00000000
,
00010000
00000000
00001000
00000000
,
00010000
00000010
00010000
00000000
,
00001000
00000000
00010000
00000000
,
00000100
00001000
00000100
00000000
,
00000010
00000000
00000001
00000000
,
00001000
00000100
00001000
00000000
,
00000010
00000000
00010000
00000000
,
00001000
01000000
00001000
00000000
,
00010000
00000000
00001000
00000000
,
00100000
00010000
00100000
00000000
,
01000000
00000000
10000000
00000000
,
00010000
01000000
00010000
00000000
,
00100000
00000000
00001000
00000000
,
00010000
00001000
00010000
00000000
,
00000200
00000000
00000000
00000000
,
00000310
00000000
00000000
00000000
,
00000001
00000000
00000000
00000000
,
00000100
00000000
00000000
00000000
,
00001000
00000000
00000000
00000000
,
10010000
00000000
00000000
00000000
;

//--------------- dance-double - M. Emirzian ----------------
#NOTES:
     dance-double:
     M. Emirzian:
     Medium:
     6:
     0.303641,0.376827,0.101214,0.249142,0,273,260,13,32,0,0,0.303641,0.376827,0.101214,0.249142,0,273,260,13,32,0,0:
00000000
00000000
00000000
00000000
,
00000000
00000000
00000000
00000000
,
00000000
00000000
00000000
00000000
,
00000000
00000000
00000000
00000000
,
00001000
00000000
00010000
00001000
,
01000000
00000000
00100000
10000000
,
01000000
00000000
00100000
00001000
,
00020000
00000000
00000000
00000000
,
00030100
00000000
00000000
00000000
00000010
00000000
00000000
00000001
,
00000000
00000100
00000010
00010000
,
00002000
00000000
00000000
00000000
00103000
00000000
00000000
00010000
,
00000000
01000000
00100000
10000000
,
02000000
00000000
00000000
00000000
03010000
00000000
00000000
00001000
,
00000000
00010000
00001000
00000010
,
00000002
00000000
00000000
00000000
00001003
00000000
00000000
00000100
,
00000000
00010000
00001000
01000000
,
00200000
00000000
00000000
00000000
,
00000000
00000000
00000000
00000000
,
10300000
00000000
01000000
00000000
00100000
00000000
00000000
00001000
,
00000000
00000000
00010000
00000000
00001000
00010000
00000010
00000000
,
00001000
00000000
00000100
00000000
00000010
00000000
00000000
00000001
,
00000000
00000000
00000100
00000000
00000010
00010000
00001000
00000000
,
01000000
00000000
00100000
00000000
10000000
00000000
00000000
01000000
,
00000000
00000000
00010000
00000000
00001000
00010000
00000010
00000000
,
00001000
00000000
00000010
00000000
00000100
00000000
00000000
00000001
,
00000000
00000000
00000010
00000000
00000100
00010000
00001000
00000000
,
00010000
00000000
01000000
00000000
10000000
00000000
00000000
00100000
,
00000000
00000000
01000000
00000000
00100000
10000000
01000000
00000000
,
00100000
00000000
00001000
00000000
00010000
00000000
00000000
00000100
,
00000000
00000000
00000010
00000000
00000001
00000100
00000010
00000000
,
00010000
00000000
00001000
00000000
01000000
00000000
00000000
00010000
,
00000000
00000000
00100000
00000000
01000000
10000000
00100000
00000000
,
01000000
00000000
00001000
00000000
00010000
00000000
00000000
00000010
,
00000000
00000000
00000100
00000000
00000001
00000010
00000100
00000000
,
00002000
00000000
00000000
00000000
,
00003001
00000100
00001000
00010000
,
00100000
10000000
01000000
00100000
,
20020000
00000000
00000000
00000000
,
00000000
00000000
00000000
30030000
,
01000000
00010000
00001000
00000100
,
00000001
00000010
00001000
00010000
,
00022000
00000000
00000000
00000000
,
00000000
00000000
00000000
00033000
,
01000000
10000000
00100000
00010000
,
00001000
00000010
00000001
00000100
,
00002002
00000000
00000000
00000000
,
00000000
00000000
00000000
00003003
,
00000010
00001000
00010000
00100000
,
10000000
01000000
00010000
00001000
,
00022000
00000000
00000000
00000000
,
00000000
00000000
00000000
00033000
,
00001000
00000000
00000000
00000000
00010000
00000000
00000000
01000000
,
00000000
00000000
10000000
00010000
,
01000000
00000000
00000000
00000000
00100000
00000000
00000000
10000000
,
00000000
00000000
01000000
00010000
,
00001000
00000000
00000000
00000000
00010000
00000000
00000000
00000100
,
00000000
00000000
00000010
00000001
,
00000100
00000000
00000000
00000000
00000010
00000000
00000000
00010000
,
00000000
00000000
00001000
01000000
,
00010000
00100000
01000000
10000000
,
00100000
00000000
01000000
00001000
,
00010000
00000100
00010000
00001000
,
00010000
00000000
00000010
00001000
,
00000100
00000010
00000001
00000100
,
00000010
00000000
00010000
00001000
,
01000000
00001000
00010000
00001000
,
00200000
00000000
00000000
00000000
,
01300000
10000000
00100000
01000000
,
00001000
00010000
00000100
00000000
00002200
00000000
00003300
00000000
,
00000010
00000001
00000100
00000010
,
00010000
00001000
01000000
00000000
02020000
00000000
03030000
00000000
,
00100000
10000000
01000000
00100000
,
00001000
00010000
00000010
00000000
00002020
00000000
00003030
00000000
,
00001000
00000010
00000100
00000001
,
00001000
00000100
00010000
00000000
00022000
00000000
00033000
00000000
,
00010000
00001000
01000000
00100000
,
10000000
01000000
00100000
00000000
00220000
00000000
00330000
00000000
,
00100000
00001000
00010000
00000010
,
00001000
00000100
00000010
00000000
00000022
00000000
00000033
00000000
,
00000100
00001000
00000010
00010000
,
00001000
01000000
00010000
00000000
02020000
00000000
03030000
00000000
,
00100000
10000000
01000000
00100000
,
00001000
00010000
00000100
00000000
00022000
00000000
00033000
00000000
,
00000200
00000000
00000000
00000000
,
00000310
00000001
00000100
00000000
,
00001000
00010000
01000000
00000000
,
10000000
00100000
00010000
00000000
,
00001000
00000010
00000001
00000000
,
00011000
00000000
00000000
00000000
;

//--------------- dance-double - M. Emirzian ----------------
#NOTES:
     dance-double:
     M. Emirzian:
     Hard:
     9:
     0.497171,0.548112,0.225785,0.210213,0.003893,447,418,29,27,6,4,0.497171,0.548112,0.225785,0.210213,0.003893,447,418,29,27,6,4:
00000000
00000000
00000000
00000000
,
00000000
00000000
00000000
00000000
,
00000000
00000000
00000000
00000000
,
00000000
00000000
00000000
00000000
,
00100000
00000000
00000000
00000010
00000000
00010000
00000000
00000100
,
01000000
00000000
00000000
00000010
00010000
00001000
01000000
00000000
,
00001000
00000000
00000000
01000000
00000000
00000010
00000000
00010000
,
00001000
00010000
01000000
10000000
,
00100000
00000000
01000000
00001000
00010000
00000000
00001000
00000010
,
00000000
00000100
00000000
00001000
00000001
00000000
00000100
00000000
,
00000010
00000000
00001000
00000100
00010000
00000000
00100000
00010000
,
00000000
00001000
00000000
00010000
01000000
00000000
10000000
00000000
,
00100000
00000000
00010000
00001000
00100000
00000000
00001000
00000100
,
00000000
00000001
00000000
00000010
00000100
00000000
00001000
00000000
,
00000001
00000000
00001000
00000010
00010000
00000000
00001000
00010000
,
00000000
00001000
00000000
00010000
00100000
00000000
10000000
00000000
,
02000000
00000000
00000000
00000000
,
00000000
00000000
00000000
00000000
,
03100000
00010000
01000000
00100000
10000000
00001000
00100000
02000000
,
00000000
10000000
00000000
03010000
00001000
00000000
00010010
00000000
,
00000010
00001000
00000100
00000010
00000100
00010000
00000010
00000200
,
00000000
00000001
00000000
00001300
00010000
00000000
01010000
00000000
,
01000000
10000000
00010000
01000000
00001000
00010000
00001000
00000020
,
00000000
00000001
00000000
00001030
00010000
00000000
00001100
00000000
,
00000100
00000001
00001000
00000100
00010000
00001000
00010000
00200000
,
00000000
10000000
00000000
00310000
00001000
00000000
01001000
00000000
,
00100000
01000000
10000000
00100000
01000000
00001000
00010000
00002000
,
00000000
00000100
00000000
00013000
00000010
00000000
00010010
00000000
,
00001000
00000010
00000100
00010000
00001000
00010000
01000000
00020000
,
00000000
00100000
00000000
00031000
00100000
00000000
01001000
00000000
,
00010000
00100000
01000000
00010000
00100000
00001000
00010000
00002000
,
00000000
00000100
00000000
00003010
00000001
00000000
00010010
00000000
,
00000100
00001000
00000001
00001000
00000100
00000010
00001000
00020000
,
00000000
00100000
00000000
01030000
10000000
00000000
00011000
00000000
,
00000020
00000000
00000000
00000000
,
00000130
00000001
00000010
00000100
00010000
00001000
01000000
00000000
,
00001000
00010000
00000010
00100000
00001000
00010000
00001000
00000000
,
20020000
00000000
00000000
00000000
,
00100000
00000000
00000000
00000000
00000000
00000000
30030000
M00M0000
,
01000000
00100000
00001000
00100000
00010000
00100000
00001000
00000000
,
00010000
00000010
00100000
00001000
00010000
00000100
01000000
00000000
,
00002002
00000000
00000000
00000000
,
00000100
00000000
00000000
00000000
00000000
00000000
00003003
0000M00M
,
00000010
00000100
00010000
00000100
01000000
00001000
00010000
00000000
,
00000010
00010000
00001000
00100000
00010000
01000000
00001000
00000000
,
00022000
00000000
00000000
00000000
,
00100010
00000000
00000000
00000000
00000000
00000000
00033000
000MM000
,
00000001
00000010
00000100
00000001
00000100
00001000
00000010
00000000
,
00000010
00000100
00001000
00000100
00001000
00010000
00001000
00000000
,
20020000
00000000
00000000
00000000
,
01000000
00000000
00000000
30030000
,
10000000
00000000
00100000
01000000
00001000
00000000
00000010
00000100
,
00000000
00010000
00000000
00001000
00000100
00000000
00000101
00000000
,
00000001
00000000
00000010
00000100
00010000
00000000
01000000
00100000
,
00000000
00001000
00000000
00010000
00100000
00000000
11000000
00000000
,
10000000
00000000
01000000
00010000
01000000
00000000
00001000
00010000
,
00000000
00001000
00000000
00000100
00000010
00000000
00000011
00000000
,
00000001
00000000
00000010
00001000
00000010
00000000
00010000
00001000
,
00000000
01000000
00000000
00100000
01000000
00000000
00011000
00000000
,
00000100
00000000
00010010
00000000
00000010
00000001
00000100
00001000
,
00000000
00100000
00000000
01000000
10000000
00000000
00100000
00000000
,
01000000
00001000
00010000
00000000
00000001
00000010
00000100
00010000
,
00000000
00001000
01000000
00000000
00100000
00000000
01010000
00000000
,
00100000
00000000
01001000
00000000
01000000
10000000
00100000
01000000
,
00000000
00000100
00000000
00010000
00001000
00000000
00000010
00000000
,
00000001
00000100
00000010
00000000
00001000
00000100
00010000
00001000
,
00000000
00000000
01000000
00000000
00000000
00000000
00000000
00010000
10000000
00000000
00000000
00000000
01001000
00000000
00000000
00000000
,
00010000
01000000
10000000
00100000
01000000
00001000
00010000
00002000
,
00000000
00000100
00000000
00003010
00000001
00000000
00010100
00000000
,
00001000
00000100
00000001
00000010
00000100
00001000
00000010
00020000
,
00000000
01000000
00000000
00130000
10000000
00000000
00110000
00000000
,
00001000
00010000
00000010
00100000
00001000
00010000
00000100
00020000
,
00000000
01000000
00000000
00031000
00100000
00000000
00010100
00000000
,
00010000
00001000
01000000
00000100
00010000
00001000
00100000
00002000
,
00000000
00000010
00000000
00013000
00001000
00000000
10010000
00000000
,
10000000
00100000
00001000
00010000
00000100
00010000
00001000
00000200
,
00000000
00000001
00000000
00001300
00010000
00000000
00001001
00000000
,
00000001
00000100
00010000
00000100
00010000
00001000
00010000
00200000
,
00000000
10000000
00000000
00310000
00001000
00000000
01001000
00000000
,
00100000
01000000
10000000
00100000
01000000
00000010
00001000
00000200
,
00000000
00000001
00000000
00001300
00000010
00000000
00011000
00000000
,
00000100
00000010
00000001
00000100
00000010
00010000
00001000
00200000
,
00000000
10000000
00000000
00310000
01000000
00000000
10010000
00000000
,
02000000
00000000
00000000
00000000
,
03100000
00000000
00000000
01000000
00000000
00010000
00000000
00000010
,
00000100
00000000
00000000
00000001
00001000
00000010
00010000
00000000
,
00001000
00000000
00000000
00010000
00000000
00100000
00000000
10000000
,
01000000
00000000
00010000
00000000
01000000
00100000
00000100
00010000
,
00001000
00000000
00000000
00000000
;

//--------------- dance-double - M. Emirzian ----------------
#NOTES:
     dance-double:
     M. Emirzian:
     Challenge:
     10:
     0.731854,0.719396,0.202428,0.186856,0.186856,658,632,26,24,20,1,0.731854,0.719396,0.202428,0.186856,0.186856,658,632,26,24,20,1:
00000000
00000000
00000000
00000000
,
00000000
00000000
00000000
00000000
,
00000000
00000000
00000000
00000000
,
00000000
00000000
00000000
00000000
,
00100000
00000000
10000000
01000000
00100000
00000000
00000100
00001000
,
00000010
00000000
00000100
00000001
00000010
00000100
00001000
00000000
,
00000001
00000000
00000100
00000010
00001000
00000000
00100000
10000000
,
01000000
00000000
00100000
00000000
00010000
00000000
00000000
00000000
01000000
00000000
00100000
00000000
10000000
00010000
10000000
00000000
,
01000000
00100000
00010000
01000000
00100000
01000000
00001000
00010000
,
00000000
00011000
00000000
00000100
00000010
00000100
00001001
00000000
,
00000001
00000100
00000010
00001000
00000100
00000010
00000001
00010000
,
00000000
00011000
00000000
00100000
10000000
01000000
01100000
00000000
,
01000000
10000000
00100000
01000000
00010000
00100000
01000000
00100000
,
00000000
00011000
00000000
00000100
00000010
00000001
00001001
00000000
,
00000010
00001000
00000100
00010000
00001000
01000000
00001000
00100000
,
00000000
01010000
00000000
00100000
10000000
01000000
01100000
00000000
,
00020000
00000000
02030000
000M0000
03200000
0M000000
20300000
00M00000
,
32000000
M0000000
03020000
0M000000
00031000
00000000
00010000
00000000
,
00001000
00000100
00000001
00000010
00000100
00001000
00000001
00000100
,
00000010
00000000
00010000
00001000
00010000
00000000
00000100
00000000
00001000
00000000
00000001
00000000
00001000
00000001
00000010
00000000
,
00000100
00001000
00000100
00010000
00001000
01000000
00010000
01000000
,
00100000
00000000
10000000
00010000
10000000
00000000
01000000
00000000
00100000
00000000
00001000
00000000
00010000
00001000
00010000
00000000
,
00000100
00000010
00000001
00000100
00000010
00000100
00000001
00000010
,
00000100
00000000
00001000
00000001
00000100
00000000
00000010
00000000
00010000
00000000
00001000
00000000
00010000
00001000
00010000
00000000
,
00000100
00010000
00001000
01000000
00001000
00010000
00100000
10000000
,
01000000
00000000
00100000
00010000
01000000
00000000
00100000
00000000
10000000
00000000
00100000
00000000
01000000
00010000
10000000
00000000
,
01000000
00100000
00001000
00010000
00000100
00001000
00000100
00010000
,
00000100
00000000
00000010
00000100
00001000
00000000
00000001
00000000
00000100
00000000
00000010
00000000
00000100
00000001
00000100
00000000
,
00000010
00000100
00000010
00001000
00000100
00010000
00001000
01000000
,
00010000
00000000
00100000
01000000
10000000
00000000
00010000
00000000
01000000
00000000
00100000
00000000
10000000
00010000
00100000
00000000
,
01000000
00100000
00010000
01000000
00100000
01000000
00001000
00010000
,
00000010
00000000
00000100
00000001
00001000
00000000
00000010
00000000
00010000
00000000
00001000
00000000
00010000
00000010
00001000
00000000
,
00000001
00000010
00000100
00001000
00000001
00000100
00001000
00000100
,
00001000
00000000
00010000
00001000
00010000
00000000
00000100
00000000
00010000
00000000
00001000
00000000
00010000
00001000
00010000
00000000
,
00200000
00000000
20300000
00M00000
32000000
M0000000
03020000
0M000000
,
00031000
00000000
00010000
00000000
00000100
00000000
00010000
00000000
00001000
00000000
00000010
00000000
00000100
00001000
00000010
00000000
,
00000100
00000000
00000001
00000000
00000010
00000000
00001000
00000000
00000010
00000000
00000001
00000000
00000100
00000001
00000100
00000010
,
00002000
00000000
00003020
0000M000
00020030
000000M0
00230000
000M0000
,
10300000
01M00000
00100000
01000000
10000000
00100000
01000000
01010000
,
00010000
00000000
00100000
00000000
01000000
00000000
10000000
00000000
00100000
00000000
01000000
00000000
00100000
01000000
00100000
00000000
,
01000000
00000000
00001000
00000000
00010000
00000000
00001000
00000000
00010000
00000000
01000000
00000000
10000000
00100000
01000000
00010000
,
02000000
00000000
03200000
0M000000
00320000
00M00000
00030020
0000M000
,
00000130
000000M1
00000010
00000100
00001000
00000010
00000100
00000110
,
00000010
00000000
00001000
00000000
00000100
00000000
00000010
00000000
00000001
00000000
00000100
00000000
00000010
00001000
00000010
00000000
,
00010000
00000000
00001000
00000000
01000000
00000000
00001000
00000000
00010000
00000000
00100000
00000000
01000000
00010000
01000000
00100000
,
20000000
00000000
02000000
00000000
00010000
33000000
00010000
00000000
,
01000000
10000000
00100000
01000000
00001000
00010000
00000100
00011000
,
00010000
00000000
00001000
00000000
00010000
00000000
00000010
00000000
00000100
00000000
00000010
00000000
00000100
00000001
00000100
00000000
,
00000010
00000000
00010000
00000000
00000100
00000000
00001000
00000000
00000100
00000000
00000010
00000000
00000001
00001000
00000100
00000010
,
00000001
00000110
00001010
00010100
,
00000100
01000000
00001000
00010000
00000100
01000000
00010000
00000000
,
01000000
10000000
00100000
10000000
01000000
00100000
00010000
10000000
,
00000000
00110000
00000000
01000000
00100000
00010000
10000000
00000000
,
01000000
00100000
00010000
01000000
00001000
00010000
00000100
00001000
,
00000000
00010010
00000000
00001000
00000100
00000001
00000100
00000000
,
00000010
00001000
00000100
00000010
00000001
00000100
00000010
00010000
,
00000000
01001000
00000000
00100000
10000000
01000000
00100000
00000000
,
01000000
10000000
00010000
01000000
00001000
00010000
00000100
00000010
,
00000000
00001001
00000000
00000010
00000100
00001000
00000001
00000000
,
00000100
00000010
00001000
00000000
00000100
00000010
00000001
00000100
,
00000000
00000010
00010000
00001000
01000000
00000000
00100000
10000000
,
01000000
00000000
00100000
00010000
01100000
00000000
10000000
01000000
,
00110000
00000000
00100000
00001000
00010000
00011000
00010010
00000000
,
00001001
00000000
00000100
00000010
00000001
00000100
00000010
00001000
,
00000000
00000001
00000010
00000100
00001000
00000000
00000010
00010000
,
01000000
00000000
00100000
00010000
01000000
00100000
10000000
01000000
,
00000000
00000000
00110000
00000000
00000000
00000000
00000000
10000000
01000000
00000000
00000000
00000000
10010000
00000000
00000000
00000000
,
01000000
00100000
01000000
00001000
00010000
00000100
01000000
00001000
,
00010000
00000000
00001000
00010000
00001000
00000000
00000010
00000000
00000100
00000000
00000010
00000000
00000001
00001000
00000010
00000000
,
00000100
00000010
00001000
00000010
00010000
00000100
00001000
00000100
,
00010000
00000000
00000010
00001000
00000010
00000000
00010000
00000000
00001000
00000000
00100000
00000000
01000000
00100000
01000000
00000000
,
10000000
00010000
00100000
01000000
10000000
00010000
01000000
00100000
,
01000000
00000000
00001000
00010000
00001000
00000000
00010000
00000000
00000010
00000000
00000100
00000000
00000010
00001000
00000100
00000000
,
00010000
00000010
00000100
00000001
00000100
00000010
00010000
00001000
,
01000000
00000000
00010000
00100000
00010000
00000000
10000000
00000000
01000000
00000000
00100000
00000000
00010000
00100000
00010000
00000000
,
01000000
00001000
00010000
00000010
00100000
00001000
00100000
00000010
,
00010000
00000000
00001000
00010000
00001000
00000000
01000000
00000000
00100000
00000000
10000000
00000000
01000000
00100000
01000000
00000000
,
10000000
01000000
00100000
00001000
00010000
00001000
00010000
00000010
,
00000100
00000000
00000001
00001000
00000010
00000000
00000100
00000000
00000010
00000000
00001000
00000000
00000001
00000010
00000100
00000000
,
00010000
00000100
00000010
00000100
00010000
00001000
00100000
00001000
,
01000000
00000000
00100000
10000000
00100000
00000000
10000000
00000000
01000000
00000000
00100000
00000000
00010000
00100000
01000000
00000000
,
10000000
01000000
00010000
01000000
10000000
01000000
00100000
00001000
,
00010000
00000000
00001000
00010000
00001000
00000000
00010000
00000000
00000100
00000010
00000001
00000000
00000100
00000010
00001000
00000001
,
00000020
00000000
00000230
000000M0
00020300
00000M00
00230000
000M0000
,
10300000
00M00000
01000000
00100000
00000000
00001000
00000010
00000100
,
00001000
00000000
00000000
00000001
00000100
00000010
00001000
00000000
,
00001001
00000000
00000100
00000010
00000000
00010000
00100000
01000000
,
00010000
00000000
00100000
00000000
01000000
00100000
00001000
01000000
,
00100000
00000000
00000000
00000000
;

//--------------- lights-cabinet - ----------------
#NOTES:
     lights-cabinet:
     :
     Easy:
     1:
     0.645099,0.753653,0.871996,0.140142,0,580,426,112,18,0,22,0.645099,0.753653,0.871996,0.140142,0,580,426,112,18,0,22:
000000
000000
000000
000000
,
000000
000000
000000
000000
,
100100
011000
100100
000000
100100
011000
100100
000000
,
000100
001000
010000
100000
010000
001000
100100
000000
,
100100
011000
011000
011000
,
010000
000100
100000
011000
010000
000000
011000
100000
,
100100
100100
011000
100100
,
100000
010000
001000
000100
001000
010000
100000
010000
,
101100
000000
100000
000000
100000
000100
100000
000000
,
010000
001000
000100
010000
,
001000
000000
100000
000000
001000
010000
001000
000000
,
010000
000100
100000
011000
,
011000
000000
100100
000000
000100
100000
001000
000000
,
011000
100100
001000
110000
,
001000
000000
100000
000000
000100
010000
000100
000000
,
010000
100100
011000
100100
,
111100
100000
010000
001000
000100
000100
001000
010000
,
100100
010000
001000
000100
000100
001000
010000
100000
,
100000
000000
010000
000000
100000
010000
001000
000000
,
000100
000000
001000
010000
100000
000000
011000
000000
,
001000
000000
010000
000000
000100
001000
010000
000000
,
100000
000000
000100
010000
000100
000000
111100
000000
,
010000
000000
001000
000000
100000
001000
010000
000000
,
000100
000000
010000
001000
100000
000000
000000
000000
,
010000
000000
001000
000000
000100
010000
001000
000000
,
100000
000100
010000
111100
,
001000
100000
001000
100000
,
100000
010000
001000
000100
100000
000000
000000
000000
,
000100
010000
000100
010000
,
000100
001000
010000
100000
000100
000000
111100
000000
,
011000
100100
011000
000100
,
000100
001000
010000
100000
000100
000000
111100
000000
,
100000
001000
100000
001000
,
100000
010000
001000
000100
100000
000000
111100
000000
,
111100
000000
000000
000000
,
110000
001000
000100
000100
,
001000
000000
010000
000000
100000
010000
100000
001000
,
200200
000000
300300
000000
,
000100
100000
000100
011000
000100
111000
000100
000000
,
110000
000000
001000
100000
000100
011000
000100
100000
,
001000
000100
010000
000000
100100
000000
011000
000000
,
222200
000000
333300
000000
,
101000
000100
010000
000000
111100
000000
000100
000000
,
001100
000000
010000
000000
100000
001000
100000
000000
,
010000
000000
101000
000000
010100
001000
100100
000000
,
222200
000000
333300
000000
,
100100
000000
100100
011000
100100
000000
100100
000000
,
001100
000000
010000
000000
100000
010000
100000
000100
,
010000
100000
001000
010000
000100
100000
000100
011000
,
222200
000000
333300
000000
,
011000
000000
100100
000000
011000
000100
100000
000000
,
010000
100000
001000
010000
000100
001000
010000
100000
,
001000
000100
010000
100000
000100
010000
100000
001000
,
100000
000100
100000
000000
001000
000000
010000
000000
,
010000
000000
000100
100000
000100
000000
100000
000100
,
010000
100100
001000
010000
100000
000100
010000
100000
,
001000
010000
000100
001000
010000
100000
001000
100000
,
001000
010000
100000
001000
010000
001000
100000
010000
,
100000
010100
001000
100000
010000
000100
110000
001000
,
111100
000000
101000
000100
010000
000000
000100
000000
,
010000
000000
001000
000000
100000
000000
010000
001000
,
100100
001000
010000
000100
,
100100
000000
000000
011000
100100
000000
011000
000000
,
111100
010000
001000
100000
,
001000
000000
010000
000000
000100
100000
011000
000000
,
100100
010000
001000
100100
,
111100
000000
111100
111100
,
100100
000000
001000
000000
000100
001000
010000
000000
,
100000
000000
010000
001000
000100
000000
011000
000000
,
010000
000000
001000
000000
100000
010000
001000
000000
,
000100
000000
100000
001000
100000
000000
111100
000000
,
100100
000000
011000
000000
100100
010000
011000
000000
,
100100
000000
001000
010000
100100
000000
000000
000000
,
001000
000000
010000
000000
100000
001000
010000
000000
,
100100
011000
100100
000000
,
010000
000100
010000
000100
,
000100
001000
010000
100000
100100
000000
100100
000000
,
100000
001000
100000
001000
,
100000
010000
001000
000100
100000
000000
100100
000000
,
001000
100000
001000
100000
,
100000
010000
001000
000100
100000
000000
100100
000000
,
011000
100100
000100
010000
,
000100
001000
010000
100000
000100
000000
111100
000000
,
222200
000000
333300
000000
,
001100
010000
000100
000100
,
100000
001000
100000
011000
,
110000
001000
100100
100100
,
000100
011000
100100
011000
,
111100
000000
000000
000000
;
