#TITLE:I'll Get There Anyway;
#SUBTITLE:;
#ARTIST:Sammi Morelli;
#TITLETRANSLIT:;
#SUBTITLETRANSLIT:;
#ARTISTTRANSLIT:;
#GENRE:;
#CREDIT:;
#MUSIC:I'll Get There Anyway.ogg;
#BANNER:I'll Get There Anyway.png;
#BACKGROUND:I'll Get There Anyway-bg.png;
#CDTITLE:;
#SAMPLESTART:77.030;
#SAMPLELENGTH:13.980;
#SELECTABLE:YES;
#OFFSET:-0.239;
#BPMS:0.000=100.030;
#STOPS:;
#BGCHANGES:;
#FGCHANGES:;

//--------------- dance-single - M. Puls ----------------
#NOTES:
     dance-single:
     M. Puls:
     Beginner:
     1:
     0.069014,0.102034,0.016659,0,0,58,56,2,0,0,0,0.069014,0.102034,0.016659,0,0,58,56,2,0,0,0:
0000
0000
0000
0000
,
0000
0000
0000
0000
,
0000
0000
0000
0000
,
0000
0000
0000
0000
,
0001
0000
0000
0000
,
0010
0000
0000
0000
,
0001
0000
0000
0000
,
1000
0000
0100
0000
,
0010
0000
0000
0000
,
0100
0000
0000
0000
,
1000
0000
0000
0000
,
0001
0000
0010
0000
,
0100
0000
0000
0000
,
0001
0000
0000
0000
,
1000
0000
0000
0000
,
0010
0000
0000
0000
,
1001
0000
0000
0000
,
0100
0000
0000
0000
,
0010
0000
0000
0000
,
1000
0000
0100
0000
,
0010
0000
0000
0000
,
0001
0000
0000
0000
,
0010
0000
0000
0000
,
0001
0000
0000
0000
,
1000
0000
0000
0000
,
0100
0000
0000
0000
,
1000
0000
0000
0000
,
0100
0000
0000
0000
,
0010
0000
0000
0000
,
0100
0000
0000
0000
,
0001
0000
0000
0000
,
1000
0000
1000
1000
,
0001
0000
0000
0000
,
1000
0000
0000
0000
,
0100
0000
0000
0000
,
0100
0000
0000
0000
,
1000
0000
0000
0000
,
0001
0000
0000
0000
,
0010
0000
0000
0000
,
0010
0000
0000
0000
,
0001
0000
0000
0000
,
1000
0000
1000
0000
,
1000
0000
0001
0000
,
0001
0000
0001
0000
,
1000
0000
0100
0000
,
1000
0000
0000
0000
,
0001
0000
0010
0000
,
0001
0000
0000
0000
,
0100
0000
0000
0000
,
1001
0000
0000
0000
;

//--------------- dance-single - M. Puls ----------------
#NOTES:
     dance-single:
     M. Puls:
     Easy:
     4:
     0.199903,0.224475,0.12494,0.141598,0,168,153,15,17,0,0,0.199903,0.224475,0.12494,0.141598,0,168,153,15,17,0,0:
0000
0000
0000
0000
,
0000
0000
0000
0000
,
0000
0000
0000
0000
,
0000
0000
0000
0100
,
0001
1000
0001
0000
,
2000
3000
0001
1000
,
0020
0030
0000
0010
,
0001
1000
0001
1000
,
0010
0100
0001
0010
,
0100
1000
0001
1000
,
0002
0003
0000
0000
,
0001
1000
0001
0010
,
0000
0001
2000
3000
,
1000
1000
0002
0003
,
0001
1000
0100
0010
,
1001
1001
0110
2000
,
3000
1000
0010
1000
,
0002
0003
1000
0001
,
1001
0000
0100
0100
,
1000
1000
0100
0010
,
0002
0003
0000
0000
1001
0000
0010
0000
,
1000
1001
0000
0000
,
0001
0100
0010
0100
,
0001
0000
0010
0000
0100
0000
2000
3000
,
0000
0100
1000
1000
,
0001
0010
0010
1000
,
1000
1000
0001
0010
,
1000
0100
1000
1000
,
0001
1000
0010
0010
,
0100
0001
0010
0100
,
0010
0100
0010
0100
,
0010
1001
0100
1001
,
0002
0003
0001
0001
,
1001
0100
0100
1000
,
1000
1000
0000
0000
,
2000
3000
1000
0001
,
1001
0100
0100
1000
,
1000
1000
0000
0000
,
0220
0330
1001
0000
,
1000
0100
0100
1000
,
1000
1000
1000
0001
,
0001
0001
0100
1001
,
1000
0100
0001
0010
,
1000
0000
0001
0000
1000
0000
2002
3003
,
0001
0001
0001
0100
,
1000
1000
0010
1000
,
0001
0010
1000
0100
,
1000
0000
0001
0000
1000
0000
2002
3003
,
0000
0000
0000
0000
,
1000
0000
0000
0000
;

//--------------- dance-single - M. Puls ----------------
#NOTES:
     dance-single:
     M. Puls:
     Medium:
     7:
     0.317704,0.428543,0.166586,0.133269,0,267,247,20,16,0,0,0.317704,0.428543,0.166586,0.133269,0,267,247,20,16,0,0:
0000
0000
0000
0000
,
0000
0000
0000
0000
,
0000
0000
0000
0000
,
0000
0000
0000
0000
0000
1000
0100
0010
,
0001
1000
0001
0100
,
2000
3100
0001
1000
,
0020
1030
0000
0010
,
0001
0000
1000
0100
0001
0010
1000
0000
,
0010
0100
0001
0010
,
0100
1000
0001
1000
,
0002
0000
0013
0000
0000
0000
0000
0010
,
0001
0010
1000
0100
0001
1000
0010
0100
,
0000
0000
0001
0100
2000
0000
3000
0000
,
1000
0000
1000
0010
0002
0000
0003
0000
,
0001
0000
1000
0010
0100
0010
0010
0010
,
1001
0110
1001
0110
0110
0110
2000
0000
,
3100
0000
1000
0000
0010
0001
1000
0000
,
0002
0000
0103
0000
1000
0100
0001
0000
,
1001
0000
0000
0000
0100
0010
0100
0001
,
1000
0010
1000
0000
0100
0000
0010
0000
,
0002
0003
0000
0000
1001
0000
0010
0100
,
1000
1001
0000
0000
,
0001
0000
0100
1000
0010
1000
0100
0010
,
0001
0010
0100
1000
,
0000
0000
0100
0010
1000
0001
1000
0010
,
0001
0100
0010
0001
0010
0100
1000
0010
,
1000
0001
1000
0010
0001
0100
0010
0001
,
1000
0010
0100
0010
1000
0001
1000
0010
,
0001
1000
1000
0010
0010
0010
0010
0100
,
0100
0001
0001
0010
0010
0100
0100
0010
,
0010
0100
0100
0100
0010
0010
0100
1001
,
0010
1001
0100
1001
,
0002
0000
0003
0000
0001
0100
0001
0000
,
1001
0000
0100
0010
0100
0000
1000
0001
,
1000
0010
1000
0001
0000
0000
0000
0000
,
2000
0000
3000
0000
1000
0100
0001
0000
,
1001
0000
0100
0010
0100
0000
1000
0001
,
1000
0010
1000
0001
0000
0000
0000
0000
,
0220
0000
0330
0000
1001
0100
0001
0000
,
1000
0000
0100
0010
0100
0000
1000
0001
,
1000
0010
1000
0001
1000
0010
0001
0100
,
0001
1000
0001
0100
0100
0010
1001
0000
,
1000
0100
0001
0010
,
1000
0010
0001
0100
1000
0010
2002
3003
,
0001
0100
0001
1000
0001
0100
0100
0010
,
1000
0001
1000
0010
0010
0100
1000
0000
,
0001
0010
1000
0100
,
1000
0100
0001
0010
1000
0100
2002
3003
,
0001
0000
0000
0000
,
1001
0000
0000
0000
;

//--------------- dance-single - M. Puls ----------------
#NOTES:
     dance-single:
     M. Puls:
     Hard:
     10:
     0.418845,0.51017,0.633027,0.233221,0.074964,352,276,76,28,0,0,0.418845,0.51017,0.633027,0.233221,0.074964,352,276,76,28,0,0:
0000
0000
0000
0000
,
0000
0000
0000
0000
,
0000
0000
0000
0000
,
0000
0000
0000
0000
0000
0000
0000
0000
0000
0000
1000
0000
1000
0100
0010
0001
,
0010
0000
1000
0110
0001
0000
0100
0000
,
2000
0000
3100
0000
0011
0000
1000
0100
,
0020
0031
0000
0100
,
0001
0000
1100
0100
0011
0010
1100
0000
,
0010
0110
1001
0010
,
0110
0000
1000
0010
1000
0000
1100
0000
,
0002
0000
0013
0000
0000
0000
0000
0001
,
0011
0010
0110
0100
1001
1000
1100
0000
,
0000
0000
0000
0000
0001
0010
0100
0000
2000
0000
0000
0000
3100
0000
0000
0000
,
1010
0000
0000
0000
1000
0100
0010
0000
0002
0000
0000
0000
0013
0000
0000
0000
,
0011
0000
0000
0000
1000
0100
0010
0001
0100
0000
0010
0000
0010
0000
0010
0000
,
1001
1100
1001
0110
0110
0011
2010
0000
,
3100
0000
1010
0000
0100
0001
0011
0000
,
2000
0000
3100
0000
1000
0100
0011
0000
,
1001
0000
0100
0000
0100
0010
0100
0001
,
1000
0010
2000
0000
3200
0000
0320
0000
,
0031
0000
1100
0000
0001
0000
0010
0100
,
1000
0000
1001
0000
0200
0000
0301
0010
,
0011
0000
0100
1000
0010
1000
0100
0010
,
0002
0023
0230
1300
,
0000
0000
0110
0010
1100
0001
1000
0010
,
0011
0100
0010
1000
0110
0100
0110
0000
,
1100
0000
1100
0010
0011
0100
0010
1000
,
1000
0001
0011
0100
1100
0010
1100
0000
,
1000
0000
1000
0100
1000
0000
0010
0001
0010
0000
0010
0100
0010
0000
0100
1000
,
0100
0000
1000
0010
0100
0000
0001
0010
0001
0000
0100
0010
1000
0000
0010
0100
,
0010
0100
0100
0100
0110
0010
0110
1001
,
0110
1100
0011
0110
,
0022
0000
0033
0000
0001
0100
1100
0000
,
1001
0000
0100
0010
0110
0000
0011
0000
,
0001
0010
0100
0010
0002
0000
0103
0000
,
1010
0000
1100
0000
1010
0100
0011
0000
,
1001
0000
0100
0010
0110
0000
1100
1000
,
0010
1000
0100
1000
0002
0000
0103
0000
,
0110
0000
1100
0000
0011
0010
0110
0000
,
1001
0000
0100
0010
0110
0000
1000
0000
,
0010
0000
0100
0000
0010
0000
1000
0000
1000
0000
0010
0100
0010
0000
0100
0000
,
0001
0000
1000
0000
0001
0000
0100
0010
0100
0000
0010
0000
1000
0000
0100
0000
,
2000
0000
0200
3000
0320
0000
0031
0000
,
1001
0010
1001
0100
1001
0010
2002
3003
,
1001
0000
0000
0000
0001
0000
0010
0000
0001
0000
0100
0010
0100
0000
0010
0000
,
1000
0000
0100
0000
1000
0000
0010
0100
0010
0000
0100
0000
0001
0000
0010
0000
,
0002
0000
0020
0003
0230
0000
1300
0000
,
1001
0100
1001
0010
1001
0100
2002
3003
,
1001
0000
0000
0000
,
1001
0000
0000
0000
;

//--------------- dance-double - M. Emirzian ----------------
#NOTES:
     dance-double:
     M. Emirzian:
     Easy:
     1:
     0.074964,0.102034,0,0.008329,0,63,63,0,1,0,0,0.074964,0.102034,0,0.008329,0,63,63,0,1,0,0:
00000000
00000000
00000000
00000000
,
00000000
00000000
00000000
00000000
,
10000000
00000000
00010000
00000000
,
01000000
00000000
00001000
00000000
,
00000010
00000000
00000000
00000000
,
00000100
00000000
00000000
00000000
,
00000010
00000000
00000000
00000000
,
00001000
00000000
01000000
00000000
,
10000000
00000000
00000000
00000000
,
00001000
00000000
00000000
00000000
,
00010000
00000000
00000000
00000000
,
00000010
00000000
00000100
00000000
,
00000001
00000000
00000000
00000000
,
00010000
00000000
00000000
00000000
,
01000000
00000000
00000000
00000000
,
20000000
00000000
30010000
00000000
,
00001000
00000000
00000000
00000000
,
00000100
00000000
00000000
00000000
,
00000010
00000000
00000000
00000000
,
00010000
00000000
00001000
00000000
,
01000000
00000000
00000000
00000000
,
00100000
00000000
00000000
00000000
,
00001000
00000000
00000100
00000000
,
00000001
00000000
00000000
00000000
,
00000010
00000000
00000000
00000000
,
00001000
00000000
00000000
00000000
,
00010000
00000000
00000000
00000000
,
00100000
00000000
00000000
00000000
,
10000000
00000000
00000000
00000000
,
01000000
00000000
00000000
00000000
,
00010000
00000000
00000000
00000000
,
00001000
00000000
00000010
00000000
,
00000100
00000000
00000001
00000000
,
00000100
00000000
00000000
00000000
,
00010000
00000000
00001000
00000000
,
01000000
00000000
00000000
00000000
,
00010000
00000000
00000000
00000000
,
01000000
00000000
00100000
00000000
,
00001000
00000000
00000000
00000000
,
00000010
00000000
00000001
00000000
,
00000100
00000000
00000000
00000000
,
00000010
00000000
00000000
00000000
,
00010000
00000000
00000000
00000000
,
10000000
00000000
00000000
00000000
,
00100000
00000000
00000000
00000000
,
00001000
00000000
00000000
00000000
,
00000100
00000000
00000001
00000000
,
00001000
00000000
00010000
00000000
,
10000000
00000000
00100000
00000000
,
00001000
00000000
00000000
00000000
;

//--------------- dance-double - M. Emirzian ----------------
#NOTES:
     dance-double:
     M. Emirzian:
     Medium:
     5:
     0.354591,0.346916,0.324843,0.149928,0,298,259,39,18,0,0,0.354591,0.346916,0.324843,0.149928,0,298,259,39,18,0,0:
00000000
00000000
00000000
00000000
,
00000000
00000000
00000000
00000000
,
10010000
00000000
01100000
00000000
00100000
00100000
00100000
00000000
,
00110000
00000000
00101000
00000000
00010000
00010000
00010000
00000000
,
00100000
00000000
00001000
00000000
00010000
00000010
00001000
00000000
,
00000110
00000000
00000010
00000000
00000001
00000100
00000010
00000000
,
00000100
00001010
00001100
00010100
,
00011000
00101000
01001000
00100000
,
12000000
10000000
13000000
00000000
01200000
01000000
01300000
00000000
,
00100000
00000000
00110000
00000000
00101000
00000000
00012000
00010000
,
00013000
00000000
00010020
00010000
00010030
00000000
00000100
00000000
,
00000010
00000001
00000100
00000000
00000010
00000000
00001000
00000100
,
00000010
00000000
00000100
00010000
00001000
00000000
00100000
00000000
,
01000000
00000000
00100000
00010000
01000000
00000000
00100000
00000000
,
10000000
00100000
00010000
00001000
00000010
00000001
00000000
00000100
,
00000100
00000000
00000010
00000000
00001000
00000100
00010000
00000000
,
00012000
00010000
00013000
00000000
00102000
00100000
00103000
00000000
,
00010000
00000000
01010000
00000000
01100000
00000000
10200000
10000000
,
10300000
00000000
01020000
01000000
01030000
00000000
00001000
00000000
,
00010000
00000100
00001000
00000000
00000010
00000100
00000001
00000010
,
00000100
00000000
00001000
00000000
00000010
00000100
00000001
00000000
,
00001001
00000000
00000100
00000000
00000010
00010000
00001000
00000000
,
00101000
00000000
00010000
00000000
00001000
01000000
00010000
00000000
,
00120000
00100000
00130000
00000000
12000000
10000000
13000000
00000000
,
00100000
01000000
00001000
00100000
,
00001000
00010000
00000100
00000000
00000010
00000000
00000001
00000000
,
00000000
00000100
00000010
00001000
,
00000100
00010000
00001000
00000000
01000000
00000000
00010000
00000000
,
00000000
00000000
00100000
00000000
01000000
10000000
00100000
00000000
,
01020000
01000000
01030000
00000000
00102000
00100000
00103000
00000000
,
00010000
00000000
00100000
00001000
00010000
00000000
00000010
00000000
,
00001000
00000010
00000100
00000000
00000001
00001000
00000100
00000010
,
00000001
00000100
00000100
00000000
00000010
00001000
00001000
00000000
,
00010200
00010000
00010000
00010000
00010300
00000000
00001000
00010000
,
00010000
00000000
00001000
00000000
01000000
00100000
10000000
00000000
,
01020000
01000000
01030000
00000000
10200000
10000000
10300000
00000000
,
00010000
00100000
00001000
00000000
00001000
00010000
00010000
00000000
,
00010020
00010000
00010000
00010000
00010030
00000000
00001000
00010000
,
00010000
00000000
00000100
00000000
00001000
00000010
00000100
00000000
,
00000001
00000100
00001000
00010000
01000000
10000000
00100000
00000000
,
01000000
01000000
00010000
00000000
00100000
00100000
00001000
00000000
,
00012000
00010000
00010000
00010000
00013000
00000000
00000100
00000000
,
00001000
00000010
00000100
00000000
00000001
00000100
00000010
00000000
,
00001000
00000100
00010000
00001000
01000000
00010000
10000000
01000000
,
00100000
00000000
00010000
00010000
01000000
00000000
10200000
10000000
,
10000000
10000000
10300000
00000000
00010000
01000000
01000000
00000000
,
00100000
00000000
00010000
00000000
00001000
01000000
00010000
00000000
,
00100000
00001000
00010000
00000000
00000100
00001000
00000010
00000100
,
00000001
00001001
00000110
00001100
,
00010100
00000000
00000000
00000000
;

//--------------- dance-double - M. Emirzian ----------------
#NOTES:
     dance-double:
     M. Emirzian:
     Hard:
     7:
     0.431934,0.428543,0.24155,0.141598,0.020823,363,334,29,17,0,0,0.431934,0.428543,0.24155,0.141598,0.020823,363,334,29,17,0,0:
00000000
00000000
00000000
00000000
,
00000000
00000000
00000000
00000000
,
10000000
00000000
00010000
00000000
00001000
00010000
00001000
00000000
,
00000001
00000000
00001000
00000000
00000100
00000100
00000100
00000000
,
00010000
00001000
01000000
00010000
00100000
01000000
10000000
00100000
,
01000000
00001000
00000010
00000100
00001000
00000000
00000012
00000010
,
00000013
00000100
00001000
00000010
00000100
00000001
00000100
00001000
,
00100000
00001000
00010000
01000000
10000000
00000000
01020000
01000000
,
01030000
00100000
10000000
01000000
00100000
00001000
00000100
00000010
,
00001000
00000001
00000010
00000100
00001000
00000000
00000102
00000100
,
00000103
00000010
00000100
00000001
00000010
00000100
00010000
01000000
,
00100000
00010000
10000000
00100000
01000000
01000000
01000000
00000000
,
00001000
00000000
00000000
00010000
00000100
00000000
00001000
00000000
00000010
00000000
00000010
00000000
00000010
00000000
00000000
00000000
,
00000100
00000000
00000000
00000001
00000010
00000000
00000100
00000000
00001000
00000000
00001000
00000000
00001000
00000000
00000000
00000000
,
00000010
00010000
00001000
01000000
00010000
10000000
00000000
00100000
,
10010000
00000000
00100000
00000000
00110000
01100000
12000000
10000000
,
13000000
00100000
01000000
00010000
00100000
01000000
00100000
00001000
,
00000100
00000010
00000100
00000001
00001000
00000000
00000201
00000001
,
00000301
00000010
00000100
00001000
00000010
00010000
00100000
10000000
,
01000000
00010000
01000000
10000000
00100000
00000000
01020000
01000000
,
01030000
00100000
10000000
01000000
00010000
01000000
00100000
00001000
,
00000100
00000001
00000010
00000100
00001000
00000000
00001020
00001000
,
00001030
00000100
00000010
00000100
00010000
01000000
00100000
00010000
,
01000000
00100000
10000000
01000000
00100000
00000000
00010000
10000000
,
10010000
00000000
01000000
00000000
10200000
10000000
10300000
00000000
,
02010000
00010000
03010000
00000000
00012000
00010000
00013000
00000000
,
00001200
00000000
00001000
00001300
00000010
00000100
00000001
00000010
,
00000100
00010000
00001000
00001000
01000000
00100000
00100000
00000000
,
10200000
10000000
10300000
00010000
01000000
00100000
10000000
00000000
,
10000000
00100000
00010000
00001000
00000010
00000001
00000101
00000000
,
00000100
00000010
00001000
00000000
00000100
00000000
00000100
00010000
,
00001000
00000000
00001000
00000000
01000000
00010000
00100000
00000000
,
20010000
00010000
30010000
01000000
00010000
10000000
01000000
00010000
,
00001000
00100000
00001000
00000010
00000001
00001000
00000010
00000000
,
00001002
00001000
00001003
00000010
00000100
00001000
00010000
00000100
,
00010000
00100000
10000000
01000000
11000000
10010000
00110000
00000000
,
12000000
10000000
13000000
00100000
01000000
00010000
00100000
00010000
,
01000000
00001000
00000100
00000010
00001000
00000100
00000010
00000000
,
00001002
00001000
00001003
00000010
00000100
00000001
00000100
00000010
,
00001000
00000100
00010000
00100000
01000000
00100000
10000000
00000000
,
01000000
00000000
00000000
00000000
00100000
00000000
00000000
00010000
01000000
00000000
00100000
00000000
00100000
00000000
00100000
00000000
,
01000000
00001000
00010000
00000100
00001000
00001000
00001000
00000000
,
00000010
00000000
00000000
00000000
00000100
00000000
00000000
00000001
00001000
00000000
00000100
00000000
00000100
00000000
00000100
00000000
,
00000010
00001000
00001000
00001000
00010000
00100000
10000000
00000000
,
10020000
10000000
10030000
00100000
01000000
10000000
01000000
00010000
,
00100000
00001000
00000100
00000001
00000010
00000100
00001000
00000001
,
00000100
00000000
00000000
00000000
00000100
00000000
00000000
00000001
00000010
00000000
00000100
00000000
00000100
00000000
00000100
00000000
,
00001000
00000010
00000010
00000010
00000100
00001000
00010000
01000000
,
10000000
00100000
01000000
00010000
10100000
10010000
01010000
00000000
,
10010000
00000000
00000000
00000000
;

//--------------- lights-cabinet - ----------------
#NOTES:
     lights-cabinet:
     :
     Easy:
     1:
     0.458112,0.755052,0.583052,0.149928,0,385,254,70,18,0,35,0.458112,0.755052,0.583052,0.149928,0,385,254,70,18,0,35:
00000000
00000000
00000000
00000000
,
00000000
00000000
00000000
00000000
,
00000000
00000000
00000000
00000000
,
00000000
00000000
00000000
00000000
00000000
10000000
01000000
00100000
,
00010000
10000000
00010000
01000000
,
20020000
31130000
00010000
10000000
,
00200000
10300000
00000000
00100000
,
00010000
00000000
10000000
01000000
00010000
00100000
10000000
00000000
,
00100000
01000000
00010000
00100000
,
01000000
10000000
00010000
10000000
,
00020000
00000000
00130000
00000000
00000000
00000000
00000000
00100000
,
00010000
00100000
10000000
01000000
00010000
10000000
00100000
01000000
,
00000000
00000000
00010000
01000000
20000000
00000000
30000000
00000000
,
10000000
00000000
10000000
00100000
00020000
00000000
00030000
00000000
,
00010000
00000000
10000000
00100000
01000000
00100000
00100000
00100000
,
10010000
01100000
10010000
01100000
01100000
01100000
20020000
00000000
,
31030000
00000000
10000000
00000000
00100000
00010000
10000000
00000000
,
00020000
00000000
01030000
00000000
11110000
01000000
00010000
00000000
,
10010000
00000000
01100000
00000000
11110000
00100000
01000000
00010000
,
10000000
00100000
10000000
00000000
01000000
00000000
00100000
00000000
,
00020000
00030000
01100000
00000000
10010000
00000000
00100000
01000000
,
10000000
10010000
00000000
00000000
,
00010000
00000000
01000000
10000000
00100000
10000000
01000000
00100000
,
00010000
00100000
01000000
10000000
,
00000000
00000000
11110000
00100000
10000000
00010000
11110000
00100000
,
00010000
01000000
11110000
00010000
00100000
01000000
10000000
00100000
,
10000000
00010000
11110000
00100000
00010000
01000000
11110000
00010000
,
10000000
00100000
01000000
00100000
10000000
00010000
10000000
00100000
,
00010000
10000000
11110000
00100000
00100000
00100000
11110000
01000000
,
01000000
10010000
11110000
01100000
01100000
10010000
10010000
01100000
,
01100000
10010000
11110000
10010000
01100000
01100000
01000000
10010000
,
00100000
10010000
01000000
10010000
,
00020000
00000000
11130000
00000000
00010000
01000000
11110000
00000000
,
10010000
00000000
11110000
00100000
01000000
00000000
10000000
00010000
,
10000000
00100000
11110000
00010000
00000000
00000000
00000000
00000000
,
20000000
00000000
31100000
00000000
10000000
01000000
00010000
00000000
,
10010000
00000000
11110000
00100000
01000000
00000000
11110000
00010000
,
10000000
00100000
11110000
00010000
00000000
00000000
00000000
00000000
,
02200000
00000000
13310000
00000000
10010000
01000000
11110000
00000000
,
10000000
00000000
01000000
00100000
01000000
00000000
10000000
00010000
,
10000000
00100000
11110000
00010000
10000000
00100000
11110000
01000000
,
00010000
10000000
11110000
01000000
01000000
00100000
10010000
00000000
,
10000000
11110000
00010000
11110000
,
10000000
00100000
00010000
01000000
10000000
00100000
20020000
30030000
,
00010000
01000000
11110000
10000000
00010000
01000000
11110000
00100000
,
10000000
00010000
11110000
00100000
00100000
01000000
11110000
00000000
,
00010000
00100000
10000000
11110000
,
10000000
01000000
00010000
00100000
10000000
01000000
20020000
30030000
,
11110000
11110000
00000000
01100000
,
10010000
00000000
00000000
00000000
;
