#TITLE:I Think I Like That Sound;
#SUBTITLE:;
#ARTIST:Kid Whatever;
#TITLETRANSLIT:;
#SUBTITLETRANSLIT:;
#ARTISTTRANSLIT:;
#GENRE:;
#CREDIT:;
#MUSIC:I Think I Like That Sound.ogg;
#BANNER:I think I like that sound.png;
#BACKGROUND:I think I like that sound-bg.png;
#CDTITLE:;
#SAMPLESTART:14.570;
#SAMPLELENGTH:7.780;
#SELECTABLE:YES;
#OFFSET:-0.002;
#BPMS:0.000=131.618;
#STOPS:;
#DISPLAYBPM:131.000;
#BGCHANGES:;
#FGCHANGES:;

//--------------- dance-single - M. Puls ----------------
#NOTES:
     dance-single:
     M. Puls:
     Beginner:
     1:
     0.075619,0.134435,0.016804,0,0,63,61,2,0,0,0,0.075619,0.134435,0.016804,0,0,63,61,2,0,0,0:
0000
0000
0000
0000
,
0000
0000
0000
0000
,
0000
0000
0000
0000
,
0000
0000
0000
0000
,
1000
0000
0000
0000
,
0000
0000
0000
0000
,
0001
0000
0000
0000
,
1000
0000
0000
0000
,
0001
0000
0000
0000
,
0010
0000
0000
0000
,
0001
0000
0000
0000
,
0100
0000
0000
0000
,
1000
0000
0000
0000
,
0010
0000
0000
0000
,
1000
0000
0000
0000
,
0100
0000
0000
0100
,
0000
0000
0000
0000
,
1000
0000
0000
0000
,
0001
0000
0000
0000
,
0010
0000
0000
0000
,
0010
0000
0000
0000
,
0001
0000
0000
0000
,
1000
0000
0000
0000
,
0100
0000
0000
0000
,
0100
0000
0000
0000
,
0010
0000
0000
0000
,
0010
0000
0000
0000
,
1000
0000
0000
0000
,
0001
0000
0000
0000
,
0010
0000
0000
0000
,
0100
0000
0000
0000
,
0010
0000
0000
0000
,
0100
0000
0000
0000
,
0001
0000
0000
0000
,
1000
0000
0000
0000
,
0001
0000
0000
0000
,
1000
0000
0000
0000
,
0100
0000
0000
0000
,
0100
0000
0000
0000
,
0010
0000
0000
0000
,
0010
0000
0000
0000
,
1000
0000
0000
0000
,
0001
0000
0000
0000
,
0100
0000
0000
0000
,
0010
0000
1000
0000
,
0001
0000
0100
0000
,
0010
0000
0000
0000
,
0000
0000
0000
0000
,
1001
0000
0000
0000
,
0001
0000
0000
0000
,
0010
0000
0000
0000
,
0001
0000
0000
0000
,
0100
0000
0000
0000
,
1000
0000
0000
0000
,
0010
0000
0000
0000
,
1000
0000
0000
0000
,
0100
0000
0000
0000
,
0100
0000
0000
0000
,
1000
0000
0000
0000
,
0001
0000
0000
0000
,
0010
0000
0000
0000
,
0010
0000
0000
0000
,
0001
0000
0000
0000
,
1000
0000
0000
0000
,
1001
0000
0000
0000
;

//--------------- dance-single - K. Ward ----------------
#NOTES:
     dance-single:
     K. Ward:
     Easy:
     5:
     0.240062,0.268869,0.092424,0,0,200,189,11,0,0,0,0.240062,0.268869,0.092424,0,0,200,189,11,0,0,0:
0000
0000
0000
0000
,
0000
0000
0000
0000
,
0000
0000
0000
0000
,
0000
0000
0000
0000
,
0010
0010
1000
0000
,
0010
0010
0100
0000
,
0010
0010
1000
0000
,
0001
0000
0000
0000
,
1000
0010
1000
1000
,
1001
1000
0100
1000
,
0010
1000
0001
0010
,
0001
0010
0001
0000
,
0100
0000
0010
0000
,
1000
0010
0100
0000
,
0010
0000
1000
0000
,
0001
0100
0001
0000
,
0100
0001
1000
0000
,
0010
0100
0001
0000
,
0100
0010
1000
0000
,
0001
0100
0010
0010
,
1100
0000
0011
0000
,
1001
0000
1001
0000
,
0110
0000
0110
0000
,
0001
0001
0001
0001
,
0100
0001
1000
0000
,
0010
0100
0001
0000
,
1000
0100
1000
0000
,
0010
0100
0001
0000
,
0100
0100
0001
0100
,
0010
0010
1000
0010
,
0100
0100
0001
1000
,
0010
1010
0010
0000
,
1000
1000
1000
0100
,
1000
1000
1000
0010
,
1000
0001
0001
0001
,
0100
0001
0100
0001
,
1000
0001
1000
0100
,
1000
0001
0100
0010
,
1000
0010
0100
0001
,
0010
0001
0100
0010
,
1000
0000
0000
0000
,
0001
0000
0000
0000
,
1000
0000
0000
0000
,
0010
0000
0000
0000
,
0100
0000
0010
0000
,
1000
0000
0001
0000
,
1000
1000
0001
0001
,
1001
0000
0000
0000
,
0001
0100
0001
0001
,
1001
0001
0010
0001
,
0100
0001
1000
0100
,
1000
0100
1000
0000
,
0010
0010
0100
0100
,
0001
0100
0010
0000
,
0100
0001
0001
1000
,
1000
0010
1000
0000
,
0010
1000
0001
0000
,
0100
0010
1000
0000
,
0010
0100
0001
0000
,
1000
0010
0100
0100
,
0001
0001
1000
1000
,
0001
0001
1000
1000
,
0010
0100
0010
0100
,
0001
1000
1000
0001
,
1001
0000
0000
0000
;

//--------------- dance-single - K. Ward ----------------
#NOTES:
     dance-single:
     K. Ward:
     Medium:
     6:
     0.307279,0.34953,0.159641,0.016804,0,256,237,19,2,2,0,0.307279,0.34953,0.159641,0.016804,0,256,237,19,2,2,0:
0000
0000
0000
0000
,
0000
0000
0000
0000
,
0000
0000
0000
0000
,
0000
0000
0000
0000
,
1000
0100
1000
0000
1100
0000
0000
0000
,
0010
0100
0010
0000
0011
0000
0000
0000
,
1000
0100
1000
0000
1010
0000
0000
0000
,
1001
0000
0000
0000
,
1001
0001
0100
0010
,
0110
0100
0001
0010
,
0011
0001
0100
0010
,
1100
1000
0011
0000
,
1000
0000
1000
0000
0001
0010
0001
0000
,
0100
0000
0100
0000
0010
1000
0100
0000
,
1000
0000
0100
0000
1000
0010
1000
0000
,
0001
0001
0011
0000
,
0001
0000
0001
0000
1000
0100
1000
0000
,
0010
0000
0010
0000
0100
0001
0010
0000
,
0001
0000
0010
0000
0001
0100
0001
0000
,
1000
1000
1000
1000
,
1001
0100
0001
0100
,
0010
1000
0010
0100
,
0001
0100
0001
0010
,
0001
0010
0100
1000
,
0001
0001
0101
0000
,
1000
0100
1100
0000
,
0001
0010
0001
0000
0101
0000
0000
0000
,
1000
0100
1000
0000
1100
0000
0000
0000
,
0001
0100
0010
1000
,
0010
0000
0100
0000
0001
0000
0010
0001
,
1000
0010
0100
0001
,
0010
0001
0001
M00M
,
1000
0001
0100
0001
,
0100
0000
0010
0000
0100
0010
0200
0000
,
0310
0010
1000
0100
,
1000
0010
0200
0000
,
0301
0100
0010
1000
,
0010
0100
0011
0000
,
0001
0100
0001
0010
,
0001
0001
1000
0000
,
0001
0100
0010
1000
,
0001
0100
0010
1000
,
0001
0010
0001
0100
,
0001
1000
0010
0100
,
0001
0100
0100
0000
0010
1000
1000
0000
,
0010
0100
0100
0000
0001
0100
0100
0000
,
0001
0001
0001
0001
,
1001
0000
0000
0000
,
0001
0000
0100
0000
0010
1000
0100
0000
,
1000
0000
0010
0000
0100
0010
1000
0000
,
0100
0000
1000
0000
0010
0100
0001
0000
,
0010
0010
0010
0000
,
0001
0000
0100
0000
0001
0100
0010
0000
,
1000
0000
0010
0000
0100
0010
1000
0000
,
0010
0000
1000
0000
0100
0010
0100
0000
,
1000
0001
1001
0000
,
1000
0010
0000
0010
,
0100
0001
0000
0100
,
0100
0010
0000
0010
,
1000
0001
0001
0001
,
1000
0010
0000
0100
,
0001
1000
0000
0010
,
0100
0001
0000
0010
,
0001
0010
0100
1000
,
1001
0000
0000
0000
;

//--------------- dance-single - M. Puls ----------------
#NOTES:
     dance-single:
     M. Puls:
     Hard:
     13:
     0.550942,0.69906,0.436912,0.050413,0.105027,459,407,52,6,0,0,0.550942,0.69906,0.436912,0.050413,0.105027,459,407,52,6,0,0:
0000
0000
0000
0000
,
0000
0000
0000
0000
,
0000
0000
0000
0000
,
0000
0000
0000
0000
,
1000
0100
0001
1100
,
0001
0001
1000
0011
,
1000
0001
0110
0000
,
0001
0010
0001
1000
0001
0100
0001
0010
,
0001
0000
0100
0000
0001
0000
1000
0000
0001
1000
0001
0000
1000
0000
0001
0000
,
0001
0000
0010
0000
1000
0000
0001
0000
1000
0001
1000
0000
0001
0000
1000
0000
,
0100
0000
1000
0000
0010
0000
0100
0000
0010
0100
0010
0000
1000
0000
0001
0000
,
0010
0001
0100
0010
1001
0100
1001
0000
,
1000
0000
0100
0000
1000
0000
0100
0000
1000
0100
0010
0000
0001
0000
0000
0000
,
0001
0000
0010
0000
0001
0000
0010
0000
0001
0010
0100
0000
1000
0000
0000
0000
,
1000
1000
0001
1000
0010
0010
1000
0100
,
0010
0001
0100
0010
1000
0100
1001
0000
,
0010
0010
0010
1100
0000
0011
1100
0011
,
0100
0100
0100
0011
0000
1100
0011
1100
,
1000
0001
1000
0100
0010
0001
0001
1000
,
0001
1000
0001
0010
0100
1000
1000
0001
,
0110
1000
0001
0010
0100
1000
1000
0001
,
1000
0001
1000
0100
0010
0001
0001
1000
,
0110
0000
1000
0100
0100
0001
0010
0010
,
0001
0010
1000
0100
,
0001
0000
0000
0000
0001
0000
0000
0000
0001
0010
0001
0100
0001
0000
0000
0000
,
1000
0000
0000
0000
1000
0000
0000
0000
1000
0100
1000
0010
1000
0000
0000
0000
,
0001
0000
0000
0000
0001
0000
0000
0000
0001
0010
0001
0100
0001
0000
0000
0000
,
1000
0000
0000
0000
1000
0000
0000
0000
1000
0100
1000
0010
1000
0000
0000
0000
,
1100
1100
0011
0011
0100
0001
0110
0110
,
0001
0100
1010
1010
0001
0100
0010
1000
,
0110
0110
0001
1000
0110
0110
1000
0001
,
0100
0010
1100
1100
0011
0011
2200
0000
,
3300
1000
0100
0001
,
0010
0000
0001
0000
0010
0001
2000
0000
,
3001
0100
0001
0010
,
0001
0010
0002
0000
,
0103
0010
0100
1010
,
0001
0010
0100
1010
,
0100
0010
0101
0010
,
0100
0010
1100
0010
,
1000
0001
0010
0001
,
1000
0100
1000
0001
,
1000
0001
0010
0001
,
1000
0100
1000
0001
,
1000
0001
1000
0001
1000
0010
1000
0010
,
1000
0100
1000
0100
1000
0010
1000
0010
,
1000
0100
0010
0001
1000
0100
0010
0001
1000
0100
0010
0001
1000
0000
0001
0000
,
2002
0000
0000
3003
,
0001
0000
0100
0000
1000
0000
1000
0000
0001
1000
0001
0000
1000
0000
0001
0000
,
0001
0000
0010
0000
1000
0000
0001
0000
1000
0001
1000
0000
0001
0000
1000
0000
,
0100
0000
1000
0000
0010
0000
0100
0000
0010
0100
0010
0000
1000
0000
0001
0000
,
0010
0001
0100
0010
1001
0100
1001
0000
,
1000
0000
0100
0000
1000
0000
0100
0000
1000
0100
0010
0000
0001
0000
0000
0000
,
0001
0000
0010
0000
0001
0000
0010
0000
0001
0010
0100
0000
1000
0000
0000
0000
,
1000
1000
0001
1000
0010
0010
1000
0100
,
0010
0001
0100
0010
1000
0100
1001
0000
,
0010
0010
0010
1100
0000
0011
1100
0011
,
0100
0100
0100
0011
0000
1100
0011
1100
,
1000
0001
1000
0100
0010
0001
0001
1000
,
0001
1000
0001
0010
0100
1000
1000
0001
,
0110
1000
0001
0010
0100
1000
1000
0001
,
1000
0001
1000
0100
0010
0001
0001
1000
,
0110
0001
1000
0001
0100
0010
1000
0100
,
1000
0000
0001
0000
0010
0000
0100
0000
1000
0000
0001
0000
0100
0010
1000
0000
,
0101
0000
0000
0000
;

//--------------- dance-single - C. Foy ----------------
#NOTES:
     dance-single:
     C. Foy:
     Challenge:
     14:
     0.631362,0.887268,0.42851,0.109228,0.642765,526,475,51,13,16,0,0.631362,0.887268,0.42851,0.109228,0.642765,526,475,51,13,16,0:
0000
0000
0000
0000
,
0000
0000
0000
0000
,
0000
0000
0000
0000
,
0000
0000
0000
0000
,
1001
0000
0000
0000
1000
0000
0000
0001
0100
0000
0010
0000
0100
0000
0000
0000
,
1001
0000
0000
0000
0010
0000
0000
1000
0100
0000
0010
0000
0001
0000
0000
0000
,
1100
0000
0000
0000
1000
0000
0000
1000
0001
0000
0100
0000
0010
0000
0000
0000
,
0101
0000
1000
0100
0010
0001
1000
0100
0010
0001
1000
0010
0100
0001
1000
0000
,
0010
0000
0100
0000
0001
0100
0000
0010
0000
1000
0100
0000
0010
0000
0001
0000
,
1000
0001
0010
0000
0100
1000
0000
0100
0000
1000
0010
0000
1000
0000
0100
0000
,
0010
0000
0001
0000
1000
0001
0000
0010
0000
0100
1000
0000
0010
0000
0100
0000
,
0001
0010
0100
0000
1000
0001
0000
1000
0000
0010
1000
0000
2020
0000
0030
0000
,
3001
0000
0100
0000
0100
0010
0000
1000
0000
1000
0001
0000
0001
0000
0100
0000
,
0010
0100
0001
0000
0001
0010
0000
0100
0000
1000
0010
0000
0100
0000
0001
0000
,
1000
0000
0001
0000
1000
0010
0000
0100
0000
0001
0100
0000
0010
0000
1000
0000
,
0100
0010
0001
0000
1000
0100
0000
0010
0000
0001
0100
0000
0202
0000
0300
0000
,
1003
0000
0001
0000
0001
0100
0000
0100
0000
0100
0010
0000
1000
0000
1000
0000
,
1000
0010
0100
0000
0100
0001
0000
0001
0000
0001
0010
0000
0100
0000
1000
0000
,
0010
0000
0100
0000
0100
0010
0000
0010
0000
0010
1000
0000
0100
0000
0100
0000
,
1000
0100
0010
0000
0010
0001
0000
0001
0000
0001
0010
0000
0100
0000
1000
0000
,
0010
0000
1000
0000
1000
0010
0000
0010
0000
0010
0100
0000
0100
0000
0001
0000
,
1000
0001
0010
0000
0001
1000
0000
1000
0000
1000
0010
0000
0100
0000
0001
0000
,
0010
0000
0001
0000
0001
0010
0000
0100
0000
1000
0100
0000
1000
0000
0010
0000
,
1010
0101
1100
0011
,
1001
0000
0000
0000
0000
0000
0010
0000
0000
0000
0000
0010
1000
0000
0000
1000
0000
0000
1001
0000
0000
0000
0000
0000
,
0001
0000
0000
0000
0000
0000
0100
0000
0000
0000
0000
0001
0100
0000
0010
1000
0000
0000
1001
0000
0000
0000
0000
0000
,
1000
0000
0000
0000
0000
0000
0100
0000
0000
0000
0000
0010
0001
0000
0000
0001
0000
0000
1100
0000
0000
0000
0000
0000
,
1000
0000
0000
0000
0000
0000
0010
0000
0000
0000
0000
1000
0010
0000
0100
0001
0000
0000
0110
0000
0000
0000
0000
0000
,
1000
0000
0000
0000
0000
0000
0100
0000
0000
0000
0000
0010
0001
0000
0000
0001
0000
0000
1010
0000
0000
0000
0000
0000
,
0100
0000
0000
0000
0000
0000
0010
0000
0000
0000
0000
1000
0010
0000
0100
0001
0000
0000
0011
0000
0000
0000
0000
0000
,
1000
0000
0000
0000
0000
0000
0010
0000
0000
0000
0000
0010
1000
0000
0000
0001
0000
0000
0101
0000
0000
0000
0000
0000
,
1000
0000
0000
0000
0000
0000
0001
0000
0000
0000
0000
0001
0100
0000
0010
1000
0000
0000
0220
0000
0000
0300
0000
0000
,
1030
0000
0000
0000
0000
0000
1000
0000
0000
0000
0000
1000
0100
0000
0000
0010
0000
0000
1001
0000
0000
0000
0000
0000
,
0100
0000
0000
0000
0000
0000
0010
0000
0000
0000
0000
1000
0100
0000
0010
0001
0000
0000
1010
0000
0000
0000
0000
0000
,
0010
0000
0000
0000
0000
0000
0100
0000
0000
0000
0000
1000
0100
0000
0000
0100
0000
0000
1010
0000
0000
0000
0000
0000
,
1000
0000
0000
0000
0000
0000
0001
0000
0000
0000
0000
0001
0100
0000
0010
1000
0000
0000
1001
0000
0000
0000
0000
0000
,
0001
0000
0000
0000
0000
0000
0010
0000
0000
0000
0000
0010
0100
0000
0000
1000
0000
0000
0010
0000
0000
0000
0000
0000
,
1000
0000
0000
0000
0000
0000
0000
0000
0000
0000
0000
0000
0001
0000
0000
0000
0000
0000
0000
0000
0000
0000
0100
0000
0001
0000
0000
0000
0100
0000
0010
0000
0000
0000
0000
0000
1000
0000
0000
0100
0000
0000
0000
0000
0000
0000
0000
0000
,
1000
0000
0000
0000
0000
0000
0100
0000
0000
0000
0000
0100
0001
0000
0000
0001
0000
0000
0100
0000
0000
0000
0000
0000
,
0010
0000
0000
0000
0000
0000
0001
0000
0000
0000
0000
1000
0100
0000
0010
0100
0000
1000
0001
0000
0000
0000
0000
0000
,
1001
1010
0101
0110
,
1001
1100
0101
0011
,
1100
0101
0110
0011
,
1010
1100
0110
1001
,
1001
1000
1001
0001
0011
0010
0011
0001
,
0110
0100
0110
0010
1001
1000
1010
0010
,
1000
0100
0010
0001
1000
0100
0010
0001
1000
0010
0100
0001
1000
0010
0100
0001
,
1000
0100
0010
0001
1000
0100
0010
0001
1000
0100
0010
0001
1000
0001
1000
0000
,
1001
0000
1000
0000
0010
1000
0000
0001
0000
0100
0010
0000
1000
0000
0100
0000
,
1000
0100
1000
0000
0001
1000
0000
0100
0000
0010
0100
0000
0100
0000
0010
0000
,
0100
0000
1000
0000
1000
0010
0000
0100
0000
0001
0100
0000
0010
0000
0010
0000
,
1000
0010
1000
0000
0100
0010
0000
0001
0000
0100
0010
0000
2002
0000
0003
0000
,
3010
0000
1000
0000
0100
1000
0000
1000
0000
1000
0100
0000
0010
0000
0010
0000
,
0010
0001
0010
0000
0001
0100
0000
0010
0000
1000
0010
0000
0100
0000
0001
0000
,
0010
0000
0100
0000
1000
0001
0000
0010
0000
0100
1000
0000
0010
0000
0100
0000
,
0010
1000
0001
0000
0010
0100
0000
1000
0000
1000
0010
0000
2020
0000
0000
3000
,
1030
0000
0010
0000
0010
1000
0000
0000
0000
0000
0000
0000
MMMM
0000
0000
0000
,
1000
0000
0001
0000
1000
0001
0000
0100
0000
0010
0000
1000
0200
0000
0000
0300
,
0010
0000
0001
0000
0100
0010
0000
0000
0000
0000
0000
0000
MMMM
0000
0000
0000
,
1000
0000
0100
0000
0010
0100
0000
1000
0000
0001
0000
0100
0020
0000
0000
0030
,
1000
0000
0100
0000
0010
0001
0000
0000
0000
0000
0000
0000
MMMM
0000
0000
0000
,
0100
0000
0010
0000
1000
0010
0000
0100
0000
0001
0000
0010
0002
0000
0000
0003
,
1000
0000
0100
0000
0010
0001
0000
0000
0000
0000
0000
0000
MMMM
0000
0000
0000
,
1000
0100
1000
0001
1000
0010
1000
0001
1000
0100
1000
0001
1000
0010
1000
0000
,
1001
0000
0000
0000
;

//--------------- dance-double - M. Emirzian ----------------
#NOTES:
     dance-double:
     M. Emirzian:
     Easy:
     2:
     0.094824,0.188208,0.008402,0.008402,0,79,78,1,1,0,0,0.094824,0.188208,0.008402,0.008402,0,79,78,1,1,0,0:
00000000
00000000
00000000
00000000
,
00000000
00000000
00000000
00000000
,
00000000
00000000
00000000
00000000
,
00000000
00000000
00000000
00000000
,
10000000
00000000
00000000
00000000
,
00010000
00000000
00000000
00000000
,
00100000
00000000
00000000
00000000
,
00000100
00000000
00000000
00000000
,
00000001
00000000
00000000
00000000
,
00001000
00000000
00000000
00000000
,
00010000
00000000
00000000
00000000
,
10000000
00000000
00000000
00000000
,
00001000
00000000
00000000
00000000
,
00000010
00000000
00000000
00000000
,
01000000
00000000
00000000
00000000
,
10000000
00000000
00000000
00000000
,
00001000
00000000
00000000
00000000
,
00000001
00000000
00000000
00000000
,
00010000
00000000
00000000
00000000
,
10000000
00000000
00000000
00000000
,
01000000
00000000
00000000
00000000
,
00001000
00000000
00000000
00000000
,
00000001
00000000
00000000
00000000
,
00000100
00000000
00000000
00000000
,
00100000
00000000
00000000
00000000
,
00001000
00000000
00000000
00000000
,
10000000
00000000
00000000
00000000
,
01000000
00000000
00000000
00000000
,
00010000
00000000
00010000
00000000
,
00001000
00000000
00001000
00000000
,
00000001
00000000
00000001
00000000
,
00000100
00000000
00000000
00000000
,
00000010
00000000
00000000
00000000
,
00100000
00000000
00000000
00000000
,
10000000
00000000
00000000
00000000
,
00001000
00000000
00000000
00000000
,
00010000
00000000
00000000
00000000
,
00000001
00000000
00000000
00000000
,
00000010
00000000
00000000
00000000
,
00010000
00000000
00000000
00000000
,
01000000
01000000
01000000
00000000
,
00001000
00001000
00001000
00000000
,
00000010
00000010
00000010
00000000
,
00000001
00000001
00000001
00000000
,
00001000
00001000
00001000
00000000
,
00000100
00000000
00010000
00000000
,
00001000
00000000
01000000
00000000
,
00200000
00000000
00000000
00000000
,
10300000
00000000
00000000
00000000
,
00001000
00000000
00000000
00000000
,
00000001
00000000
00000000
00000000
,
00010000
00000000
00000000
00000000
,
01000000
00000000
00000000
00000000
,
00001000
00000000
00000000
00000000
,
00000010
00000000
00000000
00000000
,
00000001
00000000
00000000
00000000
,
00010000
00000000
00000000
00000000
,
01000000
00000000
00000000
00000000
,
00010000
00000000
00000000
00000000
,
00000010
00000000
00000000
00000000
,
00001000
00000000
00000000
00000000
,
10000000
00000000
00000000
00000000
,
00010000
00000000
00000000
00000000
,
00001000
00001000
00001000
00000000
,
00001001
00000000
00000000
00000000
;

//--------------- dance-double - M. Emirzian ----------------
#NOTES:
     dance-double:
     M. Emirzian:
     Medium:
     6:
     0.393701,0.430191,0.210054,0.168043,0,328,303,25,20,0,0,0.393701,0.430191,0.210054,0.168043,0,328,303,25,20,0,0:
00000000
00000000
00000000
00000000
,
00000000
00000000
00000000
00000000
,
00000000
00000000
00000000
00000000
,
00000000
00000000
00000000
00000000
,
10000000
01000000
00100000
00000000
00010000
00000000
00100000
00000000
,
01000000
10000000
01000000
00000000
00010000
00000000
00001000
00000000
,
00000100
00000010
00001000
00000000
00000010
00000000
00000100
00000000
,
00000001
00000100
00000020
00000000
00000000
00000000
00000000
00000000
,
00001030
00000000
00000100
00000000
00010000
00001000
00010000
00000010
,
00010000
00000000
00001000
00000000
00010000
00001000
01000000
00001000
,
00010000
00000000
00001000
00000000
00010000
00000010
00010000
00001000
,
00010000
00000000
00001000
01000000
00001000
00010000
00022000
00033000
,
00001000
00000000
00010000
00001000
00100000
00001000
00010000
00000000
,
01000000
00000000
10000000
00010000
01000000
00010000
10000000
00000000
,
00100000
00000000
10000000
01000000
00100000
01000000
10000000
00000000
,
00010000
00000000
01000000
00100000
01000000
00001000
00022000
00033000
,
00010000
00000000
00001000
00000000
00000010
00000001
00000010
00000000
,
00000010
00000000
00000001
00000000
00000010
00000001
00000100
00000000
,
00000010
00000000
00000100
00000000
00000010
00001000
00000100
00000000
,
00010000
00000000
00001000
01000000
00001000
00010000
00001000
00000000
,
01000000
00000000
00010000
10000000
01000000
10000000
00010000
00000000
,
10000000
00000000
00100000
01000000
00100000
10000000
00010000
00000000
,
00100000
00000000
00001000
00000000
00010000
00000100
00010000
00000000
,
00001100
00000110
00001001
00000110
,
00000002
00000000
00000100
00000103
00000010
00000000
00010000
00000000
,
00002000
00000000
00010000
00013000
00001000
00000000
00010000
00000000
,
00002000
00000000
01000000
01003000
00010000
00000000
01000000
00000000
,
00200000
00000000
10000000
10300000
00100000
00000000
01000000
00000000
,
00020000
00000000
00100000
00130000
00001000
00000000
00010000
00000000
,
00000200
00000000
00001000
00001300
00000010
00000000
00000100
00000000
,
00000002
00000000
00001000
00001003
00000100
00000000
00010000
00000000
,
00002000
00000000
01000000
01003000
00010000
00000000
00200000
00300000
,
01000000
01000000
10010000
01100000
,
00010000
00001000
00000110
00001001
,
00000110
00001000
00010000
01100000
,
10010000
01100000
00010000
00001000
,
00000110
00001001
00000110
00001000
,
00010000
01100000
10010000
01100000
,
00010000
00001000
00000110
00001001
,
00000110
00001000
00010000
01100000
,
10000000
01000000
00100000
00010000
,
10000000
01000000
00100000
00001000
,
00000010
00000001
00001000
00000100
,
00000010
00000001
00001000
00000100
,
00010000
00010000
00002000
00000000
01000000
01003000
00020000
00000000
,
10000000
10030000
02000000
00000000
00100000
03100000
00001000
00000000
,
00010000
00001000
00010000
00001000
01000000
00001000
00010000
00000100
,
00001000
00000010
00000100
00000001
00002000
00000000
00000000
00000000
,
00003100
00000000
00000010
00000001
00001000
00000001
00000010
00000000
,
00000100
00000000
00001000
00000010
00000100
00000010
00001000
00000000
,
00000010
00000000
00010000
00001000
01000000
00001000
00010000
00000000
,
00001000
00000000
00010000
00000010
00010000
00001000
00020000
00030000
,
00001000
00000000
01000000
00010000
00100000
01000000
00100000
00000000
,
00010000
00000000
01000000
00100000
10000000
00100000
01000000
00000000
,
00010000
00000000
00100000
00001000
00010000
00001000
00100000
00000000
,
00001000
00000000
00010000
00000010
00010000
00001000
00020000
00030000
,
00001000
00000100
00000001
00000001
,
00000100
00001000
00001000
00000100
,
00001000
00010000
00010000
00100000
,
10000000
10000000
00100000
00010000
,
00010000
00100000
00001000
00010000
,
00010000
00000100
00001000
00001000
,
00000010
00000100
00000100
00000001
,
00000100
00000000
00001000
00000000
00010000
00000000
00100000
10000000
,
10010000
00000000
00000000
00000000
;

//--------------- dance-double - M. Emirzian ----------------
#NOTES:
     dance-double:
     M. Emirzian:
     Hard:
     8:
     0.510131,0.618399,0.403304,0.176445,0.126032,425,377,48,21,0,5,0.510131,0.618399,0.403304,0.176445,0.126032,425,377,48,21,0,5:
00000000
00000000
00000000
00000000
,
00000000
00000000
00000000
00000000
,
00000000
00000000
00000000
00000000
,
00000000
00000000
00000000
00000000
,
00100000
00000000
00100000
10000000
01000000
00000000
00110000
00000000
,
01000000
00000000
01000000
00010000
00100000
00000000
00011000
00000000
,
00000010
00000000
00000010
00001000
00000100
00000000
00000010
00000001
,
00000100
00000020
00000000
00000000
00000000
00000000
00000030
00000000
,
00001010
00000010
00001000
00000100
00010000
00001000
01000000
00000000
,
01010000
01000000
00010000
00100000
00001000
00010000
00000010
00000000
,
00001001
00000001
00000100
00000010
00010000
00001000
00100000
00000000
,
10010000
10000000
00100000
01000000
00001000
00010000
00000200
00000300
,
00001100
00001000
00000010
00010000
00001000
00100000
01000000
00000000
,
00110000
00010000
01000000
00001000
00010000
00000100
00000010
00000000
,
00000110
00000010
00000001
00001000
00000100
00010000
00001000
00000000
,
01100000
00100000
10000000
00010000
01000000
00001000
00020000
00000000
,
00031000
00000000
00010000
00000000
00000100
00000000
00000000
00001000
00000000
00000000
00000100
00000000
00010000
00000000
00001000
00000000
,
01000000
00000000
00010000
00000000
00100000
00000000
00000000
00010000
00000000
00000000
00100000
00000000
00010000
00000000
01000000
00000000
,
00001000
00000000
00010000
00000000
00000010
00000000
00000000
00001000
00000000
00000000
00000010
00000000
00010000
00000000
00001000
00000000
,
01000000
00000000
00100000
00000000
10000000
00000000
00000000
00010000
00000000
00000000
10000000
00000000
00100000
00000000
01000000
00000000
,
00001000
00010000
00000000
00000000
00010000
00001000
00000000
00000000
00001000
00010000
00000000
00000000
00010000
00000100
00000000
00000000
,
00000100
00001000
00000000
00000000
00001000
00000010
00000000
00000000
00000010
00000100
00000000
00000000
00000100
00000001
00000000
00000000
,
00001001
00000000
00000000
00000000
00010000
00001000
00000000
00000000
00001000
01000000
00000000
00000000
01000000
00100000
00000000
00000000
,
10100000
11000000
01010000
00110000
,
10000000
00000000
10000000
00100000
00010000
00000000
00011000
00000000
,
00001000
00000000
00001000
00000010
00000001
00000000
00001100
00000000
,
00000001
00000000
00000001
00000100
00001000
00000000
00010000
00000000
,
00011000
00000000
00010000
01000000
10000000
00100000
10000000
00000000
,
00100000
00100000
10000000
10000000
01000000
01000000
00100000
00000000
,
00100000
00100000
00001000
00001000
00010000
00010000
00000100
00000000
,
00000100
00000100
00000010
00000010
00000001
00000001
00000100
00000000
,
00000010
00000010
00010000
00010000
00001000
00001000
00200000
00000000
,
01300000
00000000
00000000
20000000
00000000
00000000
00020000
00000000
00000000
01000000
30030000
00000000
,
00010000
00000000
00100000
00001000
00022000
00000000
00033000
00000000
,
00020000
00000000
00000000
00000020
00000000
00000000
00001100
00030030
00000000
00000100
00000000
00000000
,
00001000
00000000
00000001
00000000
00001001
00000000
00001100
00001000
,
00000020
00000000
00000000
00000200
00000000
00000000
00000001
00000330
00000000
00000001
00000000
00000000
,
00001000
00000000
00000100
00000010
00010100
00000000
00020000
00000000
,
00002000
00000000
00000000
01000000
00033000
00000000
00100000
00000000
00000000
20000000
00000000
00000000
,
02000000
00000000
00000000
00000000
00000000
00000000
00010000
00000000
33000000
00000000
00000000
00000000
01000000
00000000
00000000
00000000
00000000
00000000
00100000
00000000
00000000
00010000
00000000
00000000
,
11000000
10100000
01010000
00110000
,
00011000
00001010
00001100
00000011
,
00000101
00001010
00001100
00011000
,
00110000
01010000
10100000
11000000
,
00100000
00100000
01000000
01000000
10000000
10000000
00010000
00010000
,
00100000
00100000
00001000
00001000
00010000
00010000
00000010
00000010
,
00001000
00000000
00001000
00000000
00000001
00000000
00000001
00000000
00001000
00000001
00001000
00000001
00001000
00000001
00001000
00000001
,
00001000
00000001
00001000
00000001
00001000
00000000
00000001
00000000
00000100
00000000
00000010
00000000
00010000
00000000
00000000
00000000
,
01001000
01000000
00010000
00100000
00001000
00010000
00000010
00000000
,
00010100
00000100
00001000
00000010
00010000
00001000
01000000
00000000
,
10100000
10000000
01000000
00100000
00001000
00010000
00000010
00000000
,
00000101
00000001
00000100
00000010
00010000
00001000
02000000
03000000
,
01100000
00100000
10000000
01000000
00100000
00001000
00010000
00000000
,
00000110
00000010
00000001
00000100
00000010
00010000
00001000
00000000
,
01100000
00100000
00010000
01000000
00100000
00010000
00001000
00000000
,
00000110
00000010
00001000
00000100
00000010
00001000
00020000
00000000
,
00031000
00000000
01000000
00000000
00100000
00000000
00000000
10000000
00000000
00000000
00100000
00000000
01000000
00000000
00001000
00000000
,
00010000
00000000
00000100
00000000
00001000
00000000
00000000
00000001
00000000
00000000
00001000
00000000
00000200
00000000
00000000
00000000
,
00010300
00000000
00001000
00000000
01000000
00000000
00000000
00100000
00000000
00000000
01000000
00000000
00001000
00000000
00010000
00000000
,
01000000
00000000
00010000
00000000
00001000
00000000
00000000
00100000
00000000
00000000
00001000
00000000
00020000
00000000
00000000
00000000
,
00130000
00000000
10000000
00000000
01000000
00000000
00000000
00100000
00000000
00000000
01000000
00000000
10000000
00000000
00100000
00000000
,
00010000
00000000
00001000
00000000
00000010
00000000
00000000
00000100
00000000
00000000
00000010
00000000
00002000
00000000
00000000
00000000
,
00013000
00000000
00000100
00000000
00001000
00000000
00000000
00000001
00000000
00000000
00001000
00000000
00000100
00000000
00010000
00000000
,
00001000
00000000
01000000
00000000
00100000
00000000
00000000
10000000
00000000
00000000
01000000
00000000
00100000
00010000
00100000
00000000
,
10010000
00000000
00000000
00000000
;

//--------------- dance-double - M. Emirzian ----------------
#NOTES:
     dance-double:
     M. Emirzian:
     Challenge:
     9:
     0.590552,0.83458,0.277271,0.11763,0.420108,492,459,33,14,20,1,0.590552,0.83458,0.277271,0.11763,0.420108,492,459,33,14,20,1:
00000000
00000000
00000000
00000000
,
00000000
00000000
00000000
00000000
,
00000000
00000000
00000000
00000000
,
00000000
00000000
00000000
00000000
,
10000000
01000000
00100000
00010000
00100000
00000000
00100000
00001000
,
00010000
00000010
00010000
00000100
00001000
00000000
00001000
00000010
,
00000100
00000001
00000100
00000010
00001000
00000000
00000100
00000010
,
00000001
00002000
00000000
00000000
00000000
00000000
00000000
00000000
,
00003010
00000000
00000100
00000000
00000001
00000010
00000000
0000001M
00000000
00000010
00000100
00000000
00010000
00000000
00001000
00000000
,
01000000
00000000
00010000
00000000
00100000
01000000
00000000
01M00000
00000000
01000000
10000000
00000000
00100000
00000000
01000000
00000000
,
00001000
00000000
00010000
00000000
00000010
00001000
00000000
000010M0
00000000
00001000
00000100
00000000
00010000
00000000
00001000
00000000
,
01000000
00000000
00100000
00000000
01000000
00001000
00000000
0M001000
00000000
00001000
00010000
00000000
02000000
00000000
00000000
00000000
,
13000000
00000000
00010000
00000000
00100000
00001000
00000000
00M01000
00000000
00001000
00010000
00000000
00000010
00000000
00001000
00000000
,
00000100
00000000
00000010
00000000
00000001
00000100
00000000
0000010M
00000000
00000100
00000010
00000000
00010000
00000000
00001000
00000000
,
00000100
00000000
00001000
00000000
00010000
00100000
00000000
001M0000
00000000
00100000
00010000
00000000
00001000
00000000
01000000
00000000
,
00001000
00000000
00010000
00000000
00000010
00001000
00000000
000010M0
00000000
00001000
00000100
00000000
00000020
00000000
00000000
00000000
,
00001030
00000000
00010000
00000000
00100000
01000000
00000000
01M00000
00000000
01000000
00100000
00000000
10000000
00000000
00010000
00000000
,
01000000
00000000
00100000
00000000
01000000
00001000
00000000
0M001000
00000000
00001000
00010000
00000000
01000000
00000000
00100000
00000000
,
00010000
00000000
01000000
00000000
00100000
10000000
00000000
10M00000
00000000
10000000
00010000
00000000
00100000
00000000
00001000
00000000
,
00010000
00000000
00000010
00000000
00010000
00000100
00000000
000M0100
00000000
00000100
00000010
00000000
00000001
00000000
00000100
00000000
,
00000001
00000010
00000000
00000000
00000100
00010000
00000000
00000000
00001000
01000000
00000000
00000000
00100000
10000000
00000000
00000000
,
00010000
01000000
00000000
00000000
00001000
00100000
00000000
00000000
00000100
00001000
00000000
00000000
00000001
00000010
00000000
00000000
,
00000100
00010000
00000000
00000000
00100000
10000000
00000000
00000000
01000000
00100000
00000000
00000000
00000010
00001000
00000000
00000000
,
00000110
00011000
01100000
10010000
,
00010000
01000000
00100000
10000000
00100000
00000000
00100000
01000000
,
00010000
00100000
00001000
01000000
00001000
00000000
00010000
00000010
,
00010000
00000100
00000010
00000001
00000010
00000000
00000010
00000001
,
00001000
00000010
00001000
00000100
00010000
00000000
00010000
00000010
,
00010000
00010000
00001000
00001000
01000000
01000000
00100000
00100000
,
10000000
10000000
01000000
01000000
00100000
00100000
00001000
00001000
,
00010000
00010000
00000010
00000010
00000100
00000100
00000001
00000001
,
00000010
00000010
00000100
00000100
00010000
00010000
00002000
00000000
,
00013000
00010000
01000000
01000000
10000000
10000000
00100000
01000000
,
00010000
00100000
00001000
00010000
00000010
00001000
00000200
00000000
,
00000310
00000010
00000001
00000001
00000100
00000100
00000010
00010000
,
00000100
00010000
00100000
01000000
00001000
00100000
02000000
00000000
,
13000000
10000000
01000000
01000000
00100000
00100000
00001000
01000000
,
00010000
00100000
00001000
00000010
00000100
00010000
00000020
00000000
,
00000130
00000100
00000001
00000001
00000010
00000010
00000100
00001000
,
00000010
00010000
00000100
00010000
00100000
10000000
01000000
00100000
,
10010000
01100000
10010000
00011000
,
00001001
00000110
00001001
00011000
,
10100000
11000000
01010000
00011000
,
00001100
00001010
00000011
00000101
,
00001010
00001010
00010010
00010000
00011000
00011000
01001000
01000000
,
01010000
01010000
10010000
00010000
00110000
00110000
00101000
00001000
,
00010000
00001000
00010000
00001000
00010000
00001000
00010000
00001000
00010000
00000010
00001000
00000010
00001000
00000001
00000010
00000100
,
00001000
00000010
00000100
00000001
00001000
00000010
00000100
00000000
,
00000001
00000000
00000100
00000000
00000010
00010000
00000000
000100M0
00000000
00010000
00001000
00000000
01000000
00000000
00100000
00000000
,
10000000
00000000
00100000
00000000
01000000
00001000
00000000
0M001000
00000000
00001000
00010000
00000000
01000000
00000000
00100000
00000000
,
00001000
00000000
00010000
00000000
00000100
00001000
00000000
00001M00
00000000
00001000
00000010
00000000
00000100
00000000
00001000
00000000
,
00010000
00000000
00000100
00000000
00010000
00001000
00000000
000M1000
00000000
00001000
01000000
00000000
00200000
00000000
00000000
00000000
,
10300000
00000000
01000000
00000000
00100000
00001000
00000000
00M01000
00000000
00001000
00010000
00000000
00000010
00000000
00001000
00000000
,
00000100
00000000
00000010
00000000
00000100
00010000
00000000
00010M00
00000000
00010000
00001000
00000000
00000100
00000000
00000001
00000000
,
00000010
00000000
00000100
00000000
00001000
00000010
00000000
0000M010
00000000
00000010
00000100
00000000
00001000
00000000
00100000
00000000
,
00010000
00000000
10000000
00000000
01000000
00100000
00000000
0M100000
00000000
00100000
00010000
00000000
02000000
00000000
00000000
00000000
,
03001000
00000000
00010000
00000000
00000100
00001000
00000000
00000000
00000010
00000000
00000000
00000000
00000100
00000000
00000000
00000000
,
00000001
00000000
00000010
00000000
00000100
00001000
00000000
00000010
00000000
00010000
00000000
00001000
02000000
00000000
00000000
00000000
,
03100000
00000000
10000000
00000000
01000000
00100000
00000000
00000000
00010000
00000000
00000000
00000000
01000000
00000000
00000000
00000000
,
00100000
00000000
01000000
00000000
00001000
00010000
00000000
00000010
00000000
00000100
00000000
00000001
00000020
00000000
00000000
00000000
,
00000130
00000000
00001000
00000000
00000001
00000100
00000000
00000000
00000010
00000000
00000000
00000000
00001000
00000000
00000000
00000000
,
00000010
00000000
00010000
00000000
00000100
00001000
00000000
00000010
00000000
00010000
00000000
00001000
02000000
00000000
00000000
00000000
,
03001000
00000000
00010000
00000000
00001000
01000000
00000000
00000000
00100000
00000000
00000000
00000000
10000000
00000000
00000000
00000000
,
00100000
00000000
01000000
00000000
00010000
00100000
00000000
00001000
00000000
00010000
00000000
00000200
00000020
00000000
00000000
00000000
,
00001001
00000330
00000000
00000000
00000000
00000000
00000000
00000000
00000000
00000000
00000000
00000000
;

//--------------- lights-cabinet - ----------------
#NOTES:
     lights-cabinet:
     :
     Easy:
     1:
     0.442914,0.69906,0.62176,0.058815,0,369,262,74,7,0,19,0.442914,0.69906,0.62176,0.058815,0,369,262,74,7,0,19:
00000000
00000000
00000000
00000000
,
00000000
00000000
00000000
00000000
,
11110000
00000000
11110000
00000000
,
11110000
11110000
11110000
00000000
,
10000000
01000000
10000000
00000000
11000000
00000000
00000000
00000000
,
00100000
01000000
00100000
00000000
00110000
00000000
00000000
00000000
,
10000000
01000000
10000000
00000000
10100000
00000000
00000000
00000000
,
10010000
00000000
01100000
10010000
01100000
10010000
01100000
10010000
,
10010000
00010000
01000000
00100000
,
01100000
01000000
00010000
00100000
,
00110000
00010000
01000000
00100000
,
11000000
10000000
00110000
20020000
,
31130000
00000000
10000000
00000000
00010000
00100000
00010000
00000000
,
01000000
00000000
01000000
00000000
00100000
10000000
01000000
00000000
,
10000000
00000000
01000000
00000000
10000000
00100000
10000000
00000000
,
10010000
01100000
11110000
00000000
,
11110000
00000000
00010000
00000000
10000000
01000000
10000000
00000000
,
00100000
00000000
00100000
00000000
01000000
00010000
00100000
00000000
,
00010000
00000000
00100000
00000000
00010000
01000000
00010000
00000000
,
10100000
00000000
10010000
00000000
01100000
00000000
10010000
01100000
,
10010000
01000000
00010000
01000000
,
00100000
10000000
00100000
01000000
,
00010000
01000000
00010000
00100000
,
00010000
00100000
01000000
11110000
,
11110000
00010000
01010000
00000000
,
10010000
01100000
11110000
00000000
,
00010000
00100000
00010000
00000000
01010000
00000000
00000000
00000000
,
10000000
00010000
01100000
00000000
11110000
00000000
00000000
00000000
,
00010000
01000000
00100000
10000000
,
00100000
00000000
01000000
00000000
00010000
00000000
00100000
00010000
,
10000000
00100000
01000000
00010000
,
00100000
00000000
00010000
00000000
11110000
11110000
00000000
00000000
,
10000000
00010000
01000000
00010000
,
01000000
00000000
00100000
00000000
01000000
00100000
02000000
00000000
,
03100000
00100000
10000000
01000000
,
10000000
00100000
02000000
00000000
,
03010000
01000000
00100000
10000000
,
10100000
01000000
11110000
00000000
,
00010000
01000000
00010000
00100000
,
00010000
00010000
20000000
31110000
,
00010000
01000000
00100000
10000000
,
00010000
01000000
00100000
10000000
,
00010000
00100000
00010000
01000000
,
00010000
10000000
00100000
01000000
,
00010000
10000000
00100000
01000000
00010000
10000000
00100000
01000000
,
00010000
10000000
00100000
01000000
00010000
10000000
00100000
01000000
,
10010000
01100000
10010000
01100000
10010000
01100000
10010000
01100000
,
20020000
00000000
30030000
00000000
,
00010000
00000000
01000000
00000000
00100000
10000000
01000000
00000000
,
10000000
00000000
00100000
00000000
01000000
00100000
10000000
00000000
,
01000000
00000000
10000000
00000000
00100000
01000000
00010000
00000000
,
00100000
00100000
00100000
00000000
,
00010000
00000000
01000000
00000000
00010000
01000000
00100000
00000000
,
10000000
00000000
00100000
00000000
01000000
00100000
10000000
00000000
,
00100000
00000000
10000000
00000000
01000000
00100000
01000000
00000000
,
10000000
00010000
10010000
00000000
,
11010000
01100000
00000000
01100000
,
10010000
11110000
00000000
01000000
,
01000000
01100000
00000000
10010000
,
10010000
00010000
01110000
01100000
,
10010000
01100000
10010000
01100000
,
10010000
10000000
01010000
00100000
,
01000000
00010000
00000000
00100000
,
00010000
00100000
01000000
01100000
,
10010000
00000000
00000000
00000000
;
