#TITLE:I Feel You (Club Mix);
#SUBTITLE:;
#ARTIST:Kay-Cee;
#TITLETRANSLIT:;
#SUBTITLETRANSLIT:;
#ARTISTTRANSLIT:;
#GENRE:;
#CREDIT:;
#MUSIC:ifeelyouclubmix.ogg;
#BANNER:ifeelyouclubmix.png;
#BACKGROUND:ifeelyouclubmix-bg.png;
#CDTITLE:;
#SAMPLESTART:0.000;
#SAMPLELENGTH:0.000;
#SELECTABLE:YES;
#OFFSET:-3.622;
#BPMS:0.000=137.791
,56.000=68.910
,71.500=137.820
,136.000=68.910
,138.000=137.820
;
#STOPS:71.500=0.218;
#DISPLAYBPM:138.000;
#BGCHANGES:;
#FGCHANGES:;

//--------------- dance-single - ----------------
#NOTES:
     dance-single:
     :
     Easy:
     2:
     0,0,0,0,0:
1000
0000
0000
0000
,
1000
0000
0000
0000
,
0001
0000
0000
0000
,
0001
0000
0000
0000
,
0100
0000
0100
0000
,
0010
0010
0010
0000
,
1001
0000
1000
0000
,
0001
0000
0100
0000
,
0010
0000
0000
0000
,
0100
0000
0010
0000
,
0001
0000
0000
0000
,
1000
0000
1000
0000
,
0010
0000
0000
0000
,
0001
0000
0010
0000
,
1000
1000
0001
0001
,
0010
0000
0100
0000
,
1000
0000
0001
0000
,
0010
1000
0100
0001
,
1000
0000
1000
0000
,
0001
0000
0001
0000
,
0010
0000
1000
0000
,
0100
0000
0001
0000
,
2000
0000
0000
3000
,
0020
0000
0000
0030
,
1000
0000
0001
0000
,
0010
0000
0100
0000
,
2000
0000
0000
0000
,
0000
0000
0000
3000
,
0002
0000
0000
0000
,
0000
0000
0000
0003
,
0020
0000
0000
0000
,
0000
0000
0000
0030
,
0200
0000
0000
0000
,
0000
0000
0000
0300
,
0020
0000
0000
0030
2000
0000
0000
0000
,
0000
3000
0001
0000
,
0001
0000
0020
0000
,
0000
0030
0100
0000
,
0100
0000
0002
0000
,
0000
0003
1000
0000
,
1000
0000
0200
0000
,
0000
0300
0010
0000
,
0010
0000
1000
0000
,
0010
0000
0001
0000
,
0100
0000
0010
0000
,
1000
0000
1000
0000
,
0001
0000
0001
0000
,
0100
0000
0010
0000
,
1000
0000
0100
0000
,
0010
0000
0100
0000
,
0001
0000
0110
0000
;

//--------------- dance-single - ----------------
#NOTES:
     dance-single:
     :
     Medium:
     7:
     0,0,0,0,0:
2000
0000
3000
0010
2000
0000
3000
0001
,
0200
0000
0300
1000
0200
0000
0300
0001
,
1000
0010
2000
0000
3001
0100
0002
0000
,
1003
0010
0200
0000
0310
1000
0001
0000
,
1000
0001
0000
0100
0000
1001
0000
0010
,
1000
0000
0010
0000
1000
0001
1000
0001
,
2000
3010
0002
0013
,
2000
3010
0002
0013
,
2000
3100
0020
0031
,
2000
3010
0200
0301
,
2000
0010
0001
3100
,
0002
0010
1000
0103
,
0020
0001
0100
0031
,
0200
0010
1000
0310
,
2000
3020
0130
0000
0002
2003
3100
0000
,
0020
0032
0103
0000
2000
3200
0310
0000
,
2000
3010
0002
0103
,
0200
0000
0310
0000
0020
0100
1000
0130
,
0002
0000
0000
2003
0000
0000
3002
0000
0000
0003
0000
0000
0000
0000
0000
0000
,
1000
0100
0001
0000
1000
0100
0001
0000
,
0020
0000
0000
2030
0000
0000
3020
0000
0000
0030
0000
0000
0000
0000
0000
0000
,
0201
0301
1020
1030
,
0200
0000
0000
0302
0000
0000
0203
0000
0000
0300
0000
0000
0000
0000
0000
0000
,
0001
0010
1000
0000
0001
0010
1000
0000
,
0200
0000
0000
0320
0000
0000
0230
0000
0000
0300
0000
0000
0000
0000
0000
0000
,
1000
0100
0001
0010
,
2000
0001
0010
0001
,
0010
0001
0010
3001
,
0020
1000
0100
1000
,
0100
1000
0100
1030
,
2000
0000
3002
0000
,
0023
0000
0230
0000
,
2300
3020
0230
0302
,
0023
0230
2300
3020
,
0230
0000
0000
0301
2000
0000
3200
0000
,
0302
0000
0023
0000
1030
0100
0010
0000
,
0001
0100
0010
0000
0002
0000
0203
0000
,
2300
0000
3020
0000
0031
0100
0010
0000
,
1000
0100
0010
0000
0002
0000
0023
0000
,
0230
0000
2300
0000
3010
0100
0001
0000
,
0001
0100
0010
0000
2000
0000
3200
0000
,
0320
0000
0032
0000
1003
0100
0010
0000
,
0010
0100
1000
0000
1000
0001
0200
0000
,
0301
1000
0100
0000
2000
0000
3100
0000
,
0002
0000
0103
0000
0001
1000
0020
0000
,
1030
0001
0010
0000
0002
0000
0013
0000
,
2000
0000
3010
0000
1000
0100
2000
0000
,
3001
0100
0001
0000
2000
0000
3001
0000
,
2000
0000
3001
0000
0001
0010
0002
0000
,
1003
0010
1000
0000
0020
0000
0130
0000
,
0020
0130
1001
0000
;

//--------------- dance-single - ----------------
#NOTES:
     dance-single:
     :
     Hard:
     13:
     0,0,0,0,0:
1000
0001
1000
1010
0000
1000
0100
0010
,
0001
0010
0100
1100
0000
0100
0010
0001
,
1000
0010
0000
1000
0010
0000
0000
0000
0001
0010
0000
0001
0010
0000
0000
0000
,
1000
0100
0000
1000
0100
0000
0000
0000
0001
0100
0000
0001
0100
0000
0000
0000
,
0010
0100
1000
0001
0100
1000
0100
0001
,
0100
0000
0010
0000
1000
0000
0010
0000
1000
0001
1000
0001
0100
0010
0100
0010
,
1000
0100
0000
0010
0001
0000
0010
0000
0100
1000
0000
0001
0010
0000
0100
0000
,
0010
0001
0000
1000
0100
0000
0010
0000
0100
1000
0000
0001
0100
0000
1000
0000
,
0100
0001
0000
0010
0100
0000
1000
0000
0010
0001
0000
0010
1000
0000
0100
0000
,
1000
0010
0000
1000
0001
0000
0010
0000
0100
1000
0000
0100
0010
0000
0001
0000
,
1000
0100
0000
1000
0100
0000
1000
0000
0001
0010
0000
0001
0010
0000
0001
0000
,
1000
0001
0000
1000
0001
0000
0100
0000
0010
1000
0000
0010
1000
0000
0100
0000
,
0010
0001
0000
0010
0001
0000
0000
0000
1000
0100
0000
1000
0100
0000
0000
0000
,
0010
0001
0100
1000
,
0001
1000
0000
0000
0010
0000
0000
0000
1000
0001
0000
0000
0100
0000
0000
0000
0001
0010
0000
0000
0100
0000
0000
0000
1000
0100
0000
0000
0010
0000
0000
0000
,
0001
0100
0000
0000
0010
0000
0000
0000
1000
0010
0000
0000
0100
0000
0000
0000
0010
1000
0000
0000
0100
0000
0000
0000
0010
0000
0000
0000
0001
0000
0000
0000
,
1000
0100
0001
0100
0010
1000
0001
0100
,
0010
1000
0100
0000
0010
0001
0100
1001
,
1000
0000
0100
0001
0100
1000
0010
0002
,
0000
0023
0000
2030
0000
3002
0000
0003
,
1000
0000
0000
1000
0000
0000
1000
0000
0000
0000
0001
0000
0010
0000
0100
0000
,
1000
0000
0000
0000
0000
0000
0010
0000
0000
0000
0010
0000
0010
0100
0000
0000
,
1010
0000
0000
0101
0000
0000
1000
0000
0010
0000
1000
0000
0001
0000
0200
0000
,
0000
0000
0302
0000
0000
0000
2003
0000
0000
0000
3000
0000
0100
0010
0000
0000
,
1001
0000
1000
0020
0000
0000
0130
0000
,
0001
0000
0000
0000
0000
0000
0010
0000
0000
0000
0100
0000
0100
1000
0000
0000
,
0010
0000
0000
0100
0000
0000
0001
0000
0000
0010
0000
0000
0100
0000
0000
1000
,
0000
0000
0010
0000
0000
0100
0000
0000
0001
0000
0000
1000
0000
0000
0100
0000
,
0001
0000
0000
0100
0000
0000
1000
0000
0000
0010
0000
0000
0100
0000
0000
0010
,
0000
0000
1000
0000
0000
0100
0000
0000
0010
0000
0000
0001
0000
0000
0100
0000
,
1001
0000
0000
0010
0000
0000
0100
0000
0000
0001
0000
0000
0100
0000
0000
0010
,
0000
0000
1000
0000
0000
0010
0000
0000
1000
0000
0000
0001
0000
0000
0010
0000
,
0110
0000
0000
1000
0000
0000
0010
0000
0000
0001
0000
0000
0010
0000
0000
1000
,
0000
0000
0100
0000
0000
0010
0000
0000
0001
0000
0000
1000
0000
0000
0001
0000
,
0220
0000
0000
0000
0000
0000
0330
0000
0000
0000
0000
0000
0010
0100
0010
0000
0001
0000
0000
0000
0001
0000
0010
0000
0000
0000
0010
0000
0100
0000
0000
0000
,
0100
1000
0000
1000
0010
0000
0010
1000
0000
1000
0100
0000
0100
0010
0000
0010
,
0001
0000
0001
0100
0000
0100
0010
0000
1000
0000
1000
0001
0000
0001
1000
0000
,
1000
0010
0000
0010
0100
0000
0100
0001
0000
0001
1000
0000
1000
0010
0000
0010
,
0100
0000
0100
0001
0000
0001
0010
0000
0100
0000
0100
0010
0000
0010
0001
0000
,
0001
0100
0000
0100
0010
0000
0010
1000
0000
1000
0100
0000
0100
0010
0000
0010
,
0100
0000
0100
1000
0000
1000
0001
0000
1000
0000
1000
0010
0000
0010
0100
0000
,
0100
0001
0000
0001
0100
0000
0100
0010
0000
0010
1000
0000
1000
0100
0000
0100
,
0010
0000
0010
0001
0000
0001
1000
0000
0010
0000
0100
0001
0000
0100
0010
0000
,
0100
0001
0000
0100
0010
0000
0100
0001
0000
0100
0010
0000
1000
0001
0000
0100
,
0010
0000
1000
0001
0000
0100
0010
0000
1000
0000
0010
0100
0000
0010
1000
0000
,
0010
0100
0000
0010
1000
0000
0010
0100
0000
0010
1000
0000
0010
0100
0000
0001
,
1000
0000
0010
0100
0000
0001
1000
0000
0010
0000
0100
0001
0000
0010
0100
0000
,
1000
0010
0000
0100
0001
0000
0100
0010
0000
1000
0100
0000
0010
0001
0000
0010
,
0100
0000
1000
0001
0000
0010
1000
0000
0010
0000
0001
1000
0000
0100
0010
0000
,
1000
0100
0000
0010
0001
0000
0010
0100
0000
1000
0010
0000
0100
0010
0000
1000
,
0001
0000
0010
0100
0000
1000
0010
0000
1001
0000
0000
0000
0000
0000
0000
0000
;
