#TITLE:Hybrid;
#SUBTITLE:;
#ARTIST:Machinae Supremacy;
#TITLETRANSLIT:;
#SUBTITLETRANSLIT:;
#ARTISTTRANSLIT:;
#GENRE:;
#CREDIT:;
#MUSIC:Hybrid.ogg;
#BANNER:Hybrid.png;
#BACKGROUND:Hybrid-bg.png;
#CDTITLE:;
#SAMPLESTART:37.910;
#SAMPLELENGTH:10.420;
#SELECTABLE:YES;
#OFFSET:0.022;
#BPMS:0.000=185.021
,340.000=179.340
,340.500=178.980
,341.000=176.220
,341.500=167.100
,342.000=165.860
,342.500=162.400
,343.000=148.440
;
#STOPS:;
#DISPLAYBPM:185.000;
#BGCHANGES:;
#FGCHANGES:;

//--------------- dance-single - M. Puls ----------------
#NOTES:
     dance-single:
     M. Puls:
     Beginner:
     1:
     0.085658,0.145619,0.017132,0,0,70,68,2,0,0,0,0.085658,0.145619,0.017132,0,0,70,68,2,0,0,0:
0000
0000
0000
0000
,
0000
0000
0000
0000
,
0000
0000
0000
0000
,
0000
0000
0000
0000
,
1000
0000
0000
0000
,
0000
0000
0000
0000
,
1000
0000
0000
0000
,
0000
0000
0000
0000
,
0001
0000
0000
0000
,
0001
0000
0000
0000
,
1000
0000
0000
0000
,
1000
0000
0000
0000
,
0000
0000
0000
0000
,
0000
1000
0000
0000
,
0000
0000
0000
0000
,
0000
0001
0000
0000
,
0001
0000
0000
0000
,
0000
0001
0000
0000
,
0000
0000
0000
0000
,
0000
1000
0000
0000
,
1000
0000
0000
0000
,
0000
0100
0000
0000
,
0000
0000
0000
0000
,
0000
0100
0000
0000
,
0100
0000
0000
0000
,
0000
0010
0000
0000
,
0000
0000
0000
0000
,
0000
0010
0000
0000
,
0010
0000
0000
0000
,
0000
1000
0000
0000
,
0100
0000
0000
0000
,
0100
0000
0000
0000
,
0100
0000
0000
0000
,
0000
0001
0000
0000
,
0010
0000
0000
0000
,
0010
0000
0000
0000
,
0010
0000
0000
0000
,
0000
1001
0000
0000
,
0000
1000
0000
0000
,
0000
0001
0000
0000
,
0000
0010
0000
0000
,
0000
0001
0000
0000
,
0000
1000
0000
0000
,
0000
0100
0000
0000
,
0000
0000
0000
0000
,
0000
1001
0000
0000
,
0000
1000
0000
1000
,
0000
0000
0000
0000
,
0000
0001
0000
0001
,
0000
0000
0000
0000
,
0000
0100
0000
0100
,
0000
0000
0000
0000
,
0000
0000
0000
0010
,
0000
0010
0000
0010
,
0000
0000
0000
0100
,
0000
0000
0000
0100
,
0000
0000
0000
0001
,
0000
0000
0000
1000
,
0000
0000
0000
0001
,
0000
0000
0000
0000
,
0000
0000
0000
0100
,
0000
0100
0000
0100
,
0000
0000
0000
0010
,
0000
0000
0000
0010
,
0000
0000
0000
1000
,
0000
0000
0000
0001
,
0000
0000
0000
1000
,
0000
0000
0000
0000
,
0000
0000
0000
0010
,
0000
0000
0000
0000
,
0000
1000
0000
0000
,
0000
0000
0000
0000
,
0001
0000
0000
0000
,
0000
0000
0000
0000
,
0100
0000
0000
0000
,
0000
0000
0000
0000
,
0100
0000
0000
0000
,
0000
0000
0000
0000
,
0010
0000
0000
0000
,
1000
0000
0000
0000
,
0001
0000
0000
0000
,
1000
0000
0000
0000
,
0000
0000
0000
0000
,
0100
0000
0000
0000
,
0010
0000
0000
0000
,
0100
0000
0000
0000
;

//--------------- dance-single - K. Ward ----------------
#NOTES:
     dance-single:
     K. Ward:
     Easy:
     5:
     0.276554,0.330534,0.051395,0.008566,0,226,220,6,1,0,0,0.276554,0.330534,0.051395,0.008566,0,226,220,6,1,0,0:
0000
0000
0000
0000
,
0000
0000
0000
0000
,
0000
0000
0000
0000
,
0000
0000
0000
0000
,
1000
0000
0000
0000
,
0001
0000
0100
0001
,
0001
0000
0000
1001
,
0000
0000
0000
0000
,
1000
0000
0001
0000
,
1000
0100
1000
0100
,
1000
0000
0010
0000
,
0100
0000
0001
0001
,
0000
0000
0000
0000
,
0000
1000
0010
0010
,
0100
0010
1000
1000
,
1000
0010
0000
1000
,
0000
0001
0001
0001
,
1000
0001
0000
0001
,
0000
0010
0010
0010
,
0100
0001
0000
1000
,
0000
0010
0010
0000
,
0100
0100
0000
0001
,
0000
1000
0000
0001
,
1000
0100
0000
1000
,
0000
1000
1000
1000
,
0100
1000
0000
0100
,
0000
1000
0000
0001
,
0100
0110
0000
0000
,
0001
0000
0000
1000
,
1000
0001
0100
0001
,
0100
0001
0100
0100
,
0100
0001
0100
0001
,
0100
0001
0100
0100
,
0001
1000
0010
1000
,
0010
1000
0010
0010
,
0010
1000
0010
1000
,
0010
1000
0000
0010
,
0000
1000
0001
1000
,
0001
1000
0000
0001
,
0001
1000
0001
1000
,
0001
0100
0000
0100
,
0010
1000
0001
1000
,
0001
1000
0000
0001
,
0001
0100
0000
0010
,
0000
1000
1000
0001
,
0000
1000
0000
0100
,
0000
0100
0000
1000
,
1000
1000
0000
0010
,
0000
0100
0000
0001
,
0001
0001
0000
1000
,
0000
0010
0000
0100
,
0100
0100
0000
0000
,
0000
0000
0000
1000
,
0000
0001
1000
1000
,
0000
0001
0100
0100
,
0000
0010
0100
0010
,
0000
0100
0000
0010
,
0000
0010
0100
0010
,
0000
0100
0010
0010
,
0000
1000
0000
0001
,
0000
1000
1000
0001
,
0000
0010
0001
0001
,
0000
0010
0001
0001
,
0000
1000
0100
1000
,
0000
0100
0000
1000
,
0000
1000
0100
1000
,
0000
0100
1000
0010
,
0000
1000
0000
0010
,
0000
1000
1000
0001
,
0000
0000
0000
1000
,
0000
0000
0000
0001
,
0000
0000
0000
1000
,
1000
0010
0010
0000
,
0000
0000
0000
0000
,
1000
0010
1000
0010
,
1000
0010
0010
0010
,
1000
0010
1000
0010
,
1000
0010
0010
1000
,
0001
0100
0001
0100
,
0001
0100
0100
0100
,
0001
0100
0001
0100
,
0001
0000
0100
0000
,
0011
0000
0000
0000
,
0011
0000
0000
0000
,
1100
0000
1100
0000
,
2000
0000
0000
3000
;

//--------------- dance-single - K. Ward ----------------
#NOTES:
     dance-single:
     K. Ward:
     Medium:
     8:
     0.365883,0.411052,0.137053,0.248409,0,299,283,16,29,0,0,0.365883,0.411052,0.137053,0.248409,0,299,283,16,29,0,0:
0000
0000
0000
0000
,
0000
0000
0000
0000
,
0000
0000
0000
0000
,
0000
0000
0000
0000
,
1001
0000
0110
0000
,
1001
0000
0110
0000
,
0010
0100
0001
2000
,
0000
0000
3010
0000
,
1000
0000
0001
0000
,
0100
0000
0001
0002
,
0000
0000
0003
0200
0000
0000
0301
0000
,
0001
1000
0110
0000
,
0000
0110
0000
0000
,
0000
0001
0100
0010
,
1000
0000
1000
0000
0010
1000
0010
0000
,
0100
0000
0001
0000
0000
0010
0000
0000
,
0001
0000
0000
0001
,
0001
1000
0010
0100
,
0001
0010
0001
0000
0100
0000
0100
0000
,
0010
0000
1000
0000
0000
0100
0000
0000
,
1000
0000
0000
1000
,
1000
0000
0002
0000
0000
0103
0000
0000
,
0020
0000
1030
0010
,
1000
0000
0001
0000
0000
0100
0000
0000
,
0001
0000
0001
0001
,
0100
0100
0000
0001
,
0000
0000
1000
0000
0100
0000
1000
0100
,
1000
0000
0010
0000
0000
0100
0000
0000
,
0001
0000
0000
1000
,
1000
0000
0001
0000
0001
0000
0001
0010
,
0001
0000
0100
0000
0100
0000
0100
0010
,
0100
0000
0010
0000
0010
0000
0010
0100
,
0001
2000
3001
0002
,
1003
0000
1000
0000
1000
0000
1000
0100
,
1000
0000
0010
0000
0010
0000
0010
0100
,
0010
0000
0100
0000
0100
0000
0100
0010
,
1000
0002
1003
2000
,
3001
0000
0001
0100
0001
0000
0001
0100
,
0001
0100
0100
0200
,
0000
0000
0301
0010
0001
0000
0001
0010
,
0001
1000
1000
2000
,
0000
3010
0010
0100
,
0100
0001
0001
1000
,
1000
1100
0000
0011
,
0000
2002
0000
3003
,
0000
1000
0010
0100
,
0000
0002
0000
2003
,
0000
3010
0100
0001
,
0000
0200
0000
0320
,
0000
1030
1000
0002
,
0000
0103
0100
0100
,
0000
0000
0110
0000
0000
1001
0000
0000
,
0110
0000
0000
1000
,
0100
1000
0001
0100
,
0100
0010
0010
0200
,
0000
0301
0000
1000
,
0100
1000
0010
1000
,
0100
1000
0001
0100
,
0010
1000
1000
0001
,
0000
0100
0000
0000
0010
0000
0000
1000
,
0000
0010
0010
1000
,
0001
1000
0010
0100
,
0001
0100
0100
0002
,
0000
0013
0000
0001
,
1000
0010
1000
0010
,
1000
1000
0010
0100
,
0001
0001
1000
0010
,
0000
0100
0000
0000
0001
0000
0100
0000
,
0010
0020
0000
0130
,
0000
0001
0000
0000
1000
0000
0100
0000
,
1000
0010
0010
1000
,
0000
0001
0000
0000
0100
0000
0100
0000
,
0010
0000
1000
0000
0000
1100
0000
0000
,
0100
0000
0000
2200
0000
0000
3300
0000
,
0010
0000
0010
0000
1000
0010
1000
0000
,
0010
0000
0010
0000
0010
0100
0001
0000
,
1000
0000
1000
0000
1000
0010
0100
0000
,
0200
0310
0020
0130
,
0100
0000
0100
0000
0100
0010
1000
0000
,
0001
0000
0001
0000
0001
0100
0001
0000
,
1000
0000
1000
0000
1000
0010
0100
0000
,
0020
0130
0200
0310
,
0010
1000
0010
0000
0010
1000
0010
0000
,
1000
1000
2000
0000
,
3010
0000
0000
0110
0000
0000
0010
0000
,
0110
0000
0000
0001
0000
0000
0200
0000
,
0000
0000
0000
0000
,
0000
0300
0000
0000
;

//--------------- dance-single - K. Ward ----------------
#NOTES:
     dance-single:
     K. Ward:
     Hard:
     13:
     0.648555,0.747368,0.342633,0.231277,0.034263,530,490,40,27,3,0,0.648555,0.747368,0.342633,0.231277,0.034263,530,490,40,27,3,0:
0000
0000
0000
0000
,
0000
0000
0000
0000
,
0000
0000
0000
0000
,
0000
0000
0000
0000
,
1000
0010
0100
0001
0000
0010
0100
0000
,
1000
0100
0001
0100
1000
0010
0100
0001
,
0011
0000
0000
0110
0000
0000
2200
0000
,
0000
0000
3300
0000
0010
0100
0001
0000
,
1000
0100
0010
0011
0000
0000
1100
0000
,
0010
0100
0010
0000
0100
0010
1000
0002
,
0000
0000
0003
0020
0000
0000
0130
1000
,
0010
0100
0001
0010
0100
1000
0100
0100
,
0000
0000
0010
0001
0100
0100
0000
0010
,
0000
0100
0001
1000
0010
0100
0001
1000
,
0010
0100
0010
1000
0001
0010
0100
1000
,
0100
0000
1100
0000
0000
0110
0000
0000
,
0022
0000
0033
0001
,
1000
0000
0001
0010
0100
1000
0000
0001
,
0010
0001
0100
0010
0100
0001
1000
0100
,
0010
0000
0011
0000
0000
0110
0000
0000
,
2002
0000
0000
0000
3003
0000
0010
0100
,
0001
0000
1000
0010
0100
0001
0010
0100
,
0010
0001
1000
0001
0010
0100
1000
0100
,
0010
0010
0100
0000
000M
0010
0000
0M00
,
2002
0000
0000
0000
3003
0000
1000
0010
,
1000
0000
0001
0100
0001
0001
0000
0100
,
0010
0100
0010
1000
0001
0100
0010
0100
,
0001
1000
1100
0000
0000
0110
0000
0000
,
2002
0000
0000
0000
3003
0000
0010
0100
,
0001
0000
1000
0100
1000
0010
1000
0001
,
1000
0010
1000
0100
1000
0010
0100
0001
,
0010
0001
1000
0100
1000
0010
1000
0001
,
1000
0010
1000
0001
0100
0010
1000
0100
,
0010
0000
0001
0010
0001
0100
0001
1000
,
0001
0100
0001
0010
0001
0100
0010
1000
,
0100
1000
0001
0010
0001
0100
0001
1000
,
0001
0100
0001
1000
0010
0100
0001
1000
,
0100
0010
0011
0100
,
0110
0000
1000
0000
1100
0000
0001
1000
,
1010
0100
0101
1000
,
1100
0000
0010
0000
0110
0000
0010
0100
,
0010
0000
0000
0001
1000
0000
0000
0000
1100
0000
0000
0000
0010
0000
0000
0000
,
0110
0000
0001
0000
0011
0000
1000
0001
,
0101
0010
1100
0010
,
0101
0000
0010
0100
0101
0000
0010
0100
,
0110
0000
0001
1000
0100
0020
0000
0000
,
0031
0000
1000
0000
0001
0000
0010
0100
,
0010
0100
1000
0001
0010
0200
0000
0000
,
1300
0000
0010
0000
1000
0000
0010
0100
,
0001
0000
0010
0001
0010
0000
0100
0000
0010
0000
0002
0000
0000
0000
0000
0000
,
1003
0000
0010
0000
0110
0000
1000
0001
,
0100
0010
1000
0001
0010
0100
0010
0100
,
2000
0000
0000
0000
3001
0000
1000
0010
,
0100
0001
0010
0100
1000
1000
0010
0100
,
0001
0010
0100
1000
0001
0001
0100
0000
,
0010
0000
1000
0100
1000
0000
0001
0100
,
0001
2000
0000
0000
3100
0000
0001
0010
,
0100
1000
0010
0100
1000
0100
0010
0100
,
0001
0010
0100
1000
0001
1000
0200
0000
,
0000
0020
0300
0000
0130
0000
1001
0000
,
0110
0000
0001
1000
0100
0000
0001
0100
,
0010
1000
0100
0010
0001
0001
0100
0010
,
1000
0100
0010
0001
1000
1000
0100
0000
,
1000
0000
0001
0010
0100
0000
1000
0100
,
0010
0002
0000
0000
0013
0000
0100
1000
,
0010
0000
1000
0000
0100
0000
0010
0000
0001
0010
0001
0000
0100
0000
0010
0000
,
1000
0000
0100
0000
0010
0000
0001
0000
1000
0100
1000
0000
0020
0000
0000
0000
,
0000
0200
0030
0000
0301
0000
1000
0000
,
0110
1001
0000
0110
,
0000
1100
0000
0000
1001
0000
0100
0000
,
0010
0000
0100
0001
0010
0100
1000
0000
,
0100
0020
0000
0000
0130
0000
1001
0000
,
0100
0000
0010
0100
0010
1000
0000
00M0
,
0100
0010
0100
0010
0000
1001
0000
0001
,
1000
0100
1000
0010
1000
0001
1000
0010
,
1000
0000
0100
0000
1000
0000
0010
0000
0100
0000
0001
0000
0010
0001
0010
0000
,
0001
0010
0001
0100
0001
1000
0001
0100
,
0001
1000
0001
0000
0010
0000
0100
0000
1000
0100
1000
0000
0010
0000
0100
0000
,
0001
0010
0001
0100
0001
1000
0001
0100
,
0001
0000
0010
0000
0001
0000
0100
0000
0010
0000
1000
0000
0010
0100
0010
0000
,
1000
0100
1000
0010
1000
0001
0010
0100
,
2000
0100
0100
3000
0002
0010
0010
0003
,
1000
0100
0010
0200
0000
0000
1300
0000
,
0010
0100
0001
0000
1000
0001
0010
0100
,
1000
0010
0100
0001
0010
0100
1000
0100
,
0010
0100
0000
0010
0000
0001
2000
0000
,
0000
0000
0000
0000
,
0000
3000
0000
0000
;

//--------------- dance-single - C. Foy ----------------
#NOTES:
     dance-single:
     C. Foy:
     Challenge:
     15:
     0.818648,0.859473,0.30837,0.942241,0.149902,669,633,36,110,0,2,0.818648,0.859473,0.30837,0.942241,0.149902,669,633,36,110,0,2:
0000
0000
0000
0000
,
0000
0000
0000
0000
,
2002
0000
0000
0000
0000
0000
0003
0000
0010
0000
0000
3000
2002
0000
0000
0000
0000
0000
3000
0000
0010
0000
0000
0003
2002
0000
0000
0000
0000
0000
0000
0000
,
0000
0000
0000
3000
,
1000
0003
1000
0100
0010
0000
0200
0000
0000
0000
1000
0000
1000
0300
0002
0000
,
0000
0000
1000
0003
0100
0000
0010
0000
0001
0000
0100
0000
0010
0000
1000
0000
,
2002
0000
0000
0000
0000
0000
0003
0000
0100
0000
0000
3000
2002
0000
0000
0000
0000
0000
3000
0000
0100
0000
0003
0000
2002
0000
0000
0000
0000
0000
0000
0003
,
0001
0001
3001
1000
0100
0010
0001
1000
,
0001
0100
0010
0000
1000
0000
0200
0000
0000
0300
1000
0010
2000
0000
3000
0000
,
0100
0000
1000
0000
0001
0000
0100
0001
0010
0000
0001
0000
0100
0000
0001
0000
,
0010
0000
0100
0000
0010
0100
2000
0000
0000
0000
0010
3000
0010
0000
1000
0100
,
1000
0000
0001
0000
0010
0000
0001
0100
0010
0000
1000
0000
0100
0000
2200
0000
,
3300
0000
0000
0000
0000
0000
1000
0001
0000
0010
0000
0000
0100
0000
0000
1000
0000
0000
0000
0000
0000
0100
0000
0000
,
0000
1000
0010
0100
0001
2000
0000
3100
,
0010
0002
0000
1003
0100
0010
0001
0010
,
0100
0000
0000
0000
1000
0000
0000
0000
0220
0000
0000
0000
0000
0000
0300
0000
1000
0000
0000
0030
0220
0000
0000
0000
0000
0000
0030
0000
1000
0000
0000
0300
,
0220
0000
0000
0000
0000
0030
0001
0300
1000
0000
0010
0000
1000
0000
0100
0000
,
0010
0000
0001
0000
0100
0000
0010
1000
0001
0000
0200
0000
0000
0000
0010
0300
,
0100
0000
0020
0000
0000
0000
1000
0030
0100
0000
0010
0000
0100
0000
0010
0000
,
0001
0000
0000
0000
0100
0000
0000
0000
2002
0000
0000
0000
0000
0000
0003
0000
0010
0000
0000
3000
2002
0000
0000
0000
0000
0000
3000
0000
0100
0000
0000
0003
,
2002
0000
0000
0003
0010
0000
0010
0000
0010
3000
1000
0000
0001
0000
0010
0000
,
0100
0000
1000
0000
0010
0000
1000
0001
0100
0000
0020
0000
0000
0000
1030
0000
,
0100
0000
0020
0000
0000
0000
0100
0000
0100
0030
1000
0000
0100
0000
0010
0000
,
0001
0000
0000
0000
0100
0000
0000
0000
2020
0000
0000
0000
0000
0000
3000
0000
0100
0000
0000
0030
2020
0000
0000
0000
0000
0000
0030
0000
0001
0000
0000
3000
,
2020
0000
0000
0000
0000
3000
1000
0030
0001
0000
0100
0000
0010
0000
0100
0000
,
0010
0000
1000
0000
0100
0000
1000
0010
0100
0000
0002
0000
0000
0000
0100
0003
,
0010
0000
2000
0000
0000
0000
0100
3000
0010
0000
0001
0000
0100
0000
0010
0000
,
0100
0000
0000
0000
0100
0000
0000
0000
0220
0000
0000
0000
0000
0000
0030
0000
0001
0000
0000
0300
0220
0000
0000
0000
0000
0000
0300
0000
1000
0000
0000
0030
,
0220
0000
0030
0000
0001
0300
0100
0000
1000
0000
0100
0000
0010
0000
1000
0000
,
0010
1000
0001
0010
0100
0010
1000
0010
,
0010
0001
0010
0100
1000
0010
0100
0001
,
0100
0010
0100
0001
0010
0100
1000
0001
,
1000
0010
0100
0001
1000
0001
1000
0010
,
0100
0000
0010
1000
0001
0000
0100
0000
0010
0000
1000
0000
0100
0000
0010
0000
,
0100
0100
1000
0001
0100
0010
1000
0010
,
1000
0100
0010
0001
0100
0010
1000
0100
,
1000
0100
0010
0001
0010
0001
0100
0010
,
0100
0000
0010
0100
0010
0000
1000
0000
0100
0000
0010
0000
0001
0000
0100
0000
,
0001
0010
0100
1000
0100
0010
0010
0100
,
0010
0100
1000
0001
1000
0100
1000
0100
,
0010
0100
0001
0100
0010
0100
0010
0100
,
1000
0000
0001
1000
0001
0000
0100
0000
0010
0000
0100
0000
0010
0000
0100
0000
,
1000
0100
1000
0100
0010
1000
0001
0010
,
0100
0010
1000
0010
0100
0010
0001
0100
,
0010
1000
2000
3010
0100
0200
0001
0301
,
0102
0103
0020
1030
1000
0200
0300
1000
,
0020
0030
1000
0100
0020
0030
0100
1000
,
0100
0000
0001
0000
0100
0000
0010
0000
0100
0000
0020
0000
0000
0000
0001
0030
,
0002
0000
0000
0003
0010
0000
0100
0000
1000
0000
0010
1000
0001
0000
0100
0000
,
0010
0000
1000
0000
0100
0000
0010
0000
0001
0000
0200
0000
0000
0300
0010
0000
,
0200
0000
0000
0000
0000
0000
0000
0000
0000
0300
0000
0000
0001
0000
0000
0000
0000
0000
1000
0000
0000
0000
0001
0000
1000
0000
0000
0000
0000
0000
0001
0000
0000
0000
0000
0000
1000
0000
0000
0000
0000
0000
0100
0000
0000
0000
0000
0000
,
1000
0100
0010
0100
1000
0001
0100
0001
,
0020
0000
0000
0000
0000
0000
0000
0000
0000
0030
0000
0000
0000
0000
0000
0000
0000
0000
0000
0000
0000
0000
0000
0000
0001
0000
1000
0000
0000
0000
0000
0000
0000
0000
0000
0000
0100
0000
0000
0000
0000
0000
1000
0000
0000
0000
0000
0000
,
0010
0100
0001
0010
0001
1000
0100
1000
,
0010
0100
0001
0100
0010
0100
2000
0100
,
0100
0000
3100
0000
0001
0000
1000
0000
0100
0000
0010
0001
2000
0000
0100
0000
,
0100
3000
0020
0000
0001
0000
0001
0030
0100
0000
0010
0000
2000
0000
0010
0000
,
0010
3000
0100
0000
1000
0000
0100
0000
0001
0000
0010
0000
0100
0000
0010
0000
,
0100
0000
0010
0000
0001
0000
1000
0000
0010
0000
0100
0000
0001
0010
0100
0000
,
0010
0000
0001
0000
0010
0000
0001
0000
1000
0000
0010
0100
0010
0000
0100
0000
,
0001
0000
0100
0001
1000
0000
0010
0000
0100
0000
0001
0000
0010
0000
0001
0000
,
1000
0000
0002
0000
0100
0000
0100
0003
0010
0000
1000
0000
0100
0000
0010
0000
,
0100
0001
0100
0010
0100
1000
0002
1000
,
1000
0000
0100
0000
0103
0000
0010
0000
1000
0000
0001
0000
0202
0000
0000
0300
,
0010
0000
0000
0003
0201
0000
0000
0000
0000
0000
0000
0000
0310
0000
1000
0000
0002
0000
0000
0000
0000
0000
0000
0000
1003
0000
0000
0000
0100
0000
0000
0000
,
0010
0100
0001
0100
0010
0100
1000
0001
,
0100
0000
0010
0000
0100
0000
1000
0000
1000
0000
0100
0000
0102
0000
0100
0003
,
0100
0000
0120
0000
0100
0030
0100
0000
0201
0000
0001
0300
0110
0000
0010
0100
,
0010
0000
0000
1000
0000
0000
0010
0000
0000
0100
0000
0000
0001
0000
0000
0010
0000
0000
0001
1000
0000
0001
0000
0000
,
0100
0000
2002
0000
0003
3000
0010
1000
0002
0000
0000
0000
0103
0000
0010
1000
,
0001
0000
0010
0100
1000
0000
0010
0000
1000
0000
0100
0000
0010
0000
0001
0000
,
0100
0010
2000
0000
0000
3000
0100
0000
2002
0000
0000
3000
1000
0003
1000
0000
,
0100
0000
1000
0001
0100
0000
0010
0000
1000
0000
2200
0000
3300
0000
0000
0000
,
0001
1000
0000
0010
0000
0000
1000
0000
0000
2200
0000
0000
3300
0000
0000
0220
0000
0000
0330
0000
0000
1002
0000
0000
,
0100
0103
0001
0010
0100
1000
0010
0100
,
0010
0001
0010
0100
0001
1000
0100
1000
,
0010
0000
0100
0000
0002
0000
1000
0003
1000
0000
2000
0000
0010
0000
3010
0000
,
0020
0000
0100
0030
0200
0000
0001
0300
0001
0000
1000
0000
0002
0000
0100
0013
,
1000
0000
0001
0000
0020
0000
0001
0030
0001
0000
2000
0000
0100
3000
0100
0000
,
0020
0000
0001
0030
0001
0000
0100
0000
0010
0000
1000
0000
0020
0000
0100
0030
,
0100
0000
0001
0000
2000
0000
0010
3000
0010
0000
0200
0000
0001
0300
0001
0000
,
2000
0000
0200
0000
3000
0000
1300
0001
0100
0000
0010
1000
0001
0100
0001
0010
,
0001
1000
0001
0202
0000
0303
0020
1000
,
1000
0030
0001
0000
0200
0000
0000
0300
0010
0000
1000
0000
0100
0000
0010
0000
,
0100
0000
1000
0000
0010
0000
0210
0000
0001
0300
0001
0000
1002
0000
0100
0000
,
0100
0003
0201
0000
0000
0000
0002
0000
0000
0000
0010
0000
0010
0000
0000
0000
,
0000
0000
0000
0000
,
0000
0303
0000
0000
;

//--------------- dance-double - M. Emirzian ----------------
#NOTES:
     dance-double:
     M. Emirzian:
     Easy:
     3:
     0.233725,0.293808,0.008566,0.059961,0,191,190,1,7,0,0,0.233725,0.293808,0.008566,0.059961,0,191,190,1,7,0,0:
00000000
00000000
00000000
00000000
,
00000000
00000000
00000000
00000000
,
00000000
00000000
00000000
00000000
,
00000000
00000000
00000000
00000000
,
10000000
00000000
00100000
00000000
,
01000000
00010000
10000000
01000000
,
00010000
00000000
00001000
00000000
,
00010000
00000100
00001000
00000000
,
00000002
00000010
00000013
00000000
,
00000200
00001000
00001300
00000010
,
00020000
00001000
00031000
00000000
,
02000000
00010000
03010000
10000000
,
00000000
10010000
00000000
00000000
,
00000000
00100000
00010000
01000000
,
00000000
00001000
00010000
00000010
,
00010000
00001000
00000000
00010000
,
00000000
00000100
00001000
00000010
,
00000000
00000100
00000000
00000001
,
00000000
00001000
00000100
00001000
,
00000010
00010000
00000000
00001000
,
00000000
00010000
00000000
00001000
,
01000000
00010000
00000000
01000000
,
00000000
00100000
10000000
00010000
,
10000000
01000000
00000000
00100000
,
00000000
00001000
00000000
00010000
,
00000000
00000100
00010000
00001000
,
00000000
00010000
00000100
00001000
,
00000010
00000100
00000000
00000001
,
00000000
00001000
00000000
00000100
,
00000000
00010000
00000000
00001000
,
00000000
00010000
00001000
01000000
,
00000000
00100000
00000000
10000000
,
00000000
01000000
00100000
00001000
,
00000000
00010000
00000000
00000100
,
00000000
00001000
00000010
00000100
,
00000000
00000001
00000000
00000010
,
00000100
00001000
00000001
00000100
,
00000000
00000010
00000000
00010000
,
00000000
00001000
01000000
00010000
,
00000000
01000000
00000000
00100000
,
00000000
10000000
01000000
00010000
,
00000000
00001000
00000000
00010000
,
00000000
00000010
00001000
00000100
,
00000000
00000010
00000000
00000001
,
00000000
00000100
00000010
00010000
,
00000000
00001000
00000000
00000000
,
00000000
00010000
00000000
00000000
,
00000000
01000000
00000000
00000000
,
00000000
00010000
00000000
00000000
,
00000000
00001000
00000000
00000000
,
00000000
00000010
00000000
00000000
,
00000000
00000001
00000000
00000000
,
00000100
00000000
00000000
00000010
,
00000000
00000000
00000000
00010000
,
00000000
00000000
00001000
01000000
,
00000000
00000000
00000000
00010000
,
00000000
00100000
00000000
02000000
,
00000000
00000000
00000000
23000000
,
00000000
00000000
00000000
30020000
,
00000000
00000000
00000000
01030000
,
00000000
00001000
00000000
00010000
,
00000010
00001000
00000000
00000100
,
00000010
00000001
00000000
00001000
,
00000000
00000010
00000000
00000100
,
00000000
00000010
00010000
00001000
,
00000000
00010000
00000000
00001000
,
00000000
01000000
00000000
00100000
,
00000000
10000000
00000000
00000000
00010000
00000000
00000000
00000000
,
00100000
01000000
00000000
10000000
,
00000000
00000000
00010000
00000000
,
01000000
00001000
00010000
00001000
,
00000000
00000000
00000100
00000000
,
00000001
00001000
00000100
00000000
,
00010000
00000000
00000000
00000000
,
00001000
00000000
01000000
00000000
,
00010000
10000000
00010000
00100000
,
01000000
00000000
10000000
00000000
,
00010000
01000000
00001000
00000000
,
00010000
00000000
00000100
00000000
,
00001000
00000010
00000100
00000001
,
00001000
00000000
00000100
00000000
,
00010000
00001000
01000000
00000000
,
00100000
00000000
10000000
00000000
,
01000000
00000000
00100000
00000000
,
00001000
00010000
00000000
00000000
,
00000000
00000000
00000000
00000001
;

//--------------- dance-double - M. Emirzian ----------------
#NOTES:
     dance-double:
     M. Emirzian:
     Medium:
     8:
     0.551884,0.55089,0.462555,0.137053,0,451,397,54,16,0,0,0.551884,0.55089,0.462555,0.137053,0,451,397,54,16,0,0:
00000000
00000000
00000000
00000000
,
00000000
00000000
00000000
00000000
,
00000000
00000000
00000000
00000000
,
00000000
00000000
00000000
00000000
,
00000010
00010000
00000000
00001000
00000000
01000000
00000000
00010000
,
00000000
00100000
01000000
10000000
00100000
01000000
00010000
00000000
,
10010000
00000000
00000000
01001000
00000000
00000000
00010010
00000000
,
00000000
00001000
00000100
00000010
,
00001001
00000000
00000000
00000110
00000000
00000000
00020200
00000000
,
00030300
00000000
00001000
00000000
00010000
00001000
01000000
00000000
,
00110000
00000000
00000000
01001000
00000000
00000000
20020000
00000000
,
30030000
00000000
00100000
00000000
10000000
01000000
00100000
00010000
,
00000000
00000000
10000000
00100000
01000000
00010000
00000000
01000000
,
00000000
00001000
00010000
00000010
00000000
00001000
00000000
00000100
,
00000000
00000010
00000000
00000100
00001000
00000010
00000100
00000001
,
00001000
00000000
00010100
00000000
00000000
00011000
00000000
00000000
,
01001000
00000000
00100000
01000000
00010000
00000000
01000000
00000000
,
10010000
00000000
00100000
10000000
00000000
01000000
00000000
00100000
,
00000000
00001000
00000000
00100000
01000000
00010000
00001000
00010000
,
00000010
00000000
00001001
00000000
00000000
00000110
00000000
00000000
,
00010010
00000000
00010000
00000100
00001000
00000000
00000100
00000000
,
00010100
00000000
00001000
00010000
00000000
00001000
00000000
01000000
,
00000000
00100000
00000000
01000000
00100000
00010000
00001000
00010000
,
00000010
00000000
00001001
00000000
00000000
00000110
00000000
00000000
,
00010010
00000000
00000100
00000010
00000001
00000000
00000010
00000000
,
00001001
00000000
00000010
00001000
00000000
00000100
00000000
00010000
,
00000000
00001000
00000000
00010000
00100000
01000000
00010000
10000000
,
01000000
00000000
00110000
00000000
00000000
01001000
00000000
00000000
,
00010100
00000000
00001000
00000100
00000010
00000000
00000100
00000000
,
00001100
00000000
00000010
00000000
00000100
00000001
00000000
00001000
,
00000100
00000000
00010000
00001000
00000000
01000000
00100000
00000000
,
10010000
00000000
00100000
00000000
01000000
10000000
00000000
00100000
,
01000000
00000000
00001000
00010000
00000000
00000010
00000100
00000000
,
00001001
00000000
00000100
00000000
00001000
00010000
00000000
00001000
,
00000100
00000000
00001000
00010000
00000000
00100000
01000000
00000000
,
10010000
00000000
01000000
00000000
10000000
00100000
01000000
00000000
,
00100000
01000000
00001000
00000000
01000000
00001000
00010000
00000000
,
00010010
00000000
00000100
00000000
00000010
00000001
00000000
00000100
,
00000010
00000000
00010000
00001000
00000000
00100000
01000000
00000000
,
10010000
00000000
01000000
00000000
00100000
00010000
00000000
00001000
,
00000100
00000000
00001000
00010000
00000000
00000100
00000010
00000000
,
00001001
00000000
00000010
00000000
00001000
00000100
00000000
00010000
,
00000010
00000000
00010000
00001000
00000000
01000000
00100000
00000000
,
10010000
00000000
00100000
00000000
01000000
10000000
00010000
00000000
,
10000000
00010000
00100000
00000000
00010000
00100000
00001000
00000000
,
00011000
00000000
00002000
00000000
00000000
00003200
00000000
00000000
,
00000302
00000000
00000000
00000003
00000010
00000000
00000100
00001000
,
00000010
00000000
00000200
00000000
00000000
00002300
00000000
00000000
,
00023000
00000000
00000000
00030000
00001000
00000000
00010000
00100000
,
01000000
00000000
00200000
00000000
00000000
20300000
00000000
00000000
,
32000000
00000000
00000000
03000000
00100000
00000000
00010000
00100000
,
00001000
00000000
00020000
00000000
00000000
00032000
00000000
00000000
,
00003020
00000000
00000000
00000030
00001001
00000000
00000010
00001000
,
00000100
00000010
00000000
00000001
00000100
00000010
00010000
00000010
,
00000100
00000000
00000010
00001000
00000100
00010000
00001000
00000000
,
01000000
00000000
00100000
01000000
00001000
01000000
00100000
00000000
,
10000000
01000000
00000000
00100000
00010000
00000000
00101000
00000000
,
00010000
00000000
00001000
00010000
00000010
00000000
00001100
00000000
,
00000010
00000000
00000001
00000100
00000010
00001000
00001001
00000000
,
00000000
00010100
00000000
00000000
00101000
00000000
00001000
00000000
,
00010000
00000000
00001000
01000000
00010000
00000000
00100000
00010000
,
01000000
00100000
00000000
01000000
00010000
00100000
00001000
00100000
,
00010000
00000000
01000000
00001000
01000000
00100000
10000000
00000000
,
01000000
00000000
00100000
00001000
00010000
00000100
00000010
00000000
,
00000001
00000100
00000000
00000010
00010000
00000000
00001100
00000000
,
00000100
00000000
00010000
00001000
01000000
00000000
00110000
00000000
,
01000000
00000000
10000000
00100000
01000000
00010000
10010000
00000000
,
00000000
00101000
00000000
00000000
00010100
00000000
00010000
00000000
,
01000000
00000000
00010000
00001000
00000100
00000000
00000001
00000010
,
00000100
00001000
00000000
00000000
00011000
00000000
00000000
00000000
,
00100000
00000000
10000000
00100000
01000000
00000000
00010000
10000000
,
01000000
00100000
00000000
00000000
00011000
00000000
00000000
00000000
,
00001001
00000000
00000001
00000010
00000100
00001000
00000000
00000000
,
00100000
10000000
00010000
01000000
00000000
10010000
00000000
00100000
,
01000000
00000000
10000000
00010000
00000000
00100000
00001000
00000000
,
00010000
00000010
00000000
00001000
00000100
00000000
00001001
00000000
,
00000010
00000000
00000100
00010000
00000000
00001000
01000000
00000000
,
00100000
10000000
00000000
01000000
00100000
00000000
10010000
00000000
,
00100000
00000000
01000000
00001000
00000000
00010000
00000010
00000000
,
00001000
00000001
00000000
00000010
00000100
00000000
00001001
00000000
,
00000010
00000000
00000100
00010000
00001000
00000000
00010000
00001000
,
01000000
00000000
00001000
01000000
00100000
00000000
01010000
00000000
,
10000000
00100000
01000000
00010000
00000000
00000000
00011000
00000000
,
00000000
00000000
00001001
00000000
00000010
00000001
00000100
00000000
,
00000010
00001000
00000100
00000010
00000001
00000010
00000100
00001000
,
00000010
00010000
00000000
00001000
00000000
01000000
10000000
00000000
;

//--------------- dance-double - M. Emirzian ----------------
#NOTES:
     dance-double:
     M. Emirzian:
     Hard:
     9:
     0.701174,0.661067,0.548213,0.256975,0,573,509,64,30,3,0,0.701174,0.661067,0.548213,0.256975,0,573,509,64,30,3,0:
00000000
00000000
00000000
00000000
,
00000000
00000000
00000000
00000000
,
00000000
00000000
00000000
00000000
,
00000000
00000000
00000000
00000000
,
00000001
00000100
00000000
00000010
00000000
00010000
00000000
00001000
,
00000000
00010000
00001000
00010000
01000000
00100000
00010000
10000000
,
10100000
00000000
00000000
01001000
00000000
00000000
00010010
00000000
,
00000000
00001000
00001000
00001000
,
00000100
00000010
00000001
00001001
00000000
00000000
00022000
00000000
,
00033000
00000000
10010000
00000000
00100000
01000000
00001000
01000000
,
00100000
10000000
01000000
10010000
00000000
00000000
00022000
00000000
,
00033000
00000000
00001001
00000000
00000001
00000100
00000010
00001000
,
00000000
0000M000
01000000
10000000
00010000
01000000
00000000
00100000
,
00000000
10000000
01000000
00100000
00000000
02000000
00000000
03020000
,
00000000
00030020
00000000
00001030
00000100
00010000
00000100
00001000
,
00000010
00000100
00001001
00000000
00000100
00010100
00000000
00100000
,
00011000
00000000
01001000
00000000
01100000
00000000
10000000
00100000
,
01000000
00000000
00010000
01000000
00000000
00200000
00000000
00320000
,
00000000
00030200
00000000
00000310
00000100
00010000
00000100
00000010
,
00000001
00000100
00001001
00000000
00000010
00010010
00000000
00001000
,
00011000
00000000
01001000
00000000
00110000
00000000
00100000
01000000
,
10000000
00000000
00100000
01000000
00000000
00200000
00000000
00320000
,
00000000
00032000
00000000
00003100
00000001
00001000
00000100
00000010
,
00001000
00010000
00010100
00000000
00001000
00011000
00000000
00000100
,
00000110
00000000
00001001
00000000
00000101
00000000
00000010
00001000
,
00000100
00000000
00000010
00001000
00000000
00200000
00000000
02300000
,
00000000
23000000
00000000
31000000
00100000
00001000
00100000
01000000
,
10000000
00100000
10010000
00000000
01000000
01001000
00000000
00010000
,
00011000
00000000
00010100
00000000
00000110
00000000
00000001
00001000
,
00000001
00001000
00000010
00000100
00001000
00010000
00001000
00100000
,
01000000
10000000
00100000
01000000
00001000
01000000
00010000
01000000
,
00001000
01000000
00010000
00100000
01000000
10000000
01000000
00010000
,
00001000
00010000
00000100
00001000
00000100
00010000
00000100
00001000
,
00000100
00010000
00000010
00000100
00000001
00001000
00000100
00000010
,
00001000
00010000
00000010
00010000
00001000
00010000
00000010
00010000
,
00001000
00010000
00000010
00001000
00000100
00010000
00100000
01000000
,
00001000
01000000
00100000
10000000
00010000
10000000
01000000
10000000
,
00010000
10000000
01000000
00100000
00010000
01000000
00100000
00010000
,
00001000
00100000
00001000
01000000
00010000
00100000
00001000
01000000
,
00010000
00100000
00001000
00010000
01000000
00010000
00001000
00000010
,
00000100
00010000
00000010
00001000
00000100
00010000
00000010
00001000
,
00000100
00010000
00000010
00000100
00000001
00000100
00000010
00010000
,
00000100
00010000
01000000
00100000
00001000
00100000
01000000
00100000
,
00001000
00100000
01000000
10000000
00100000
01000000
00001000
00010000
,
01000000
00010000
00000010
00000100
00000010
00010000
00000010
00000100
,
00000010
00010000
00000100
00000010
00000001
00001001
00000000
00000000
,
00022000
00000000
00033000
00000000
10010000
00000000
00100000
01000000
,
00001000
01000000
00010000
00100000
01000000
10010000
00000000
00000000
,
00022000
00000000
00033000
00000000
00001001
00000000
00000010
00010000
,
00000100
00001000
00000001
00000100
00000010
00001001
00000000
00000000
,
00022000
00000000
00033000
00000000
10010000
00000000
01000000
00100000
,
00010000
00001000
00010000
00000100
00000010
00001001
00001000
00000100
,
00002200
00000000
00003300
00000000
10010000
00000000
10000000
00100000
,
01000000
00010000
00000000
00100000
01000000
00010000
00001000
00000000
,
00000100
00000010
00010000
00001000
00000010
00000001
00001000
00000000
,
00001100
00000000
00000010
00010000
00001000
01000000
00100000
00000000
,
10000000
01000000
00000000
00100000
00001000
00010000
00000010
00000000
,
00000101
00000000
00000010
00000100
00001000
00000000
00000100
00000000
,
00010100
00000000
00001000
01000000
00100000
10000000
10010000
00000000
,
00100000
00101000
00000000
00010000
00011000
00000000
00010010
00001000
,
00000000
00000100
00000010
00000001
00000010
00000001
00000100
00000010
,
00010000
00001000
00000000
00000100
00001000
00010000
00001000
00000000
,
01000000
00100000
00010000
00100000
10000000
01000000
00100000
00000000
,
00110000
00000000
00001000
01000000
00001000
00010000
00000100
00000000
,
00000010
00000001
00000000
00000100
00000010
00010000
00001000
00000000
,
01001000
00000000
00010000
00001000
01000000
00000000
00100000
00000000
,
10100000
00000000
01000000
00100000
00001000
00100000
00011000
00000000
,
00000100
00010100
00000000
00001000
00001100
00000000
00000010
00000000
,
00000101
00000000
00000010
00000100
00010000
00000100
00001000
00000010
,
00010000
00011000
00000000
00000000
20020000
00000000
30030000
00000000
,
01100000
00000000
01000000
00100000
00001000
00010000
00000100
00010000
,
00001000
00010100
00000000
00000000
00000022
00000000
00000033
00000000
,
00011000
00000000
10000000
01000000
00100000
00010000
00000000
000M0000
,
00000010
00000001
00001000
00000100
00000000
00001000
00000000
00000010
,
00000100
00000001
00000100
00000010
00001000
00000100
00000010
00001000
,
00100000
00001000
00010000
00001000
00100000
00001000
00010000
00001000
,
01000000
00100000
10000000
01000000
00100000
00001000
00010000
00000010
,
00001000
00000100
00010000
00000100
00001000
00000100
00010000
00000100
,
00000010
00000001
00000010
00001000
00010000
00000010
00010000
01000000
,
00100000
00001000
00100000
01000000
00100000
00001000
00100000
01000000
,
10000000
00100000
01000000
00001000
00100000
00001000
00010000
00000010
,
00001000
00000100
00010000
00000010
00001000
00000100
00010000
00000010
,
00000100
00000001
00000010
00001001
00000000
00000000
00022000
00000000
,
00033000
00000000
10010000
00000000
10000000
00100000
01000000
00010000
,
10000000
01000000
00100000
00001000
00100000
01000000
00010000
00001000
,
00000100
00001000
00000000
00100000
00000000
00M00100
00000001
00000000
;

//--------------- dance-double - M. Emirzian ----------------
#NOTES:
     dance-double:
     M. Emirzian:
     Challenge:
     10:
     0.810082,0.771245,0.36833,0,0.226994,662,619,43,0,0,0,0.810082,0.771245,0.36833,0,0.226994,662,619,43,0,0,0:
00000000
00000000
00000000
00000000
,
00000000
00000000
00000000
00000000
,
00000000
00000000
00000000
00000000
,
00000000
00000000
00000000
00000000
,
10000000
00100000
01000000
00010000
00000000
00100000
00000000
01000000
,
00000000
00100000
00001000
00100000
00000010
00010000
00001000
01000000
,
00011000
00000000
00000010
00000110
00000000
00000001
00001001
00000000
,
00000010
00000000
00000100
00000000
00000001
00000010
00000100
00001000
,
00000010
00000100
00000001
00000110
00000000
00010000
00011000
00000000
,
00000000
00100000
01010000
00000000
00100000
01000000
10000000
00100000
,
01000000
00010000
00100000
10010000
00000000
00100000
01010000
00000000
,
00000000
00001000
00011000
00000000
01000000
00100000
10000000
01000000
,
00000000
00000000
00000010
00000100
00001000
00000010
00000000
00000101
,
00000000
00000010
00000100
00001000
00000001
00000100
00000010
00010000
,
00000010
00000100
00000001
00000010
00000100
00010000
00001000
01000000
,
00100000
01000000
00100000
00000000
10100000
00000000
00000000
00000000
10000000
00000000
11000000
00000000
00000000
00000000
00100000
00000000
,
00110000
00000000
01000000
00000000
00100000
00000000
10000000
01000000
,
00100000
00010000
10000000
00100000
01000000
00001000
01000000
00010000
,
00100000
01000000
00100000
00001000
00010000
00000010
00001000
00000100
,
00000010
00000100
00000010
00000000
00000101
00000000
00000000
00000000
00001000
00000000
00000101
00000000
00000000
00000000
00000010
00000000
,
00001010
00000000
00000100
00000000
00000001
00000000
00000010
00000100
,
00010000
00001000
01000000
00001000
00100000
01000000
10000000
00010000
,
01000000
00100000
01000000
00010000
01000000
10000000
00010000
00100000
,
10000000
00100000
10000000
00000000
10100000
00000000
00000000
00000000
01000000
00000000
00110000
00000000
00000000
00000000
00001000
00000000
,
00011000
00000000
00000100
00000000
00000010
00000000
00000001
00000100
,
00000010
00010000
00000010
00000100
00000001
00000010
00000100
00001000
,
00000010
00010000
00001000
01000000
00100000
10000000
01000000
00100000
,
00010000
10000000
00010000
00000000
10010000
00000000
00000000
00000000
00000000
00000000
00011000
00000000
00000000
00000000
00000000
00000000
,
00001001
00000000
00010000
00000000
00000100
00000000
00010000
00001000
,
00010000
00001000
00010000
00000010
00001000
00000100
00000010
00000001
,
00000100
00000000
00000010
00000000
00001000
00000100
00001000
00000000
00000100
00001000
00000001
00000000
00000100
00000010
00000100
00000000
,
00000001
00000100
00000010
00000000
00010000
00000000
00001000
00000000
00000100
00000000
00001000
00000000
01000000
00000000
00100000
00000000
,
10000000
00000000
01000000
00000000
00100000
00000000
00010000
01000000
00100000
00000000
10000000
00100000
10000000
00000000
00010000
01000000
,
00100000
10000000
01000000
00100000
00001000
00100000
01000000
00100000
,
00001000
00000000
00010000
00000000
00000100
00010000
00001000
00000000
00010000
00001000
00010000
00000000
00000010
00001000
00000001
00000000
,
00000010
00000100
00000010
00000000
00000100
00000000
00000010
00000000
00000001
00000000
00000100
00000000
00000010
00000000
00010000
00000000
,
00001000
00000000
01000000
00000000
00001000
00000000
00010000
00001000
00100000
00000000
00010000
00100000
00010000
00000000
00100000
00010000
,
10000000
00100000
01000000
00010000
10000000
00100000
01000000
00001000
,
01000000
00000000
00100000
00000000
10000000
00010000
01000000
00000000
00100000
10000000
00100000
00000000
01000000
00010000
10000000
00000000
,
00010000
01000000
00010000
00000000
10000000
00000000
01000000
00000000
00100000
00000000
00001000
00000000
00010000
00000000
00000010
00000000
,
00001000
00000000
00000100
00000000
00000010
00000000
00000100
00001000
00000001
00000000
00000100
00000001
00000100
00000000
00000010
00000100
,
00000001
00000010
00000100
00001000
00000010
00010000
00000010
00000100
,
00001000
00000000
00010000
00000000
00001000
01000000
00010000
00000000
01000000
00010000
01000000
00000000
00100000
01000000
00100000
00000000
,
10000000
00010000
00100000
00000000
01000000
00000000
10000000
00000000
00100000
00000000
01000000
00000000
00010000
00000000
00100000
00000000
,
00001000
00000000
00010000
00000000
00000100
00000000
00001000
00000001
00000100
00000000
00000010
00001000
00000010
00000000
00000100
00000001
,
00000100
00000010
00001000
00000100
00000010
00000001
00000000
00000100
,
00001010
00000000
00000100
00000000
00010000
00000000
00001000
01000000
,
00010000
01000000
00100000
10000000
01000000
00100000
00000000
00010000
,
01010000
00000000
00100000
00000000
01000000
00000000
10000000
00100000
,
01000000
00010000
00100000
00001000
00010000
00000100
00000000
00000010
,
00000110
00000000
00000001
00000000
00000100
00000000
00000010
00001000
,
00000100
00000010
00000100
00010000
00000100
00001000
00000010
00000100
,
00000101
00000000
00000000
00000000
01010000
00000000
00100000
10000000
,
01000000
10000000
00100000
01000000
00001000
01000000
00100000
10000000
,
01000000
00000000
00100000
00000000
00010000
00000000
10000000
00000000
00010000
10000000
00010000
00000000
01000000
00000000
00010000
00000000
,
00100000
00001000
00010000
00000100
00001000
00000001
00000110
00000000
,
00000100
00001100
00000000
00000010
00000100
00000001
00000010
00000100
,
00010000
00000000
00000100
00000000
00001000
00000000
00000010
00000000
00000100
00000010
00000100
00000000
00001000
00000000
00010000
00000000
,
00001000
00000000
01000000
00000000
00100000
00000000
10000000
00000000
01000000
00100000
01000000
00000000
01100000
00000000
00000000
00000000
,
10000000
10010000
00000000
01000000
01001000
00000000
00100000
10000000
,
01000000
00100000
01000000
10000000
00100000
01000000
00001000
01000000
,
00010000
00000000
01000000
00000000
00100000
00000000
01000000
00000000
00001000
00010000
00001000
00000000
00000010
00000000
00000100
00000000
,
00010000
00000000
00000100
00000000
00000010
00000000
00000001
00000000
00000010
00000100
00000010
00000000
00000001
00000000
00000100
00000000
,
00000010
00001000
00000100
00000010
00000100
00010000
00011000
00000000
,
01000000
00110000
00000000
01000000
00100000
10000000
01000000
00100000
,
00010000
00000000
01000000
00000000
00100000
00000000
01000000
00000000
00001000
00010000
00001000
00000000
00000100
00000000
00000010
00000000
,
00010000
00000000
00000010
00000000
00000100
00000000
00000001
00000000
00000010
00000100
00001000
00000000
00000001
00000000
00000000
00000000
,
00000100
00001010
00000000
00000001
00001100
00000000
00000001
00001000
,
00000100
00010000
00001000
01000000
00000100
00010000
00001000
10000000
,
01000000
00100000
00000000
00010000
01010000
00000000
00000000
00000000
,
00011000
00000000
00010000
00001000
00000010
00000100
00000010
00000001
,
00000100
00000010
00000000
00001000
00010100
00000000
00000000
00000000
,
00001000
00000000
00010000
01000000
10000000
01000000
00000000
00000000
,
00000100
00000010
00001000
00000100
00000000
00000011
00000000
00000010
,
00000001
00000100
00000010
00001000
00000001
00000100
00001000
00000100
,
00000010
00001000
00000010
00000000
00000100
00000001
00000100
00000000
00000010
00001000
00000001
00000000
00000100
00000010
00000100
00000000
,
00000010
00010000
00001000
01000000
00100000
10000000
00010000
00100000
,
01000000
00000000
10000000
00010000
10000000
00000000
01000000
00100000
01000000
00000000
10000000
00010000
10000000
00000000
00100000
00000000
,
01000000
00001000
00010000
00000100
00010000
00001000
00010000
00000010
,
00001000
00000001
00001000
00000000
00000100
00000010
00000100
00000000
00001000
00000001
00001000
00000000
00000010
00000100
00000010
00000000
,
00010000
00001000
00010000
00000100
01000000
00001000
00010000
00001000
,
01000000
00000000
00010000
01000000
00010000
00000000
10000000
00100000
10000000
00000000
01000000
00100000
01000000
00000000
00100000
00000000
,
00001000
00010000
00000100
00000010
00000000
00000001
00000110
00000000
,
00000000
00000000
00000101
00000000
00000010
00000100
00001000
00000001
,
00000100
00000010
00010000
00000100
00010000
01000000
10000000
00100000
,
01000000
00010000
00000000
01000000
00000000
00001000
00001100
00000000
;

//--------------- lights-cabinet - ----------------
#NOTES:
     lights-cabinet:
     :
     Easy:
     1:
     0.851688,1.077474,0.916543,0.325501,0.004283,696,470,107,38,0,63,0.851688,1.077474,0.916543,0.325501,0.004283,696,470,107,38,0,63:
00000000
00000000
00000000
00000000
,
00000000
00000000
00000000
00000000
,
11110000
00000000
00000000
11110000
00000000
00000000
11110000
00000000
,
00000000
00000000
11110000
11110000
,
11110000
00000000
00000000
11110000
00000000
00000000
11110000
00000000
,
10100000
01010000
10100000
01010000
,
11110000
00000000
00000000
11110000
00000000
00000000
11110000
00000000
,
00000000
00000000
00000000
00000000
10000000
00010000
10000000
00000000
,
10000000
01000000
00010000
11110000
00000000
00000000
11010000
00000000
,
00100000
01000000
00100000
00000000
01000000
00100000
00000000
11120000
,
00000000
00000000
00030000
02000000
00000000
00000000
03010000
10000000
,
00010000
01000000
00100000
10000000
00010000
00100000
00010000
11110000
,
00000000
00000000
10000000
00010000
01000000
10010000
00000000
01100000
,
00000000
10010000
00100000
10000000
00100000
01000000
00010000
10000000
,
00100000
01000000
00100000
10000000
00010000
00100000
01000000
10000000
,
00010000
00100000
10010000
00000000
00000000
01100000
00000000
00000000
,
11110000
00000000
00000000
00010000
,
10000000
00000000
00010000
00100000
01000000
20000000
00000000
30010000
,
00100000
00010000
01000000
00100000
01000000
00010000
10000000
00100000
,
10000000
01000000
10010000
00000000
00000000
01100000
00000000
00000000
,
22220000
00000000
00000000
00000000
33330000
00000000
00100000
01000000
,
00100000
00000000
00010000
10000000
01000000
11110000
00000000
00000000
,
00100000
01000000
10000000
00010000
01000000
00100000
10000000
00010000
,
01000000
00100000
10010000
00000000
00000000
11110000
00000000
00000000
,
22220000
00000000
00000000
00000000
33330000
00000000
10000000
00100000
,
10000000
00000000
00010000
01000000
00010000
00020000
00000000
01030000
,
00100000
01000000
00100000
10000000
00010000
01000000
00100000
01000000
,
00010000
00100000
10010000
00000000
00000000
01100000
00000000
00000000
,
22220000
00000000
33330000
11110000
,
11110000
00000000
10000000
01000000
10000000
00100000
10000000
00010000
,
10000000
00100000
10000000
01000000
10000000
00100000
01000000
00010000
,
00100000
00010000
10000000
01000000
10000000
00100000
10000000
00010000
,
10000000
00100000
10000000
00010000
01000000
00100000
10000000
00100000
,
02000000
00000000
03010000
00100000
00010000
01000000
00010000
10000000
,
00010000
01000000
00010000
00100000
00010000
01000000
00100000
10000000
,
01000000
10000000
00010000
00100000
00010000
01000000
00010000
10000000
,
00010000
01000000
00010000
10000000
00100000
01000000
00010000
01000000
,
00200000
01300000
11110000
01000000
,
11110000
00100000
11110000
01000000
,
11110000
00100000
11110000
00010000
,
11110000
00000000
01000000
00000000
11110000
00000000
00100000
10000000
,
00100000
00000000
10000000
00010000
01100000
00000000
00000000
00000000
11110000
00000000
00000000
00000000
00100000
00000000
00000000
00000000
,
11110000
10000000
11110000
00010000
,
11110000
00100000
11110000
01000000
,
11110000
01100000
11110000
11110000
,
11110000
00000000
00010000
10000000
01000000
00200000
11010000
00000000
,
00310000
00000000
00100000
00000000
01000000
00000000
11110000
01000000
,
00100000
00010000
10000000
00010000
00100000
02000000
10110000
00000000
,
10000000
03000000
11110000
00000000
01000000
00000000
11110000
01000000
,
00010000
00000000
01100000
00000000
01100000
00010000
11110000
00000000
,
10000000
00100000
01100000
11110000
,
10010000
01100000
10000000
00010000
10000000
01100000
10010000
01100000
,
11110000
00000000
00000000
00000000
11112200
00000000
10003300
00100000
,
01000000
00010000
00100000
01000000
10000000
01000000
00100000
01000000
,
00010000
00100000
01000000
10000000
00010000
00100000
02000000
00000000
,
03100000
00000000
10000000
01000000
10000000
00000000
00010000
01000000
,
00010000
20000000
00000000
00000000
30200000
00000000
10300000
00100000
,
01000000
00010000
00100000
01000000
10000000
00010000
00100000
01000000
,
00010000
00100000
01000000
10000000
00010000
10000000
02000000
00000000
,
00000000
00200000
03000000
00000000
10300000
00000000
00000000
11110000
,
00000000
01100000
10010000
00000000
11110000
00000000
00010000
01000000
,
00100000
10000000
01000000
00100000
00010000
10000000
01000000
00100000
,
10000000
01000000
00100000
00010000
10000000
00100000
02000000
00000000
,
13010000
00000000
00010000
01000000
00100000
00000000
10000000
00100000
,
10000000
00020000
00000000
00000000
02030000
00000000
03010000
01000000
,
00100000
10000000
01000000
00100000
00010000
10010000
01000000
00100000
,
10000000
01000000
00100000
01000000
10010000
01100000
10010000
00000000
,
00000000
11110000
00000000
00000000
11110000
00000000
11110000
00000000
,
01100000
00000000
10010000
01100000
10010000
00000000
01100000
00000000
,
00000000
11000000
00000000
00000000
10010000
00000000
02000000
00000000
,
03100000
00000000
10000000
00100000
10000000
00020000
01000000
00000000
,
01030000
00200000
00000000
00000000
10300000
00000000
00010000
00000000
,
01000000
00000000
00100000
01000000
00100000
10000000
00000000
00000000
,
00010000
00100000
00010000
00100000
00000000
01100000
00000000
00010000
,
10000000
01000000
10000000
00100000
10000000
00010000
10000000
00100000
,
10000000
01000000
10000000
00100000
01000000
10010000
11110000
00000000
,
00010000
00100000
00010000
01000000
00010000
10000000
00010000
01000000
,
00010000
01000000
11110000
00000000
01000000
10010000
11110000
00000000
,
00010000
00100000
00010000
01000000
00010000
10000000
00010000
01000000
,
00010000
00100000
00010000
01000000
00100000
10000000
11110000
00000000
,
10000000
01000000
10000000
00100000
10000000
00010000
10000000
00100000
,
10000000
01100000
11110000
00000000
20000000
00000000
31100000
00000000
,
11110000
00000000
00100000
01010000
00000000
00000000
10100000
00000000
,
01000000
00000000
00100000
00000000
01000000
00100000
01000000
10000000
,
00010000
10000000
01000000
10000000
00010000
01000000
00100000
10000000
,
00100000
01000000
00000000
01100000
00000000
10010000
22220000
00000000
,
00000000
00000000
00000000
33330000
;
