#TITLE:Hip Hop Jam;
#SUBTITLE:;
#ARTIST:Indiggo;
#TITLETRANSLIT:;
#SUBTITLETRANSLIT:;
#ARTISTTRANSLIT:;
#GENRE:;
#CREDIT:;
#MUSIC:Hip Hop Jam.ogg;
#BANNER:Hip Hop Jam.png;
#BACKGROUND:Hip Hop Jam-bg.png;
#CDTITLE:;
#SAMPLESTART:30.276;
#SAMPLELENGTH:9.800;
#SELECTABLE:YES;
#OFFSET:-0.608;
#BPMS:0.000=193.980;
#STOPS:;
#BGCHANGES:;
#FGCHANGES:;

//--------------- dance-single - M. Puls ----------------
#NOTES:
     dance-single:
     M. Puls:
     Beginner:
     2:
     0.105387,0.155474,0.055526,0,0,93,86,7,0,0,0,0.105387,0.155474,0.055526,0,0,93,86,7,0,0,0:
0000
0000
0000
0000
,
0000
0000
0000
0000
,
0000
0000
0000
0000
,
0000
0000
0000
0000
,
1000
0000
0000
0000
,
0000
0000
0000
0000
,
0001
0000
0000
0000
,
0000
0000
0000
0000
,
1000
0000
0000
0000
,
1000
0000
0000
0000
,
0001
0000
0000
0000
,
0001
0000
0000
0000
,
0010
0000
0000
0000
,
0100
0000
0000
0000
,
1000
0000
0000
0000
,
0100
0000
0000
0000
,
0010
0000
0000
0000
,
0001
0000
0000
0000
,
0001
0000
0000
0000
,
1000
0000
0000
0000
,
1000
0000
0000
0000
,
0001
0000
0000
0000
,
0001
0000
0000
0000
,
1001
0000
0000
0000
,
1000
0000
0000
0000
,
0010
0000
0000
0000
,
1000
0000
0000
0000
,
0100
0000
0000
0000
,
0100
0000
0000
0000
,
0001
0000
0000
0000
,
0100
0000
0000
0000
,
0001
0000
0000
0000
,
0010
0000
0000
0000
,
0010
0000
0000
0000
,
0100
0000
0000
0000
,
0010
0000
0000
0000
,
0100
0000
0000
0000
,
0001
0000
0000
0000
,
1000
0000
0000
0000
,
0001
0000
0000
0000
,
1001
0000
0000
0000
,
0000
0000
0000
0000
,
1001
0000
0000
0000
,
0000
0000
0000
0000
,
1001
0000
0000
0000
,
0100
0000
0000
0000
,
0010
0000
0000
0000
,
0100
0000
0000
0000
,
1000
0000
0000
0000
,
0100
0000
0000
0000
,
0010
0000
0000
0000
,
0001
0000
0000
0000
,
0010
0000
0000
0000
,
0100
0000
0000
0000
,
1000
0000
0000
0000
,
0100
0000
0000
0000
,
0010
0000
0000
0000
,
0001
0000
0000
0000
,
0001
0000
0000
0000
,
0000
0000
0000
0000
,
1000
0000
0000
0000
,
0000
0000
0000
0000
,
0001
0000
0000
0000
,
0000
0000
0000
0000
,
0010
0000
0000
0000
,
1001
0000
0000
0000
,
1000
0000
0000
0000
,
0010
0000
0000
0000
,
1000
0000
0000
0000
,
0100
0000
0000
0000
,
0100
0000
0000
0000
,
1000
0000
0000
0000
,
0000
0000
0000
0000
,
0001
0000
0000
0000
,
0010
0000
0000
0000
,
0010
0000
0000
0000
,
0001
0000
0000
0000
,
0000
0000
0000
0000
,
0100
0000
0000
0000
,
0001
0000
0000
0000
,
1000
0000
0000
0000
,
0001
0000
0000
0000
,
1001
0000
0000
0000
,
1000
0000
0000
0000
,
1000
0000
0000
0000
,
0100
0000
0000
0000
,
0100
0000
0000
0000
,
0010
0000
0000
0000
,
0010
0000
0000
0000
,
0001
0000
0000
0000
,
0001
0000
0000
0000
,
0010
0000
0000
0000
,
0010
0000
0000
0000
,
0100
0000
0000
0000
,
0100
0000
0000
0000
,
1000
0000
0000
0000
,
1000
0000
0000
0000
,
0001
0000
0000
0000
,
1001
0000
0000
0000
;

//--------------- dance-single - K. Ward ----------------
#NOTES:
     dance-single:
     K. Ward:
     Easy:
     3:
     0.164313,0.194343,0.007932,0,0,145,144,1,0,0,0,0.164313,0.194343,0.007932,0,0,145,144,1,0,0,0:
0000
0000
0000
0000
,
0000
0000
0000
0000
,
0000
0000
0000
0000
,
0000
0000
0000
0000
,
0010
0000
0000
0000
,
1000
0000
0000
0000
,
1000
0000
0000
0000
,
0010
0000
0000
0000
,
0010
0000
0010
0000
,
0000
0000
0001
0000
,
1000
0000
0001
0000
,
1000
0000
0000
0000
,
0001
0000
0100
0000
,
0010
0000
0000
0000
,
0010
0000
0100
0000
,
0010
0000
0000
0000
,
0100
0000
0000
0000
,
0010
0000
0000
0000
,
0001
0000
0001
0000
,
0100
0000
0000
0000
,
0100
0000
0100
0000
,
0010
0000
0000
0000
,
0010
0000
0000
0000
,
0010
0000
0000
0000
,
1000
0000
0001
0000
,
1000
0000
0001
0000
,
1000
0000
1000
0000
,
0001
0000
0000
0000
,
0001
0000
1000
0000
,
0001
0000
1000
0000
,
0001
0000
0001
0000
,
1000
0000
0000
0000
,
1000
0000
0001
0000
,
1000
0000
0001
0000
,
1000
0000
1000
0000
,
0001
0000
0000
0000
,
0001
0000
1000
0000
,
0001
0000
1000
0000
,
0001
0000
0001
0000
,
1000
0000
0000
0000
,
0010
0000
0000
0000
,
0100
0000
0000
0000
,
0010
0000
0010
0000
,
0100
0000
0000
0000
,
0010
0000
0000
0000
,
0100
0000
0000
0000
,
0100
0000
0100
0000
,
0010
0000
0000
0000
,
1000
0000
0000
0000
,
0000
0000
0000
0000
,
0010
0000
0010
0000
,
0000
0000
0001
0000
,
1000
0000
0001
0000
,
1000
0000
0000
0000
,
0001
0000
0100
0000
,
0010
0000
0000
0000
,
0010
0000
0100
0000
,
0010
0000
0000
0000
,
0100
0000
0000
0000
,
0010
0000
0000
0000
,
0001
0000
0001
0000
,
0100
0000
0000
0000
,
0100
0000
0100
0000
,
0010
0000
0000
0000
,
0010
0000
0000
0000
,
0010
0000
0000
0000
,
1000
0000
0001
0000
,
1000
0000
0001
0000
,
1000
0000
1000
0000
,
0001
0000
0000
0000
,
0001
0000
1000
0000
,
0001
0000
1000
0000
,
0001
0000
0001
0000
,
1000
0000
0000
0000
,
1000
0000
0001
0000
,
1000
0000
0001
0000
,
1000
0000
1000
0000
,
0001
0000
0000
0000
,
0001
0000
1000
0000
,
0001
0000
1000
0000
,
0001
0000
0001
0000
,
0010
0000
0000
0000
,
0100
0000
0010
0000
,
0100
0000
0010
0000
,
0100
0000
0100
0000
,
0010
0000
0000
0000
,
0010
0000
0100
0000
,
0010
0000
0100
0000
,
0010
0000
0010
0000
,
0100
0000
0000
0000
,
0100
0000
0010
0000
,
0100
0000
0010
0000
,
0100
0000
0100
0000
,
0010
0000
0000
0000
,
0010
0000
0100
0000
,
0010
0000
0100
0000
,
0010
0000
0010
0000
,
0100
0000
0000
0000
,
1001
0000
0000
0000
;

//--------------- dance-single - K. Ward ----------------
#NOTES:
     dance-single:
     K. Ward:
     Medium:
     6:
     0.296897,0.389677,0.166579,0.031729,0,262,241,21,4,0,0,0.296897,0.389677,0.166579,0.031729,0,262,241,21,4,0,0:
0000
0000
0000
0000
,
0000
0000
0000
0000
,
0000
0000
0000
0000
,
0000
0000
0000
0000
,
1000
0000
0010
0000
,
0010
0000
1000
0000
,
1000
0000
0001
0000
,
0002
0000
0000
0000
,
1003
0010
1000
0000
,
0010
0100
0010
0000
,
1000
0100
1000
0000
,
0002
0000
0000
0000
,
0103
0001
0100
0000
,
0010
1000
0010
0000
,
1000
0000
0001
0000
,
0200
0000
0000
0000
,
0310
0000
1000
0010
,
0100
0000
0100
0001
,
0010
0000
0001
0100
,
0010
0000
1000
0100
,
1000
0000
0010
0100
,
0010
0000
0100
0001
,
1001
0000
0110
0000
,
1001
0000
0000
0000
,
0001
0000
0001
0000
,
0100
0000
0100
0000
,
0010
1000
1000
0001
,
0001
0000
0000
0000
,
1000
0000
1000
0000
,
0010
0000
0010
0000
,
0100
0001
0001
1000
,
1000
0000
1001
0000
,
1001
0000
0001
0000
,
0100
0000
0100
0000
,
0010
1000
1000
0001
,
0001
0000
1001
0000
,
0001
0000
1000
0000
,
0010
0000
0010
0000
,
0100
0001
0001
1000
,
1000
0000
1000
0000
,
0001
0100
0001
0100
,
0010
0100
0001
0000
,
1000
0000
0110
0000
,
1001
0000
0000
0000
,
1000
0010
1000
0010
,
0100
0010
1000
0000
,
0110
0000
0110
0000
,
1001
0000
0000
0000
,
1000
0100
1000
0100
,
1000
0100
1000
0000
,
0010
0010
1000
0000
,
0100
0100
1000
0000
,
0001
1000
0001
1000
,
0001
0000
0000
0000
,
0100
0100
0001
0000
,
1000
1000
0010
0000
,
1000
0000
0001
0000
,
0020
0000
0000
0000
,
0031
0000
1000
0010
,
0100
0000
0001
0010
,
0001
0000
1000
0000
,
0010
1000
1000
0000
,
0010
0000
1000
0010
,
0100
0000
0100
0001
,
1001
0000
0110
0000
,
1001
0000
0000
0000
,
0001
0000
0001
0000
,
0100
0000
0100
0000
,
0010
1000
1000
0001
,
0001
0000
0000
0000
,
1000
0000
1000
0000
,
0010
0000
0010
0000
,
0100
0001
0001
1000
,
1000
0000
1000
0000
,
0001
0000
0001
0000
,
0100
0000
0100
0000
,
0010
1000
1000
0001
,
0001
0000
1001
0000
,
1000
0000
1000
0000
,
0010
0000
0010
0100
,
0100
0001
0001
0010
,
0011
0000
0000
0000
,
0001
0010
0001
0000
,
0100
0010
0100
0000
,
0001
0001
1000
1000
,
1100
0000
0000
0000
,
1000
0010
1000
0000
,
0010
0100
0010
0000
,
0100
0001
0001
1000
,
1000
0000
1000
0000
,
0001
0010
0001
0000
,
0100
0010
0100
0000
,
0010
1000
0100
1000
,
1000
0000
1001
0000
,
1000
0010
1000
0000
,
0010
0100
0010
0000
,
0100
0001
0010
0001
,
0010
0000
0011
0000
,
1001
1001
0000
0000
;

//--------------- dance-single - K. Ward ----------------
#NOTES:
     dance-single:
     K. Ward:
     Hard:
     10:
     0.487273,0.584515,0.468009,0.047594,0,430,371,59,6,0,0,0.487273,0.584515,0.468009,0.047594,0,430,371,59,6,0,0:
0000
0000
0000
0000
,
0000
0000
0000
0000
,
0000
0000
0000
0000
,
0000
0000
0000
0000
,
1000
0000
0000
0001
0000
0000
0000
0000
,
0001
0000
0000
1000
0000
0000
0000
0000
,
1000
0000
0000
0001
0000
0000
0000
0000
,
2002
0000
0000
3003
,
0100
0000
0100
0000
0100
0000
0000
0010
,
0000
0100
0001
0000
0010
0000
0000
0000
,
0100
0100
0100
0000
,
0010
1001
0000
0000
,
0100
0000
0010
0000
0001
0000
0000
0010
,
0000
0100
0001
0000
0010
0000
0000
0000
,
0100
0000
1000
0100
0000
0010
0000
0100
,
0000
1000
0000
0100
1000
0000
0000
0000
,
0100
0010
0101
0000
,
0100
0010
1100
0000
,
1000
0100
0001
0100
,
1000
0000
0001
0000
0010
0001
0100
0000
,
0010
0100
0011
0000
,
0010
0100
1010
0000
,
1001
0000
0000
0110
0000
0011
0000
0000
,
1001
0000
0000
0000
,
0100
1001
0010
1001
,
0010
0100
0000
0001
0000
0000
0000
0000
,
0010
0100
1000
0000
1000
0100
0010
0000
,
0001
0000
0000
0000
,
1001
0010
1001
0100
,
0010
0100
0000
1010
0000
0000
0000
0000
,
0100
0000
0010
0000
0001
0010
0000
0101
,
0000
0000
0000
0000
0001
1000
0001
0000
,
0100
0010
0100
1000
,
0100
0010
0000
1100
0000
0000
0000
0000
,
0100
0010
0001
0000
0001
0010
0100
0000
,
1000
0000
0110
1001
,
0010
0100
0001
0010
,
0001
0100
0000
1010
0000
0000
0000
0000
,
0100
0000
0010
0000
0100
0010
0000
0101
,
0000
0000
0000
0000
0100
0010
1000
0000
,
0100
1000
0100
0001
,
0100
1000
0001
1000
,
0001
1000
0001
1000
0001
1000
0000
1001
,
0000
0000
0000
0000
,
0010
1000
0100
0001
,
0100
1000
0001
1000
,
0001
1000
0001
1000
0001
1000
0000
1001
,
0000
0000
0000
0000
,
1010
0000
0100
0001
0000
0010
0000
0100
,
0000
0020
0000
0200
0000
0000
0330
0000
,
1001
0001
0100
0000
,
0010
0100
0001
0000
0010
0000
0000
0000
,
0100
0010
0001
0000
0001
0010
0100
0000
,
0100
0000
0000
0000
0001
1000
0001
1000
,
0100
0010
0101
0000
,
0010
0100
0001
0000
0010
0000
0000
0000
,
0100
0010
0001
0000
0001
0010
0100
0000
,
2002
0000
3003
0000
,
1000
0100
0001
0100
,
1000
0010
0001
0010
,
1000
0100
0001
0100
,
1000
0000
0001
0000
0100
0001
0010
0000
,
0001
0100
1000
0100
,
0001
0010
1000
0010
,
1001
0000
0000
0110
0000
1100
0000
0000
,
1001
0000
0000
0000
,
1001
0100
1001
0010
,
0001
1000
0000
1100
0000
0000
0000
0000
,
0100
0010
0001
0000
0001
0010
0100
0000
,
0011
0000
0000
0000
0010
0100
0010
0000
,
1001
0010
1001
0100
,
1000
0100
0000
1010
0000
0000
0000
0000
,
0010
0100
1000
0000
1000
0100
0010
0000
,
0100
0000
1001
0000
0100
0010
0100
0000
,
1010
0100
1001
0010
,
0001
0100
0000
0011
0000
0000
0000
0000
,
0010
0100
1000
0000
1000
0100
0010
0000
,
1001
0000
0110
1001
,
0011
0100
1100
0010
,
0100
0010
0000
0101
0000
0000
0000
0000
,
0010
0100
1000
0000
1000
0100
0010
0000
,
1001
0000
0000
0000
,
0001
1000
0001
0000
1000
0001
1000
0000
,
0100
0010
0001
0010
0100
0010
0001
0000
,
0100
0010
1000
0000
0010
0100
0001
0000
,
0010
0100
1000
0100
,
1001
0010
1001
0100
,
0100
0010
0001
0010
0100
0010
0001
0000
,
0010
0100
0001
0000
0010
0100
1000
0000
,
0100
0010
0001
0010
,
1001
0100
1001
0010
,
0001
0010
0100
1000
0100
0010
0100
0000
,
1000
0010
0100
0000
0100
0001
0010
0000
,
1100
0000
0110
1001
,
0100
0010
1000
0000
0100
0010
0001
0000
,
0001
0010
0100
1000
0100
0010
0001
0000
,
0100
0010
0001
0000
0001
0010
0100
0000
,
1001
0000
0000
0000
1000
0100
0010
0000
,
0011
0011
0000
0000
;

//--------------- dance-single - M. Puls ----------------
#NOTES:
     dance-single:
     M. Puls:
     Challenge:
     13:
     0.664051,0.706773,0.594926,0.182444,0.059493,586,511,75,23,25,0,0.664051,0.706773,0.594926,0.182444,0.059493,586,511,75,23,25,0:
0000
0000
0000
0000
,
0000
0000
0000
0000
,
0000
0000
0000
0000
,
0000
0000
0000
0000
,
1000
0000
0010
1000
0000
0001
1000
0100
,
1000
0000
0010
1000
0000
0001
1000
0100
,
1000
0000
0010
1000
0000
0001
1000
0000
,
0100
1000
0000
0000
0100
0001
0000
0000
1010
0000
0000
0000
0011
0000
0000
0000
,
1000
0000
0100
1000
0010
0000
1000
0001
,
1000
0000
0000
0000
0001
0010
0000
0000
1000
0100
0000
0000
1100
0000
0000
0000
,
0011
0000
0100
1000
0001
0000
1000
0010
,
1000
0001
0020
0030
,
0001
1000
0001
0000
1000
0100
1000
0000
,
0001
0010
0001
0000
0200
0000
0300
0000
,
0001
1000
0100
1000
0010
0100
0010
0100
,
2002
0000
0000
3003
,
0010
0100
0000
0010
0100
0000
0001
0100
,
0000
1000
0001
0000
,
0100
1000
0100
0010
0001
0010
0100
1000
,
0010
1000
0100
0010
0001
0100
1000
0000
,
0001
1000
0000
0001
1000
0000
0100
1000
,
0000
1000
0001
0000
,
1001
0000
1100
0011
0000
0110
0000
1100
,
2002
3003
0000
0000
,
1001
MM1M
1001
M1MM
,
0011
0000
1100
0000
0001
0010
0100
0000
,
1100
0001
0011
0100
,
1010
0000
0100
0000
1000
0001
1000
0100
,
0010
0000
0011
0000
0100
1000
0010
1000
,
0100
1000
0001
0010
0100
0000
1001
0000
,
0100
0010
0001
1000
0100
0010
0100
0000
,
0001
0001
1000
1000
0001
1000
0100
0000
,
1001
M1MM
1001
MM1M
,
1100
0000
0011
0000
1000
0100
0010
0000
,
0011
1000
1100
0010
,
0101
0000
0010
0000
0001
1000
0001
0010
,
0100
0000
1100
0000
0010
0001
0100
0001
,
0010
0001
1000
0100
0010
0000
1001
0000
,
0010
0100
0001
1000
0010
0100
0010
0000
,
1000
1000
0001
0001
1000
0001
0010
0000
,
0000
1000
0000
0001
,
0000
1000
0000
0001
,
1000
0010
1000
0010
1000
0010
1000
0000
,
0001
1000
0010
1000
,
0001
1000
0010
1000
,
0100
1000
0001
1000
,
0001
0100
0001
0100
0001
0100
0001
0000
,
1000
0010
1000
0100
,
1001
0100
1001
0010
,
1001
0100
0011
0100
,
1010
0000
0100
1000
0100
0000
0001
0000
,
0010
0000
0001
0010
0001
0000
0010
0000
,
0001
0000
1000
0010
0100
0000
0001
0000
,
1000
0000
0000
0000
1000
0000
0001
0000
1000
0000
0000
0000
0100
0001
0000
0000
,
0100
1000
0000
0000
0110
0000
0000
0000
1001
0000
0000
0000
1000
0000
0010
0000
,
1000
0001
0100
0000
0010
1000
0001
0000
,
1000
0000
0100
1000
0001
0000
1000
0100
,
0010
0000
0001
0100
1000
0010
1100
0000
,
2000
3000
0001
0100
0020
0030
1000
0100
,
2000
3000
0001
0100
0002
0003
1000
0100
,
0020
0030
0001
0100
0020
0030
1000
0100
,
0020
0030
0001
0100
0020
0030
0100
0010
,
2000
3000
0001
0100
0020
0030
1000
0100
,
2000
3000
0010
0100
0002
0003
0010
0001
,
0200
0300
0001
1000
0000
0001
0000
0010
,
2002
0000
3003
0000
,
1001
MM1M
1001
M1MM
,
0011
0000
1100
0000
0001
0010
0100
0000
,
1000
0100
0000
0000
0001
0000
0000
0000
0001
0010
0000
0000
1000
0000
0000
0000
,
1000
0010
0000
0000
0001
0000
0000
0000
1000
0000
0001
0000
1000
0000
0100
0000
,
0010
0000
0011
0000
0100
1000
0010
1000
,
0100
1000
0001
0010
0100
0000
1001
0000
,
0100
0010
0001
1000
0100
0010
0100
0000
,
0001
0001
1000
1000
0001
1000
0100
0000
,
1001
0000
0000
0000
0100
0001
0000
0000
1001
0000
0000
0000
0010
1000
0000
0000
,
1100
0000
0011
0000
1000
0100
0010
0010
,
0010
0000
0100
0100
0100
0000
0010
0000
,
1001
0000
0110
0000
1000
0001
1000
0000
,
1001
0000
0101
0000
1100
0001
0100
0001
,
0010
0001
1000
0100
0010
0000
1001
0000
,
0010
0100
0001
1000
0010
0100
0010
0000
,
0000
0100
0010
1000
0001
1000
0010
1000
,
0110
0000
0M0M
0000
1000
0010
0000
0000
0110
0000
M0M0
0000
0001
0100
0000
0000
,
1010
0000
0101
0000
0010
1000
0001
0000
,
0101
0010
1010
0001
,
1100
0000
0001
0000
0100
0010
0100
0001
,
1000
0000
1010
0000
0001
0100
1000
0100
,
0001
0100
0010
1000
0001
0000
0110
0000
,
0001
1000
0010
0100
0001
1000
0001
0000
,
0010
0010
0100
0100
0010
0100
0001
0000
,
0110
0000
0000
0000
0001
0100
0000
0000
0110
0000
0000
0000
1000
0010
0000
0000
,
0101
0000
1010
0000
0100
0001
1000
000M
,
1010
0100
0101
0001
,
0011
0000
1000
0000
0010
0100
0010
1000
,
0001
M000
0101
0000
1000
0010
0001
0010
,
1000
0010
0100
0001
1000
000M
0110
0000
,
1000
0001
0100
0010
1000
0001
1000
0000
,
0100
0100
0010
0010
0100
0010
1001
0000
,
0110
2002
0000
0000
,
3003
0000
0000
0000
;

//--------------- dance-double - M. Emirzian ----------------
#NOTES:
     dance-double:
     M. Emirzian:
     Easy:
     3:
     0.200575,0.233806,0.087256,0.190376,0,177,166,11,24,0,0,0.200575,0.233806,0.087256,0.190376,0,177,166,11,24,0,0:
00000000
00000000
00000000
00000000
,
00000000
00000000
00000000
00000000
,
00000000
00000000
00000000
00000000
,
00000000
00000000
00000000
00000000
,
10000000
00000000
00000000
00000000
,
00010000
00000000
00000000
01000000
,
00001000
00000000
00010000
00000000
,
00000100
00000000
00000010
00000000
,
00000002
00000000
00000003
00000000
,
00000200
00000000
00000300
00000000
,
00000020
00000000
00000030
00000000
,
00020000
00000000
00030000
00000000
,
00002000
00000000
00003000
00000000
,
02000000
00000000
03000000
00000000
,
00100000
00000000
10000000
00000000
,
20020000
00000000
00000000
30030000
,
10000000
00000000
00000000
00000000
,
00010000
00000000
00000000
00000000
,
00001000
00000000
00000000
00000000
,
00000001
00000000
00000000
00000000
,
00010000
00000000
01000000
00000000
,
00010000
00000000
00000000
00000000
,
00001000
00000000
00000001
00000000
,
00002002
00000000
00000000
00003003
,
00000100
00000000
00010000
00000000
,
00001000
00000000
01000000
00000000
,
00100000
00000000
10000000
00000000
,
01100000
00000000
00000000
00000000
,
10000000
00000000
00010000
00000000
,
01000000
00000000
00001000
00000000
,
00010000
00000000
00000100
00000000
,
00002020
00000000
00000000
00003030
,
00000100
00000000
00000001
00000000
,
00000010
00000000
00000100
00000000
,
00010000
00000000
00001000
00000000
,
02020000
00000000
00000000
03030000
,
00100000
00000000
01000000
00000000
,
10000000
00000000
00010000
00000000
,
01000000
00000000
00001000
00000000
,
00022000
00000000
00000000
00033000
,
00001000
00000000
00000100
00000000
,
00000001
00000000
00000100
00000000
,
00001000
00000000
00010000
00000000
,
00100000
00000000
10000000
00000000
,
10000000
00000000
01000000
00000000
,
00010000
00000000
00001000
00000000
,
00000010
00000000
00000001
00000000
,
00001000
00000001
00000100
00000000
,
00000010
00000000
00000010
00000000
,
00000010
00000000
00000100
00000000
,
00000100
00000000
00001000
00000000
,
00010000
00000000
00001000
00000000
,
01000000
00000000
00010000
00000000
,
10000000
00000000
00000000
00000000
,
00010000
00000000
01000000
00000000
,
00001000
00000000
00010000
00000000
,
00000010
00000000
00000100
00000000
,
00000001
00000000
00000000
00000000
,
00000010
00000000
00000100
00000000
,
00001000
00000000
00000000
00000000
,
00000100
00000000
00010000
00000000
,
00001000
00000000
00000000
00000000
,
01000000
00000000
00100000
00000000
,
10000000
00000000
00010000
00000000
,
00100000
00000000
00001000
00000000
,
00011000
00000000
00000000
00000000
,
00000010
00000000
00000001
00000000
,
00000010
00000000
00000100
00000000
,
00010000
00000000
00001000
00000000
,
00220000
00000000
00000000
00330000
,
01000000
00000000
10000000
00000000
,
00100000
00000000
01000000
00000000
,
00001000
00000000
00010000
00000000
,
00002002
00000000
00000000
00003003
,
00000100
00000000
00000010
00000000
,
00010000
00000000
00001000
00000000
,
01000000
00000000
00010000
00000000
,
02200000
00000000
00000000
03300000
,
10000000
00000000
00100000
00000000
,
01000000
00000000
00001000
00000000
,
00010000
00000000
00000010
00000000
,
00002020
00000000
00000000
00003030
,
00000100
00000000
00000001
00000000
,
00000100
00000000
00001000
00000000
,
00010000
00000000
00010000
00000000
,
01000000
00000000
01000000
00000000
,
10000000
00000000
10000000
00000000
,
00100000
00000000
00100000
00000000
,
00010000
00000000
00010000
00000000
,
00001000
00010000
00001000
00000000
,
00000010
00000000
00000010
00000000
,
00000001
00000000
00000001
00000000
,
00000100
00000000
00000100
00000000
,
00001000
00000000
00001000
00000000
,
00010000
00000000
00010000
00000000
,
01000000
00000000
01000000
00000000
,
10000000
00000000
10000000
00000000
,
01000000
00000000
00010000
00001000
,
00000100
00000001
00000000
00000000
;

//--------------- dance-double - M. Emirzian ----------------
#NOTES:
     dance-double:
     M. Emirzian:
     Medium:
     7:
     0.409083,0.428645,0.126918,0.150715,0,361,345,16,19,0,0,0.409083,0.428645,0.126918,0.150715,0,361,345,16,19,0,0:
00000000
00000000
00000000
00000000
,
00000000
00000000
00000000
00000000
,
00000000
00000000
00000000
00000000
,
00000000
00000000
00000000
00000000
,
20000000
00000000
00000000
31000000
00000000
00000000
00010000
00000000
,
00002000
00000000
00000000
00003010
00000000
00000000
00000001
00000000
,
00000200
00000000
00000000
00000310
00000000
00000000
00001000
00000000
,
00000100
00010000
00001000
00000000
,
00010000
00000000
00100000
00000000
,
20000000
00000000
00000000
31000000
00100000
00000000
00000000
00000000
,
02000000
00000000
00000000
13000000
00010000
00000000
00000000
00000000
,
01000000
00001000
00010000
00000000
,
00002000
00000000
00000000
00003010
00000100
00000000
00000000
00000000
,
00002000
00000000
00000000
00003001
00000100
00000000
00000010
00000000
,
00001000
00000100
00010000
00010000
,
00001000
00001000
01000000
00000000
,
00100000
00000000
00000000
00000000
10020000
00000000
00000000
01030000
,
00100000
00000000
10000000
01000000
,
00010000
00000000
00000000
00000000
00021000
00000000
00000000
00031000
,
00010000
00000010
00000100
00000000
,
00000001
00000000
00000000
00000000
00001020
00000000
00000000
00010030
,
00001000
00000000
01000000
00000000
,
00100000
00000000
10000000
01000000
00000000
00010000
00000000
01000000
,
10000000
00100000
00100000
00100000
,
01000000
00010000
00000000
10000000
01000000
00000000
00010000
00000000
,
00001000
00000100
00000001
00000000
,
00001000
00000001
00000000
00001000
00000100
00000000
00010000
00000000
,
00001000
00001000
00001000
00000000
,
01000000
00100000
00000000
10000000
00010000
00000000
00100000
00000000
,
01000000
00100000
00001000
00000000
,
00001000
00010000
00000000
00000100
00001000
00000000
00000010
00000000
,
00000100
00000100
00000100
00000000
,
00000001
00000100
00000000
00000010
00001000
00000000
00000100
00000000
,
00010000
00001000
01000000
00000000
,
00010000
01000000
00000000
00100000
10000000
00000000
01000000
00000000
,
00010000
00010000
00010000
00000000
,
00001000
00010000
00000000
00000010
00001000
00000000
00000001
00000000
,
00000010
00001000
00010000
00000000
,
00001000
01000000
00000000
00010000
01000000
00000000
00100000
00000000
,
10000000
10000000
10000000
00000000
,
20000000
00000000
00000000
31000000
00000000
00000000
00010000
00000000
,
02000000
00000000
00000000
13000000
00000000
00000000
00010000
00000000
,
02000000
00000000
00000000
03001000
00000000
00000000
00010000
00000000
,
00000100
00001000
00001001
00000000
,
00000020
00000000
00000000
00000031
00000000
00000000
00000100
00000000
,
00002000
00000000
00000000
00013000
00000000
00000000
01000000
00000000
,
20000000
00000000
00000000
30100000
00000000
00000000
01000000
00000000
,
00010000
00100000
00101000
00000000
,
00010000
00000000
00001000
00010000
00000000
00001000
00000000
00010000
,
00000000
00001000
00000000
00000010
00000000
00000001
00001000
00000000
,
00000001
00000100
00001000
00010000
,
00100000
10000000
00000000
00000000
,
10000000
01000000
00010000
00001000
,
00000010
00000001
00000100
00000000
,
00000001
00000010
00001000
00010000
,
00100000
10000000
01000000
00000000
,
10000000
00000000
00010000
01000000
00000000
00010000
00000000
00100000
,
00000000
00100000
00000000
00100000
00000000
00000000
00000000
00000000
,
00001000
00000000
00000000
00000000
00010200
00000000
00000000
00001300
,
00000010
00000000
00000001
00000010
,
00001000
00000000
00000000
00000000
00001200
00000000
00000000
00010300
,
00001000
00010000
00100000
00000000
,
10000000
00000000
00000000
00000000
02010000
00000000
00000000
03100000
,
10000000
01000000
00100000
00000000
,
00010000
00000000
01000000
10000000
00000000
01000000
00000000
00010000
,
10000000
01000000
01000000
01000000
,
00100000
00010000
00000000
10000000
01000000
00000000
00010000
00000000
,
00001000
00000010
00000001
00000000
,
00000010
00000100
00000000
00001000
00000001
00000000
00000100
00000000
,
00000010
00000010
00000010
00000000
,
00001000
00000100
00000000
00010000
00001000
00000000
01000000
00000000
,
00100000
01000000
00001000
00000000
,
00001000
00010000
00000000
00000100
00001000
00000000
00000001
00000000
,
00000100
00000100
00000100
00000000
,
00000001
00001000
00000000
00000010
00000100
00000000
00001000
00000000
,
00010000
01000000
10000000
00000000
,
00100000
10000000
00000000
00010000
00100000
00000000
01000000
00000000
,
10000000
10000000
10000000
00000000
,
00010000
01000000
00000000
00001000
00010000
00000000
00001000
00000000
,
00000010
00000001
00000100
00000000
,
00000010
00001000
00000000
00000100
00010000
00000000
00001000
00000000
,
01000000
01000000
01000000
00000000
,
00100000
10000000
00000000
01000000
00100000
00000000
00010000
00000000
,
01000000
00001000
00101000
00000000
,
00001000
00010000
00000000
00000010
00001000
00000000
00000100
00000000
,
00000010
00000010
00000011
00000000
,
00000010
00000100
00000000
00010000
00001000
00000000
00100000
00000000
,
01000000
10000000
10100000
00000000
,
00010000
01000000
00000000
00001000
00010000
00000000
00000100
00000000
,
00000010
00000010
00000011
00000000
,
00000100
00001000
00000000
00000010
00000100
00000000
00001000
00000000
,
00010000
00100000
10100000
00000000
,
00100000
01000000
00000000
00010000
01000000
00000000
00100000
00000000
,
10000000
01000000
00110000
00000000
,
00100000
00001000
00000000
00010000
00000100
00000000
00000100
00000000
,
00001000
00001000
00001010
00000000
,
00000100
00000010
00000000
00000001
00001000
00000000
00000010
00000000
,
00000100
00000001
00001010
00010000
,
00001000
01000000
00000000
00000000
;

//--------------- dance-double - M. Emirzian ----------------
#NOTES:
     dance-double:
     M. Emirzian:
     Hard:
     9:
     0.610791,0.623483,0.317294,0.063459,0,539,499,40,8,0,0,0.610791,0.623483,0.317294,0.063459,0,539,499,40,8,0,0:
00000000
00000000
00000000
00000000
,
00000000
00000000
00000000
00000000
,
00000000
00000000
00000000
00000000
,
00000000
00000000
00000000
00000000
,
10000000
00100000
00010000
00002000
00000000
01003000
00010000
00000000
,
00100000
00001000
00010000
02000000
00000000
03010000
00001000
00000000
,
00000010
00001000
00010000
00002000
00000000
00003100
00000001
00000000
,
00000010
00001000
00010000
00000000
00001000
00000100
00000001
00000000
,
00000100
00000000
00000010
00001000
00000000
00000100
00010000
00000000
,
00001000
01000000
00010000
00000000
10100000
00000000
01000000
00000000
,
00100000
00000000
00010000
01000000
00000000
00100000
10000000
01000000
,
00010000
00000000
00001000
00010000
00100000
00000000
00020000
00000000
,
00031000
00000010
00000001
00000000
00000100
00000000
00000010
00001000
,
00000100
00000000
00000011
00000000
00000101
00000000
00000100
00001000
,
00010000
00000000
00100000
00010000
00000000
00001000
00000000
00000010
,
00000000
00001000
00000000
00010000
01000000
10000000
00010000
01000000
,
00100000
00000000
10000000
01000000
00000000
01000000
00010000
00000000
,
00010000
00001000
00000000
00001000
00000020
00000000
00000130
00000000
,
00001000
00000000
00000010
00000100
00000000
00000100
00000001
00000000
,
00000001
00000010
00000000
00000010
00002000
00000000
00013000
00000000
,
01000000
00000000
10000000
00100000
00000000
00100000
00010000
00000000
,
00010000
00001000
00000000
00001000
00000100
00000000
00000001
00000000
,
00000010
00000000
00000100
00010000
00000000
00001100
00000000
00000010
,
00000100
00000000
00000000
00000000
,
01000000
00000000
00010000
00000000
00100000
01000000
00000000
01000000
,
10000000
00000000
00010000
00000000
01100000
00000000
00010000
00001000
,
00000010
00000000
00001000
00010000
00100000
00000000
00010000
00000000
,
00001000
00000010
00000001
00000000
00000100
00000010
00001000
00000000
,
00000100
00000000
00010000
00000000
00001000
00000100
00000000
00000100
,
00001000
00000000
00010000
00000000
00110000
00000000
10000000
01000000
,
00010000
00000000
00100000
01000000
10000000
00100000
00000000
00010000
,
00000000
00001000
00000000
00000100
00000000
00001000
00010000
01000000
,
00010000
00000000
00001000
00000000
00010000
00100000
00000000
00100000
,
00010000
00000000
00001000
00000000
00001010
00000000
00000001
00000100
,
00001000
00000000
00000001
00000100
00000010
00000000
00000100
00000000
,
00001000
00010000
00100000
00000000
00010000
00001000
00000010
00000000
,
00001000
00000000
00010000
00000000
00100000
01000000
00000000
01000000
,
00100000
00000000
00010000
00000000
10100000
00000000
01000000
00010000
,
00001000
00000000
00010000
01000000
10000000
00100000
00000000
00010000
,
00000000
00001000
00000000
00000100
00000001
00000010
00000100
00001000
,
00001001
00000000
00000110
00000000
00000100
00000001
00000000
00000100
,
00000010
00001000
00000000
00000100
00000000
00010000
00001000
00000000
,
00101000
00011000
01001000
00011000
,
00010000
00100000
10000000
00000000
01000000
00100000
00000000
01000000
,
00010000
00000000
00001000
00000000
00010000
00100000
00000000
00010000
,
00001000
00000010
00000000
00000001
00000000
00000001
00000100
00000000
,
00001010
00010010
00011000
00010100
,
00010000
00001000
00000010
00000000
00001000
00010000
00100000
10000000
,
01000000
00000000
01000000
00100000
00000000
00001000
00000000
00010000
,
00000000
00000100
00000000
00001000
00000000
00000100
00000010
00000000
,
00000100
00000000
00001000
00000010
00000000
00000100
00000001
00000000
,
00000010
00000100
00001000
00000000
00010100
00000000
00010000
00000000
,
00001000
00000000
00010000
00100000
00000000
10000000
01000000
00100000
,
01000000
00000000
00100000
00001000
00010000
00000000
01000000
00000000
,
10000000
00100000
01000000
00000000
00001000
00000000
00010000
00000100
,
00001000
00000000
00010100
00000000
00000110
00000000
00000001
00000100
,
00000010
00000000
00010000
00001000
00000000
00000100
00000000
00001000
,
00000000
00010000
00000000
01000000
10000000
00100000
01000000
00010000
,
10000000
00000000
00100000
00010000
00000000
00010000
00001000
00000000
,
00001000
00000010
00000000
00000010
00000200
00000000
00001300
00000000
,
00000010
00000000
00000100
00000001
00000000
00000001
00000100
00000000
,
00000100
00001000
00000000
00001000
00020000
00000000
01030000
00000000
,
10000000
00000000
00100000
01000000
00000000
01000000
00010000
00000000
,
00010000
00100000
00000000
00100000
01000000
00000000
10000000
00000000
,
00100000
00000000
01000000
00001000
00000000
00010000
00000000
00000100
,
00000010
00000000
00000000
00000000
,
00001000
00000000
00010000
00000000
00001000
00000100
00000000
00000100
,
00001000
00000000
00010000
00000000
01010000
00000000
10000000
00100000
,
00010000
00000000
01000000
00100000
00010000
00000000
00001000
00000000
,
00000010
00001000
00010000
00000000
00001000
00000100
00000001
00000000
,
00000100
00000000
00000010
00000000
00010000
00001000
00000000
00001000
,
01000000
00000000
00100000
00000000
10100000
00000000
00010000
00001000
,
00000100
00000000
00001000
00010000
01000000
00010000
00000000
00001000
,
00000000
00000010
00000000
00000001
00000010
00000100
00010000
00000000
,
00001000
00000000
00000100
00000000
00001000
00010000
00000000
00010000
,
01000000
00000000
10000000
00000000
01010000
00000000
00001000
00000100
,
00000001
00000000
00000100
00001000
00010000
00000000
01000000
00000000
,
00010000
00001000
00000010
00000000
00001000
00010000
00100000
00000000
,
10000000
00000000
01000000
00000000
00100000
00001000
00000000
00001000
,
00000010
00000000
00000001
00000000
00001010
00000000
00000001
00000100
,
00001000
00000000
00000010
00000100
00001000
00010000
00000000
00100000
,
00000000
10000000
01000000
00010000
00001000
00000010
00000001
00000000
,
00000010
00000001
00000100
00000001
00000010
00000000
00001000
00010000
,
00100000
00010000
00001000
00000000
00000010
00000100
00001000
00000000
,
00000010
00000100
00001000
00000000
00010000
00100000
10000000
00000000
,
10010000
00110000
00101000
00011000
,
00000100
00001000
00000010
00001000
00000100
00000000
00000010
00000001
,
00000100
00001000
00000100
00000000
00000001
00000010
00001000
00000000
,
00010000
00001000
00000010
00000000
00001000
00010000
00100000
00000000
,
10010000
01010000
01001000
00011000
,
01000000
10000000
00100000
10000000
01000000
00000000
00010000
01000000
,
10000000
01000000
00010000
00000000
00001000
00010000
00100000
00000000
,
00010000
00001000
00000010
00000000
00000100
00001000
00000010
00000000
,
00000101
00000110
00010100
00011000
,
00010000
00100000
10000000
00100000
00010000
00000000
00001000
00010000
,
01000000
10000000
00100000
00010000
00000000
00001000
00000000
00000010
,
00001000
00010000
01000000
00010000
00001000
00000100
00000000
00001000
,
00000000
00011000
00000000
00010000
00100000
10000000
01000000
00010000
,
00011000
00000110
00000000
00000000
;

//--------------- dance-double - M. Emirzian ----------------
#NOTES:
     dance-double:
     M. Emirzian:
     Challenge:
     11:
     0.67425,0.702757,0.40455,0.031729,0.007932,595,544,51,4,4,0,0.67425,0.702757,0.40455,0.031729,0.007932,595,544,51,4,4,0:
00000000
00000000
00000000
00000000
,
00000000
00000000
00000000
00000000
,
00000000
00000000
00000000
00000000
,
00000000
00000000
00000000
00000000
,
01000000
10000000
00100000
00010000
00100000
10000000
01000000
00100000
,
00001000
00010000
01000000
00010000
00001000
00000100
00000001
00000010
,
00000100
00001000
00000001
00000100
00001000
00000010
00001000
00010000
,
01000000
00010000
00001000
00000000
00000100
00000001
00000010
00000000
,
00000001
00000000
00000010
00000100
00010000
00000000
00001000
00010000
,
00100000
10000000
00100000
00000000
01000000
00000000
01001000
00000000
,
00010000
00000000
00100000
01000000
10000000
00000000
00100000
00010000
,
00001000
00000100
00001000
00000000
00010000
00000000
00001100
00000000
,
00000001
00000000
00000010
00001000
00010000
00000000
00000001
00000100
,
00001000
00000100
00000001
00000000
00000010
00000000
00001000
00000000
,
00010000
00000000
00100000
00010000
00000000
00001000
00000000
00000010
,
00000000
00001000
00000000
00010000
00000000
01000000
10000000
01000000
,
00100000
00000000
00010000
01000000
10000000
00000000
01000000
00010000
,
00100000
10000000
00100000
00101000
,
00001000
00000000
00010000
00000100
00001000
00000000
00000010
00001000
,
00000100
00000001
00000100
00010100
,
00000100
00000000
00010000
00001000
00000100
00000000
00001000
00010000
,
01000000
10000000
00100000
01010000
,
00100000
00000000
01000000
00020000
00000000
00032000
00000000
00003100
,
00000001
00000000
00000000
00000000
,
00000001
00000010
00000100
00001000
00000001
00000000
00000100
00001000
,
00010000
00001000
00100000
01000000
00000000
00010000
00000000
00001000
,
00000100
00000000
00001000
00010000
00100000
00000000
10000000
01000000
,
00100000
00010000
00101000
00010000
,
01000000
00010000
00001000
00010000
00100000
00000000
10000000
00100000
,
00010000
00100000
10000000
01000000
00000000
00100000
00000000
00001000
,
00010000
00000000
00001000
00000100
00000001
00000010
00000000
00000100
,
00000000
00001000
00000000
00000010
00000000
00010000
00001000
00000100
,
00000001
00000010
00001000
00000010
00000001
00000000
00000100
00001000
,
00000010
00001000
00010000
01000000
00000000
00010000
00000000
00001000
,
00000100
00000000
00001000
00010000
00100000
00000000
00001000
00010000
,
00100000
10000000
00110000
10000000
,
00010000
01000000
10000000
01000000
00010000
00000000
00100000
01000000
,
10000000
00100000
01000000
00010000
00000000
10000000
00000000
01000000
,
00010000
00000000
00000010
00001000
00000100
00000010
00000000
00000110
,
00000000
00001001
00000000
00000010
00000100
00000001
00000010
00000100
,
00001000
00000010
00010000
00001000
00000100
00000000
00001000
00010000
,
00100000
00010000
00001000
00010000
00000000
00100000
00000000
00010000
,
00101000
00011000
01001000
00110000
,
01000000
10000000
00000000
10000000
00010000
00000000
01000000
00000000
,
00100000
00010000
00001000
00000010
00001000
00000000
00010000
00001000
,
00000100
00000001
00001000
00000100
00000000
00000010
00000000
00000001
,
00001001
00010010
00001100
00010100
,
00011000
00000000
00001000
00000000
00000100
00001000
00010000
01000000
,
10000000
00000000
00100000
10000000
00000000
01000000
00000000
00010000
,
00000000
00100000
00000000
00010000
00000000
00001000
01000000
00000000
,
00010000
00000000
01000000
10000000
01000000
00000000
00010000
00100000
,
01000000
10000000
00010000
00000000
01000000
00000000
01001000
00000000
,
00010000
00000000
00100000
00010000
00001000
00000000
00100000
01000000
,
00010000
00001000
00000010
00000001
00000100
00000000
00001001
00000000
,
00000010
00000000
00001000
00000010
00000001
00000000
00001000
00000100
,
00000010
00010000
00001000
00000000
00101000
00000000
00000100
00000000
,
00001000
00000000
00010000
01000000
00000000
00010000
00000000
00001000
,
00000000
00000010
00000000
00001000
00000000
00010000
01000000
10000000
,
00100000
00000000
00010000
01000000
00010000
00000000
00001000
00010000
,
00100000
10000000
01000000
11000000
,
00010000
00000000
00001000
00000100
00001000
00000000
00010000
00100000
,
00010000
00001000
00000010
00000011
,
00000100
00000000
00001000
00000010
00000001
00000000
00000010
00000100
,
00000001
00000010
00000100
00001001
,
00000100
00000000
00001000
00020000
00000000
02030000
00000000
13000000
,
01000000
00000000
00000000
00000000
,
00100000
00010000
01000000
10000000
01000000
00000000
00010000
00100000
,
01000000
00010000
00001000
00010000
00000000
01000000
00000000
10000000
,
01000000
00000000
00010000
00100000
00010000
00000000
00001000
00010000
,
01000000
00010000
00011000
00000100
,
00000001
00000010
00001000
00000100
00000010
00000000
00000001
00000100
,
00001000
00000100
00000001
00000010
00000000
00001000
00000000
00000100
,
00001000
00010000
00001000
00000100
00001000
00010000
01000000
10000000
,
00000000
01000000
00000000
10010000
00000000
00010000
00100000
10000000
,
00100000
00010000
01000000
00100000
00010000
00000000
00100000
00010000
,
00001000
00010000
01000000
10000000
00000000
01000000
00000000
00010000
,
00100000
00010000
00001000
00010000
00100000
00000000
01000000
00000000
,
01001000
00110000
00101000
01100000
,
00001000
00010000
01000000
00010000
00001000
00000000
00000100
00000001
,
00001000
00000100
00000001
00000100
00000000
00001000
00000000
00000010
,
00000100
00000000
00000001
00000010
00000100
00001000
00000000
00001001
,
00000000
00000110
00000000
00000001
00000010
00001000
00010000
00001000
,
00010000
01000000
10000000
00100000
00010000
01000000
00010000
00001000
,
00000100
00001000
00010000
01000000
10000000
01000000
00100000
00000000
,
00101000
00011000
00010100
00011000
,
00010000
00001000
00000010
00000001
00000010
00001000
00010000
00000100
,
00000010
00001000
00000100
00001000
01000000
00100000
00010000
00000010
,
00000100
00001000
00100000
01000000
00010000
00001000
00000100
00000000
,
00011000
00010010
00011000
01001000
,
00100000
10000000
01000000
00010000
00100000
00010000
00001000
00000100
,
00000001
00000010
00000100
00010000
00100000
00010000
00000100
00001000
,
01000000
00100000
00001000
00000100
00000001
00000010
00000100
00000000
,
00001100
00001001
00010010
00011000
,
00010000
00001000
00000100
00000001
00000100
00001000
00010000
00100000
,
10000000
01000000
00010000
00100000
00010000
00000010
00001000
00000100
,
00000001
00000100
00010000
00100000
01000000
00001000
00010000
00000000
,
01001000
00000000
00011000
00000000
00010100
00001000
00000000
00010010
,
00000000
00000101
00000000
00000010
00000100
00001000
00000001
00000100
,
00001010
00000000
00000000
0000M0M0
00110000
00000000
00000000
00MM0000
00000000
00000000
00000000
00000000
00000000
00000000
00000000
00000000
;

//--------------- lights-cabinet - ----------------
#NOTES:
     lights-cabinet:
     :
     Easy:
     1:
     0.575662,0.662451,0.999476,0.055526,0,508,382,126,7,0,0,0.575662,0.662451,0.999476,0.055526,0,508,382,126,7,0,0:
00000000
00000000
00000000
00000000
,
00000000
00000000
00000000
00000000
,
00000000
00000000
00000000
00000000
,
00000000
00000000
00000000
00000000
,
11000000
00000000
00000000
00010000
00000000
00000000
00010000
00000000
,
11000000
00000000
00000000
00100000
00000000
00000000
00100000
00000000
,
10100000
00000000
00000000
01000000
00000000
00000000
01000000
00000000
,
22000000
00000000
00000000
33000000
,
00010000
00000000
00010000
00000000
10100000
00000000
00000000
00010000
,
00000000
10000000
00100000
00000000
01100000
00000000
00000000
00000000
,
01010000
00000000
00010000
00000000
11000000
00010000
00000000
00200000
,
00000000
00000000
00310000
00000000
,
00010000
00000000
00010000
00000000
11000000
00000000
00000000
00100000
,
00000000
10000000
01000000
00000000
10100000
00000000
00000000
00000000
,
00110000
00000000
10000000
00000000
00110000
10000000
00000000
00200000
,
00000000
01000000
00000000
00000000
01300000
00000000
00000000
00000000
,
00010000
00000000
00000000
10000000
00000000
00000000
00010000
00000000
,
00000000
00100000
00000000
00010000
11000000
00000000
00100000
00000000
,
01100000
00000000
00000000
00010000
00000000
00000000
00100000
00000000
,
00000000
00010000
00000000
00000000
01100000
00000000
00100000
00000000
,
11000000
00000000
00000000
00100000
00000000
00000000
01000000
00000000
,
00000000
00010000
00000000
00100000
00110000
00000000
00100000
00000000
,
00110000
00000000
00000000
01100000
00000000
00110000
00000000
00000000
,
01100000
00000000
00000000
00000000
,
11000000
00000000
00100000
00000000
01100000
00000000
00010000
00100000
,
01010000
00100000
00000000
00010000
00000000
01000000
00000000
00100000
,
10100000
10000000
00110000
00100000
,
00110000
00000000
00000000
00000000
,
11000000
00000000
10000000
00000000
00010000
00000000
01000000
00100000
,
11000000
01000000
00000000
01000000
00000000
10000000
00000000
00100000
,
11000000
00010000
00110000
00010000
,
10100000
00000000
00000000
00000000
01100000
10000000
00100000
10000000
,
00110000
00000000
01000000
00000000
01010000
00000000
00100000
00010000
,
00110000
00010000
00000000
10000000
00000000
00010000
00000000
01000000
,
01100000
00100000
01100000
01000000
,
01100000
00000000
10010000
10010000
,
00100000
00000000
10000000
00000000
00110000
00000000
00100000
00010000
,
00110000
00010000
00000000
10000000
00000000
00100000
00000000
01000000
,
00110000
00000000
10000000
00000000
00010000
00100000
00000000
00110000
,
00000000
00000000
00000000
00000000
00010000
10000000
00010000
10000000
,
01010000
10000000
00110000
10000000
,
00010000
00100000
00110000
10000000
,
00110000
01000000
00100000
01000000
10100000
01000000
00000000
00100000
,
00000000
10000000
00000000
10000000
01010000
00000000
10000000
00000000
,
00110000
10000000
00110000
10000000
,
10100000
01000000
00000000
01100000
00000000
01100000
00000000
00000000
,
00010000
00100000
00010000
00100000
00110000
00100000
00000000
00010000
,
00000000
02000000
00000000
00000000
00100000
00000000
03100000
00000000
,
11000000
00000000
01000000
10000000
00000000
00100000
00000000
01000000
,
00000000
00010000
00000000
00100000
00000000
01000000
10000000
00000000
,
01010000
00000000
00010000
00000000
01100000
00000000
00000000
00010000
,
00000000
10000000
01000000
00000000
11000000
00000000
00000000
00000000
,
00010000
01000000
00100000
00000000
11000000
01000000
10000000
00000000
,
00020000
00000000
00000000
00000000
00000000
00030000
00000000
00000000
,
11000000
00000000
10000000
00000000
00010000
00000000
00000000
00100000
,
00000000
00010000
01000000
00000000
00110000
00000000
00000000
00000000
,
10100000
01000000
10000000
00000000
01100000
01000000
00100000
01000000
,
00020000
10000000
10030000
00000000
,
00010000
00000000
00000000
01000000
00000000
00000000
00100000
00000000
,
00000000
10000000
00000000
01000000
11000000
00000000
00100000
00000000
,
11000000
00000000
00000000
00100000
00000000
00000000
01000000
00000000
,
00000000
00010000
00000000
00000000
01100000
00000000
00010000
00000000
,
11000000
00000000
00000000
01000000
00000000
00000000
10000000
00000000
,
00000000
00100000
00000000
01000000
00010000
00000000
10000000
00000000
,
11000000
00000000
00000000
01100000
00000000
11000000
00000000
00000000
,
01100000
00000000
00000000
00000000
,
00010000
00000000
01000000
00000000
01100000
00000000
10000000
01000000
,
11000000
01000000
00000000
10000000
00000000
00100000
00000000
01000000
,
00010000
00010000
10100000
01000000
,
11000000
00000000
00000000
00000000
,
01010000
00000000
00010000
00000000
11000000
00000000
00100000
01000000
,
00010000
00100000
00000000
00100000
00000000
00010000
00000000
01000000
,
00110000
10000000
11000000
10000000
,
00010000
00000000
00000000
00000000
01010000
00010000
01000000
00010000
,
11000000
00000000
00100000
00000000
11000000
00000000
01000000
10000000
,
11000000
10000000
00000000
00010000
00000000
10000000
00000000
00100000
,
01010000
01000000
01100000
00100000
,
01100000
00000000
10010000
10010000
,
01100000
00000000
00010000
00000000
10100000
00000000
01000000
10000000
,
11000000
10000000
00000000
00010000
00000000
01000000
00000000
00100000
,
11000000
00000000
00010000
00000000
11000000
01000000
00000000
11000000
,
00000000
00000000
00000000
00000000
00110000
10000000
00010000
10000000
,
00010000
00000000
10000000
00000000
01010000
01000000
00100000
00000000
,
11000000
00000000
00100000
00000000
01010000
00010000
00100000
00000000
,
00110000
01000000
00100000
00000000
01100000
00100000
10000000
00000000
,
11000000
00000000
00010000
00010000
,
10100000
00000000
00010000
00000000
11000000
00100000
01000000
00000000
,
00010000
00000000
01000000
00000000
10100000
10000000
01000000
00000000
,
11000000
00100000
01000000
00000000
00100000
01000000
00010000
00000000
,
00110000
00000000
00010000
11000000
,
11000000
01000000
10000000
00000000
00010000
00000000
00010000
00000000
,
01010000
00100000
01000000
00000000
01100000
00000000
00100000
00000000
,
11000000
01000000
10000000
00000000
10100000
01000000
00010000
00000000
,
00110000
00000000
10010000
10010000
,
00110000
00100000
00010000
00000000
11000000
00000000
10000000
00000000
,
10100000
01000000
00100000
00000000
01100000
00000000
01000000
00000000
,
00010000
00100000
00010000
00000000
11000000
00100000
10000000
00000000
,
11000000
00000000
00000000
00010000
00000000
00010000
10000000
00010000
,
10010000
10010000
00000000
00000000
;
