#TITLE:Hardcore of the North;
#SUBTITLE:;
#ARTIST:Digital Explosion;
#TITLETRANSLIT:;
#SUBTITLETRANSLIT:;
#ARTISTTRANSLIT:;
#GENRE:;
#CREDIT:;
#MUSIC:Hardcore of the North.ogg;
#BANNER:Hardcore of the North.png;
#BACKGROUND:Hardcore of the North-bg.png;
#CDTITLE:;
#SAMPLESTART:94.820;
#SAMPLELENGTH:11.980;
#SELECTABLE:YES;
#OFFSET:-0.086;
#BPMS:0.000=110.360
,16.000=125.100
,29.500=126.000
,32.000=136.640
,33.000=140.000
,34.000=144.000
,35.000=145.600
,36.000=147.181
,40.000=150.000
,42.000=154.902
,44.000=154.501
,52.000=154.200
,64.000=154.120
,76.000=154.000
,84.000=153.540
,92.000=154.060
,108.000=154.000
,121.000=153.920
,128.000=153.980
,138.000=154.200
,152.000=154.000
,171.000=154.160
,188.000=165.000
,190.000=166.000
,192.000=169.000
,299.000=168.200
,300.000=115.000
;
#STOPS:188.000=1.400;
#BGCHANGES:;
#FGCHANGES:;

//--------------- dance-single - M. Puls ----------------
#NOTES:
     dance-single:
     M. Puls:
     Beginner:
     1:
     0.086157,0.12178,0.03866,0,0,78,73,5,0,0,0,0.086157,0.12178,0.03866,0,0,78,73,5,0,0,0:
0000
0000
0000
0000
,
0000
0000
0000
0000
,
0000
0000
0000
0000
,
0000
0000
0000
0000
,
1000
0000
0000
0000
,
0001
0000
0000
0000
,
0100
0000
0000
0000
,
0010
0000
0000
0000
,
1001
0000
0000
0000
,
0100
0000
0000
0000
,
0001
0000
0000
0000
,
1000
0000
1001
0000
,
0000
0000
0000
0000
,
0001
0000
0000
0000
,
0001
0000
0000
0000
,
1000
0000
0000
0000
,
1000
0000
0000
0000
,
0010
0000
0000
0000
,
0010
0000
0000
0000
,
0100
0000
0000
0000
,
0100
0000
0000
0000
,
0001
0000
0000
0000
,
0001
0000
0000
0000
,
1000
0000
0000
0000
,
1000
0000
0000
0000
,
0010
0000
0000
0000
,
0010
0000
0000
0000
,
0100
0000
0000
0000
,
0100
0000
0000
0000
,
0100
0000
0000
0000
,
0000
1001
0000
0000
,
0000
0000
0000
0000
,
0000
0000
0000
0000
,
0000
0000
0000
0000
,
0000
0000
0100
0000
,
0000
0000
0010
0000
,
0000
0000
1000
0000
,
1000
0000
0001
0000
,
0001
0000
0000
0000
,
0100
0000
0000
0000
,
0010
0000
0000
0000
,
0100
0000
0000
0000
,
0010
0000
0000
0000
,
1000
0000
0000
0000
,
0001
0000
0000
0000
,
1000
0000
0000
0000
,
0001
0000
0000
0000
,
1001
0000
0000
0000
,
0000
0000
0000
0000
,
1000
0000
0000
0000
,
0001
0000
0000
0000
,
1000
0000
0000
0000
,
0001
0000
0000
0000
,
0100
0000
0000
0000
,
0100
0000
0000
0000
,
0010
0000
0000
0000
,
1000
0000
0000
0000
,
1001
0000
0000
0000
,
0000
0000
0000
0000
,
0000
0000
0000
0000
,
1000
0000
0000
0000
,
0010
0000
0000
0000
,
0100
0000
0000
0000
,
0100
0000
0000
0000
,
0001
0000
0000
0000
,
1000
0000
0000
0000
,
0100
0000
0100
0000
,
1000
0000
0000
0000
,
0001
0000
0000
0000
,
1000
0000
0000
0000
,
0001
0000
0000
0000
,
0100
0000
0000
0000
,
0010
0000
0000
0000
,
1000
0000
0000
0000
,
0001
0000
0000
0000
,
0100
0000
0000
0000
,
0010
0000
0000
0000
,
0100
0000
0000
0000
,
0001
0000
1000
0001
;

//--------------- dance-single - K. Ward ----------------
#NOTES:
     dance-single:
     K. Ward:
     Easy:
     5:
     0.284981,0.334894,0.085052,0.015464,0,258,247,11,2,0,0,0.284981,0.334894,0.085052,0.015464,0,258,247,11,2,0,0:
0000
0000
0000
0000
,
0000
0000
0000
0000
,
0000
0000
0000
0000
,
0000
0000
0000
1001
,
0010
0000
0000
0000
,
1000
0000
0000
0000
,
0100
0000
0000
0000
,
0001
0000
0000
1001
,
0100
0000
0010
0000
,
1000
0000
0010
0000
,
1000
0000
0001
0000
,
0100
0010
0010
0000
,
2000
3001
0002
1003
,
0010
0000
0010
0000
,
0100
0000
0100
0000
,
0010
0000
0010
0000
,
0100
1000
0100
1000
,
0100
0000
0100
0000
,
0010
0000
0010
0000
,
0100
0000
0100
0000
,
0010
0001
0010
0001
,
1000
0010
0100
0001
,
1000
0010
0100
0001
,
1000
0001
0100
0010
,
0001
0010
0100
1000
,
0001
0100
0010
1000
,
0001
0100
0010
1000
,
0001
1000
0010
0100
,
1000
0100
0010
0001
,
1000
1000
0010
0010
,
0100
1001
0000
0010
,
0000
1000
0000
0010
,
0000
0001
0000
1000
,
0000
0001
0000
0100
,
1000
0010
1000
0001
,
0100
0010
1000
0010
,
1000
0001
0100
0010
,
0000
0010
0000
0100
,
1000
0001
1000
0001
,
1000
0100
0010
0001
,
0001
0010
0100
1000
,
1000
0100
0010
0001
,
0001
0010
0100
1001
,
0001
0010
0100
1000
,
1000
0100
0010
0001
,
0001
0010
0100
1000
,
1000
0100
0010
1001
,
1001
0000
0000
0000
,
0000
0000
0000
0000
,
1000
0010
1000
0001
,
0100
0000
0100
0000
,
0001
0100
0001
1000
,
0010
0000
0010
0000
,
1000
0010
1000
0001
,
0100
0001
0100
0000
,
0001
0100
0001
1000
,
0010
1000
0010
0000
,
1001
0000
0000
1001
,
0001
0001
0100
0001
,
1000
0001
0100
0010
,
0001
0100
0010
1000
,
1000
0010
0010
0100
,
0001
0001
0100
0010
,
1000
0010
1000
0001
,
0100
0001
0100
0100
,
0001
0100
0001
1000
,
0010
1000
0010
0010
,
1000
0100
0010
0001
,
0001
0010
0100
1000
,
1000
0100
0010
0001
,
0001
0010
0100
1001
,
0001
0010
0100
1000
,
1000
0100
0010
0001
,
0001
0010
0100
1000
,
1000
0100
0010
1001
,
1000
1000
0100
0010
,
0001
0001
0010
0100
,
1000
1000
0100
0010
,
0001
0010
0100
1001
;

//--------------- dance-single - K. Ward ----------------
#NOTES:
     dance-single:
     K. Ward:
     Medium:
     9:
     0.407589,0.456674,0.270621,0.03866,0,369,334,35,5,0,0,0.407589,0.456674,0.270621,0.03866,0,369,334,35,5,0,0:
0000
0000
0000
0000
,
0000
0000
0000
0000
,
0000
0000
0000
0000
,
0000
0000
0000
0000
,
0011
0000
1000
0000
,
0011
0000
0100
0000
,
0011
0000
0100
0000
,
1000
0100
1000
0011
,
1000
0000
0010
0001
,
1000
0000
0001
0010
,
1000
0000
0100
1000
,
0100
0000
0001
0011
,
1000
0110
1001
1100
,
0100
0010
0100
0000
1000
0000
1000
0000
,
0001
0010
0001
0000
1000
0000
1000
0000
,
0001
0010
0001
0000
1000
0000
0001
0000
,
1000
0000
1000
0000
0010
0100
0010
0100
,
0001
0010
0001
0000
1000
0000
1000
0000
,
0100
0010
0100
0000
1000
0000
1000
0000
,
0100
0010
0100
0000
1000
0000
1000
0000
,
0001
0000
1000
0000
0001
1000
0001
1000
,
0010
0011
0100
1100
,
0010
0011
0100
1100
,
0010
1100
0010
0011
,
0100
0000
1001
0000
1000
0001
1000
0001
,
0100
1100
0010
0011
,
0100
1100
0010
0011
,
0100
0011
0100
1100
,
0010
0000
1001
0000
0001
1000
0001
1000
,
0010
0011
0100
1100
,
0010
0200
0000
0000
,
0001
0000
0010
0300
,
0020
0000
1000
0000
,
0100
0000
0100
0030
,
0100
0010
0010
1000
,
0001
0010
0001
1000
,
1000
0001
0100
0001
,
0001
1000
0010
1000
,
0010
0011
0100
1100
,
0010
0100
0001
0000
0100
0000
0001
0000
,
0100
0010
1000
0000
0010
0000
1000
0000
,
0010
0100
0001
0000
0100
0000
0001
0000
,
0100
0010
1000
0010
0100
0000
1001
0000
,
0010
0100
0001
0000
0100
0000
0001
0000
,
0010
0100
1000
0000
0010
0000
1000
0000
,
0100
0010
0001
0000
0010
0000
0001
0000
,
0100
0010
1000
0100
0010
0000
0100
0000
,
1001
0000
0000
0000
,
0000
0000
0000
0000
,
0010
0100
0010
0000
1000
0010
1000
0000
,
0001
0010
0001
0000
1000
0000
0001
0000
,
1000
0001
1000
0000
1000
0010
1000
0000
,
0001
0010
0001
0000
1000
0000
0001
0000
,
1000
0010
1000
0000
0001
0000
0001
0000
,
0010
0100
0010
0000
0100
0000
0001
0000
,
0100
0010
0100
0000
0010
0000
1000
0000
,
0001
0000
1000
0000
0001
1000
0001
1000
,
0010
1000
1010
0010
,
0011
0000
0001
0100
0010
1000
0100
0000
,
0010
0000
1000
0000
0010
1000
0100
0000
,
1000
0001
0001
0100
,
0001
0000
0001
1000
0100
0000
1000
0000
,
0001
0100
0010
0000
0100
0001
0100
0000
,
0010
1000
0001
1000
,
0010
1000
0100
0000
1000
0010
1000
0000
,
0010
0000
0100
0000
0100
0001
0100
0000
,
0010
0011
0100
1100
,
0010
0100
0001
0000
0100
0000
0001
0000
,
0100
0010
1000
0000
0010
0000
1000
0000
,
0010
0100
0001
0000
0100
0000
0001
0000
,
0100
0010
1000
0010
0100
0000
1001
0000
,
0010
0100
0001
0000
0100
0000
0001
0000
,
0010
0100
1000
0000
0100
0000
1000
0000
,
0100
0010
0001
0000
0100
0000
0001
0000
,
0010
0100
1000
0100
0010
0000
1001
0000
,
0100
0010
1000
0000
0002
0000
0013
0000
,
0100
0010
0001
0000
0200
0000
0310
0000
,
1000
0100
0010
0000
0002
0000
0013
0000
,
0100
0010
1000
0100
0010
0000
1001
0000
;

//--------------- dance-single - R. McKanna ----------------
#NOTES:
     dance-single:
     R. McKanna:
     Hard:
     14:
     0.688151,0.669788,0.170105,0.061856,0.212631,623,601,22,8,24,0,0.688151,0.669788,0.170105,0.061856,0.212631,623,601,22,8,24,0:
0000
0000
0000
0000
,
0000
0000
0000
0000
,
1001
0000
1000
0100
1000
0000
0010
0000
0100
0010
0100
0000
0001
0000
0000
0000
,
1001
0000
0001
0010
0001
0000
0010
0000
0100
0000
0000
0000
1001
0000
0000
0000
,
0001
0000
1000
0100
1000
0000
0001
0000
1000
0100
1000
0000
0001
0000
0100
0000
,
0010
0000
1000
0001
1000
0000
0010
0000
1000
0001
1000
0000
1000
0000
0001
0000
,
1000
0000
0001
0010
0001
0000
1000
0000
0001
0010
0001
0000
1000
0000
0010
0000
,
0100
0000
0001
0010
0001
0000
0010
0000
0100
0000
0000
0000
1000
0000
0000
0000
,
1000
0000
0010
0100
0010
0000
0200
0000
0001
0000
0000
0000
1000
0000
0300
0000
,
0001
0000
0010
0100
0010
0000
0200
0000
1000
0000
0000
0000
0001
0000
0300
0000
,
1000
0000
0001
0010
0001
0000
0020
0000
0001
0000
0000
0000
0100
0000
0030
0000
,
0001
0000
1000
0100
1000
0000
0020
0000
0001
0000
0030
0000
1001
0000
0000
0000
,
0100
1010
0101
0110
,
0010
0100
0010
0001
0010
1000
0010
0100
,
0010
1000
0010
0001
0010
1000
0010
0100
,
0001
1000
0001
0010
0001
1000
0001
0100
,
0001
1000
0001
0010
0011
0010
0110
0100
,
1100
1000
0100
0001
0100
1000
0100
0010
,
0100
1000
0100
0001
0100
1000
0100
0010
,
0001
0100
0001
0010
0001
1000
0001
0010
,
0001
0100
0010
1000
1010
0010
0110
0100
,
0101
0001
0010
0100
M0MM
0100
0010
1000
,
0100
0010
0001
0100
M0MM
0100
0010
0001
,
1000
0010
0100
0010
MM0M
0010
0001
1000
,
0001
0010
0100
0010
MM0M
0010
1000
0001
,
0010
0100
1000
0010
MM0M
0010
0100
1000
,
0010
0100
0001
0010
MM0M
0010
0100
0001
,
1000
0001
0100
0010
MM0M
0010
0001
1000
,
0100
1000
0001
0010
MM0M
0010
0100
0001
,
0010
0100
1000
0100
0000
0100
0010
1000
,
0100
0000
1000
0000
0100
0001
0100
1000
,
0100
0010
0001
0010
1000
0010
0001
0010
,
0100
1000
0100
0000
0010
0001
0100
1000
,
0100
0001
0010
0100
0010
1000
0010
0100
,
1000
0100
0010
0000
0100
1000
0100
0010
,
0100
1000
0010
0001
0010
0100
1000
0100
,
0001
0010
0100
0000
0010
0001
0100
1000
,
0100
0001
0010
0001
0100
1000
0100
0010
,
1000
1001
0101
0011
,
0001
0000
0010
0001
0010
0000
0001
0000
0010
0000
1000
0000
0010
0000
0001
0000
,
1000
0000
0100
1000
0100
0000
1000
0000
0100
0000
0010
0000
0001
0000
0100
0000
,
0010
0000
0100
0010
0100
0000
0010
0000
1000
0000
0100
0000
1000
0000
0010
0000
,
0100
0000
0010
0100
0010
0000
0100
0000
0001
0000
0010
0000
0010
0000
0000
0000
,
1000
0000
0010
1000
0010
0000
1000
0000
0010
0000
0001
0000
0010
0000
1000
0000
,
0001
0000
0100
0001
0100
0000
0001
0000
0100
0000
0010
0000
1000
0000
0100
0000
,
0010
0000
0100
0010
0100
0000
0010
0000
0001
0000
0100
0000
0001
0000
0010
0000
,
0100
0000
0010
0100
0010
0000
0100
0000
1000
0000
0100
0000
0010
0000
0001
0000
,
1001
0000
0000
0000
,
0000
0000
0000
0000
,
0001
0100
0001
0000
0100
0001
0100
0000
0002
0000
0100
0000
0103
0000
0000
0000
,
0100
0010
0100
0000
0010
0100
0010
0000
0200
0000
0010
0000
0310
0000
0000
0000
,
0010
1000
0010
0000
1000
0010
1000
0000
0020
0000
1000
0000
1030
0000
0000
0000
,
1000
0100
1000
0000
0100
1000
0100
0000
1000
0000
0100
0000
0010
0000
0001
0000
,
1000
0100
1000
0000
0100
1000
0100
0000
1000
0000
0100
0000
0001
0000
0000
0000
,
0100
0001
0100
0000
0001
0100
0001
0000
0100
0000
1000
0000
0010
0000
0100
0000
,
0001
0010
0001
0000
0010
0001
0010
0000
0001
0000
0010
0000
1000
0000
0000
0000
,
0010
1000
0010
0000
1000
0010
1000
0000
0010
0000
0001
0000
0100
0000
0010
0000
,
1000
0001
1000
0000
0001
1000
0001
0000
0200
0000
0010
0000
0310
0000
0000
0000
,
1000
0000
0001
0000
0010
1000
0010
0001
,
0010
0100
1000
0100
0001
0100
1000
0100
,
0010
0001
0010
0000
0100
1000
0010
0001
,
0010
1000
0100
0010
0100
0001
0100
0010
,
0001
0010
0100
0000
0010
0001
0010
0100
,
0010
0001
0100
1000
0100
0010
0001
0010
,
1000
0100
0010
0000
0100
1000
0010
0001
,
0010
1000
0100
1000
0010
0001
0010
0100
,
0001
1001
1010
1100
,
1000
0000
0100
1000
0100
0000
1000
0000
0010
0000
0001
0000
0010
0000
1000
0000
,
0100
0000
0010
0001
0010
0000
0001
0000
0100
0000
1000
0000
0100
0000
0001
0000
,
0010
0000
0100
1000
0100
0000
0010
0000
1000
0000
0010
0000
0001
0000
0010
0000
,
0100
0000
1000
0010
1000
0000
0100
0000
0001
0000
0100
0000
1000
0000
0000
0000
,
0001
0000
0010
0001
0010
0000
0001
0000
0100
0000
1000
0000
0100
0000
0001
0000
,
0010
0000
0100
1000
0100
0000
1000
0000
0010
0000
0001
0000
0010
0000
1000
0000
,
0100
0000
0010
0001
0010
0000
0100
0000
0001
0000
0100
0000
1000
0000
0100
0000
,
0010
0000
0001
0100
0001
0000
0010
0000
1000
0000
0010
0000
0001
0000
0000
0000
,
1001
0000
0010
0100
0001
0000
1000
0000
0001
0100
0010
0000
1000
0000
0100
0000
,
0010
0000
0001
0010
0100
0000
1000
0000
0100
0010
0001
0000
0100
0000
0010
0000
,
1000
0000
0010
0100
0001
0000
0100
0000
0001
0100
0010
0000
1000
0000
0010
0000
,
0100
0000
0001
0010
0100
0000
1000
0000
0100
0000
0000
0000
1001
0000
0000
0000
;

//--------------- dance-single - C. Foy ----------------
#NOTES:
     dance-single:
     C. Foy:
     Challenge:
     18:
     1.081381,0.978103,0.626295,0.239693,1.279652,979,898,81,31,68,0,1.081381,0.978103,0.626295,0.239693,1.279652,979,898,81,31,68,0:
0000
0000
0000
0000
,
0001
0000
0000
0000
0000
0000
0010
0000
0001
0000
0100
0000
0001
0000
0000
0000
0000
0000
0100
0000
0000
0000
0000
0000
0001
0000
0000
0100
0000
0000
0010
0000
0000
0000
0000
0000
0010
0000
0000
0100
0000
0000
0001
0000
0000
1000
0000
0000
,
0010
0000
0000
0000
0000
0000
0010
0000
1000
0000
0100
0000
1000
0000
0000
0000
0000
0000
1000
0000
0000
0000
0000
0000
1000
0000
0010
0000
1000
0000
0001
0000
0000
0000
0000
0000
0001
0000
0000
1000
0000
0000
0010
0000
0000
0100
0000
0000
,
0010
0000
0000
0010
1000
0100
1000
0000
0000
1000
0000
0000
1000
0000
0000
0000
0000
0000
1M1M
0000
0000
0000
0000
0000
,
0001
0000
0000
0000
0000
0000
0001
0000
0100
0000
0001
0000
1000
0000
0000
0000
0000
0000
1000
0000
0000
0000
0000
0000
1000
0000
0001
0000
1000
0000
0010
0000
0000
0000
0000
0000
0010
0000
0000
1000
0000
0000
0100
0000
0000
0010
0000
0000
,
0001
0000
0000
0000
0000
0000
0001
0000
0010
0000
0001
0000
1000
0000
0000
0000
0000
0000
1000
0000
0000
0000
0000
0000
1000
0000
0000
0010
0000
0000
0100
0000
0000
0000
0000
0000
0100
0000
0000
0010
0000
0000
1000
0000
0000
0001
0000
0000
,
1000
0000
0000
0000
0000
0000
1000
0000
0010
0000
0100
0000
0001
0000
0000
0000
0000
0000
0001
0000
0000
0000
0000
0000
0001
0000
0100
0000
0010
0000
0100
0000
0000
0000
0000
0000
0100
0000
0000
0001
0000
0000
0010
0000
0000
0001
0000
0000
,
1000
0000
0000
1000
0100
0010
0001
0000
0000
0001
0000
0000
0001
0000
0000
0000
0000
0000
M1M1
0000
0000
0000
0000
0000
,
1000
0000
0000
0000
0000
0000
0001
0000
0100
0000
0001
0000
0100
0000
0000
0000
0000
0000
0010
0000
0000
0000
0000
0000
1000
0000
0100
0000
1000
0000
0100
0000
0000
0000
0000
0000
0010
0000
0000
0001
0000
0000
0100
0000
0000
0010
0000
0000
,
1000
0000
0000
0000
0000
0000
0001
0000
1000
0000
0010
0000
0100
0000
0000
0000
0000
0000
0001
0000
0000
0000
0000
0000
1000
0000
0000
0010
0000
0000
0100
0000
0000
0000
0000
0000
0010
0000
0000
0100
0000
0000
0001
0000
0000
1000
0000
0000
,
0010
0000
0000
0000
0000
0000
1000
0000
0001
0000
0100
0000
0010
0000
0000
0000
0000
0000
1000
0000
0000
0000
0000
0000
0001
0000
0010
0000
0001
0000
1000
0000
0000
0000
0000
0000
0001
0000
0000
1000
0000
0000
0100
0000
0000
0010
0000
0000
,
0001
0000
0000
1000
0010
0100
0001
0000
0000
1000
0000
0000
1000
0000
0000
0000
0000
0000
M11M
0000
0000
0000
0000
0000
,
2MM2
3003
0000
1M1M
0000
0000
M1M1
0000
0000
11MM
0000
0000
,
1MM1
100M
1001
M001
1001
100M
1001
M001
,
1001
0100
1001
0100
1001
0100
1001
0100
,
1001
01M0
0110
01M0
0110
0M10
0110
01M0
,
0110
0001
0110
0001
0110
0101
1001
1010
,
1001
1000
1001
M001
1001
100M
1001
M001
,
1001
0100
1001
0100
1001
100M
1001
M001
,
1001
01M0
0110
0M10
0110
01M0
0110
0001
,
0110
0001
1001
0100
1001
0101
1001
1100
,
0001
0100
0001
1000
0010
1000
0002
0000
1003
0010
1000
0001
0010
0001
2000
0000
,
3001
0100
0001
1000
0001
0100
0020
0000
1030
0100
1000
0001
0100
0010
0200
0000
,
0310
0100
0010
1000
0001
0100
0020
0000
1030
0100
1000
0001
0100
0010
0200
0000
,
0310
1000
0001
0010
0001
1000
0010
0000
1001
0000
1010
0000
1001
0000
0101
0000
,
0001
1000
0010
0100
0001
1000
0020
0000
1030
0010
1000
0001
0010
0001
0200
0000
,
0301
0100
0001
0100
0001
1000
0200
0000
1300
0100
0010
0100
0010
0001
2000
0000
,
3001
0010
0100
1000
0001
1000
0200
0000
1300
0001
0010
0100
1000
0001
0020
0000
,
0031
0010
0100
0010
0001
1000
0010
0000
1010
0000
0101
0000
1001
0000
1100
0000
,
1000
0100
1000
0001
1000
0010
1000
0000
1010
0000
1001
0000
1100
0000
1010
0000
,
2MM2
0000
3003
0000
1000
0100
0010
0001
1000
0100
0010
0001
1000
0100
1000
0001
,
1000
0000
0000
0100
0000
0000
0010
0000
0000
0100
0000
0000
1000
0000
0000
0001
0000
0000
1000
0000
0000
0001
0000
0000
1000
0000
0100
0000
1000
0000
0100
0000
0000
1000
0000
0000
0001
0000
0000
0000
0000
0000
0100
0000
0000
0000
0000
0000
,
0001
0010
0100
1000
0100
0000
0100
0010
0100
1000
0001
0010
0100
1000
0100
0010
,
0001
0000
0000
1000
0000
0000
0001
0000
0000
0100
0000
0000
0001
0000
0000
1000
0000
0000
0100
0000
0000
1000
0000
0000
0100
0000
1000
0000
0100
0000
1000
0000
0000
0001
0000
0000
1000
0000
0000
0000
0000
0000
1000
0000
0000
0000
0000
0000
,
1000
0010
0100
0010
1000
0000
1000
0001
1000
0000
1000
0010
0100
0001
1000
0100
,
1000
0000
0000
0100
0000
0000
0010
0000
0000
0100
0000
0000
1000
0000
0000
0001
0000
0000
1000
0000
0000
0100
0000
0000
1000
0000
0100
0000
1000
0000
0100
0000
0000
1000
0000
0000
0001
0000
0000
0000
0000
0000
0100
0000
0000
0000
0000
0000
,
0100
0000
0000
0010
0000
0000
1000
0000
0000
0001
0000
0000
1000
0000
0000
0100
0000
0000
0010
0000
0000
0100
0000
0000
1000
0000
0000
0000
0000
0000
1000
0000
0100
0000
1000
0000
0100
0000
0000
0000
0000
0000
0100
0000
0000
0000
0000
0000
,
0100
1000
0001
1000
0010
1000
0010
0000
0010
1000
0001
0100
0001
0000
0001
0000
,
M1M1
0000
0000
0000
0000
0000
1M1M
0000
0000
0000
0000
0000
11MM
0000
0000
0000
0000
0000
1MM1
0000
0000
0001
1000
0001
,
1000
0000
0000
0000
0000
0000
0001
0000
0100
0000
0001
0000
0100
0000
0000
0000
0000
0000
0001
0000
0000
0000
0000
0000
0010
0000
0001
0000
0010
0000
0001
0000
0000
0000
0000
0000
0010
0000
0000
0001
0000
0000
1000
0000
0000
0010
0000
0000
,
1000
0000
0000
0000
0000
0000
1000
0000
0001
0000
1000
0000
0001
0000
0000
0000
0000
0000
0010
0000
0000
0000
0000
0000
0001
0000
0000
0010
0000
0000
0001
0000
0000
0000
0000
0000
0100
0000
0000
0010
0000
0000
1000
0000
0000
0001
0000
0000
,
0100
0000
0000
0000
0000
0000
0001
0000
1000
0000
0001
0000
1000
0000
0000
0000
0000
0000
0010
0000
0000
0000
0000
0000
0010
0000
1000
0000
0010
0000
1000
0000
0000
0000
0000
0000
1000
0000
0000
0100
0000
0000
1000
0000
0000
0001
0000
0000
,
0100
0000
0000
0001
1000
0001
1000
0000
0000
0100
0000
0000
0100
0000
0000
0000
0000
0000
1M1M
0000
0000
0000
0000
0000
,
0001
0000
0000
0000
0000
0000
0001
0000
1000
0000
0001
0000
1000
0000
0000
0000
0000
0000
0100
0000
0000
0000
0000
0000
1000
0000
0010
0000
1000
0000
0010
0000
0000
0000
0000
0000
0100
0000
0000
0001
0000
0000
1000
0000
0000
0100
0000
0000
,
1000
0000
0000
0000
0000
0000
0100
0000
1000
0000
0100
0000
1000
0000
0000
0000
0000
0000
0100
0000
0000
0000
0000
0000
0010
0000
0000
0001
0000
0000
1000
0000
0000
0000
0000
0000
1000
0000
0000
0010
0000
0000
1000
0000
0000
0001
0000
0000
,
0100
0000
0000
0000
0000
0000
0100
0000
0001
0000
0100
0000
0001
0000
0000
0000
0000
0000
1000
0000
0000
0000
0000
0000
0010
0000
0100
0000
0010
0000
0100
0000
0000
0000
0000
0000
0100
0000
0000
0001
0000
0000
1000
0000
0000
0010
0000
0000
,
0100
0000
0000
0010
1000
0010
1000
0000
0000
0010
0000
0000
0100
0000
0000
0000
0000
0000
1M1M
0000
0000
0000
0000
0000
,
M2MM
0300
0000
0000
0000
0000
0000
0000
0M00
0000
0000
0000
0000
0000
0000
0000
0000
0000
0000
0000
0000
0000
0000
0000
0000
0000
0000
0000
0000
0000
0000
0000
,
0000
0000
0000
0000
,
1000
0100
0010
0001
0010
0100
1000
0100
2000
0000
0000
0000
0002
0000
3003
0000
,
0001
0010
0100
1000
0100
0010
0001
0010
0002
0000
0000
0000
2000
0000
3003
0000
,
1000
0010
1000
0001
0100
0010
1000
0001
0200
0000
0000
0000
0002
0000
0303
0000
,
0010
0100
0001
1000
0001
1000
0100
0000
1100
0000
1001
0000
0101
0000
0110
0000
,
0100
0001
1000
0100
1000
0001
0100
0001
0200
0000
0000
0000
0002
0000
0303
0000
,
0001
0010
0100
1000
0001
1000
0010
1000
0020
0000
0000
0000
0200
0000
0330
0000
,
0100
0001
1000
0001
0010
0001
0010
0100
2000
0000
0000
0000
0200
0000
3300
0000
,
1000
0010
1000
0001
0100
0001
1000
0000
0101
0000
0110
0000
0101
0000
1001
0000
,
1000
0001
0100
0001
1000
0100
1000
0000
1100
0000
1001
0000
1001
0000
0101
0000
,
0001
0000
0000
0000
1000
0100
0010
0001
1000
0100
0010
0001
1000
0100
1000
0001
,
1000
0000
0000
0100
0000
0000
0010
0000
0000
0100
0000
0000
1000
0000
0000
0001
0000
0000
1000
0000
0000
0001
0000
0000
1000
0000
0100
0000
1000
0000
0100
0000
0000
1000
0000
0000
0001
0000
0000
0000
0000
0000
0100
0000
0000
0000
0000
0000
,
0001
0010
0100
1000
0100
0000
0010
0100
1000
0001
1000
0100
0010
0001
0010
0100
,
1000
0000
0000
0001
0000
0000
1000
0000
0000
0010
0000
0000
1000
0000
0000
0001
0000
0000
0100
0000
0000
0001
0000
0000
0100
0000
0001
0000
0100
0000
0001
0000
0000
1000
0000
0000
0001
0000
0000
0000
0000
0000
1000
0000
0000
0000
0000
0000
,
0100
0010
0100
0010
0001
0000
1000
0001
1000
0000
0001
0010
0100
0010
0100
1000
,
0001
0000
0000
0010
0000
0000
0100
0000
0000
1000
0000
0000
0001
0000
0000
0100
0000
0000
0010
0000
0000
1000
0000
0000
0010
0000
1000
0000
0010
0000
1000
0000
0000
0010
0000
0000
1000
0000
0000
0000
0000
0000
0100
0000
0000
0000
0000
0000
,
1000
0000
0000
0010
0000
0000
1000
0000
0000
0001
0000
0000
1000
0000
0000
0100
0000
0000
0010
0000
0000
0100
0000
0000
1000
0000
0000
0000
0000
0000
0100
0000
1000
0000
0100
0000
1000
0000
0000
0000
0000
0000
0010
0000
0000
0000
0000
0000
,
1000
0001
1000
0001
0100
0001
0100
0000
0010
1000
0001
0100
0001
0000
0001
0000
,
M1M1
0000
0000
0000
0000
0000
M11M
0000
0000
0000
0000
0000
1M1M
0000
0000
0000
0000
0000
11MM
0000
0000
1000
0001
1000
,
0000
0000
0000
0000
0000
0000
0100
0000
1000
0000
0100
0000
1000
0000
0000
0000
0000
0000
0010
0000
0000
0000
0000
0000
0100
0000
0010
0000
0100
0000
0010
0000
0000
0000
0000
0000
1000
0000
0000
0001
0000
0000
0100
0000
0000
0010
0000
0000
,
1000
0000
0000
0000
0000
0000
0001
0000
1000
0000
0001
0000
1000
0000
0000
0000
0000
0000
0100
0000
0000
0000
0000
0000
1000
0000
0000
0010
0000
0000
0100
0000
0000
0000
0000
0000
0010
0000
0000
1000
0000
0000
0001
0000
0000
0100
0000
0000
,
0010
0000
0000
0000
0000
0000
1000
0000
0001
0000
1000
0000
0001
0000
0000
0000
0000
0000
0010
0000
0000
0000
0000
0000
0100
0000
0010
0000
0100
0000
0010
0000
0000
0000
0000
0000
0001
0000
0000
0010
0000
0000
0100
0000
0000
1000
0000
0000
,
0010
0000
0000
0100
0001
0100
0001
0000
0000
0010
0000
0000
0001
0000
0000
0000
0000
0000
M1M1
0000
0000
0000
0000
0000
,
1000
0000
0000
0000
0000
0000
0100
0000
1000
0000
0100
0000
1000
0000
0000
0000
0000
0000
0010
0000
0000
0000
0000
0000
1000
0000
0001
0000
1000
0000
0001
0000
0000
0000
0000
0000
1000
0000
0000
0001
0000
0000
0100
0000
0000
0010
0000
0000
,
1000
0000
0000
0000
0000
0000
0001
0000
1000
0000
0001
0000
1000
0000
0000
0000
0000
0000
0100
0000
0000
0000
0000
0000
1000
0000
0000
0010
0000
0000
0100
0000
0000
0000
0000
0000
0010
0000
0000
1000
0000
0000
0001
0000
0000
0100
0000
0000
,
0010
0000
0000
0000
0000
0000
1000
0000
0001
0000
1000
0000
0001
0000
0000
0000
0000
0000
0100
0000
0000
0000
0000
0000
0001
0000
0100
0000
0001
0000
0100
0000
0000
0000
0000
0000
0001
0000
0000
0010
0000
0000
0100
0000
0000
1000
0000
0000
,
0010
0000
0000
0100
0001
0100
0001
0000
0000
0010
0000
0000
0001
0000
0000
0000
0000
0000
1M1M
0000
0000
0000
0000
0000
,
1000
0000
0000
0000
0000
0000
0010
0000
1000
0000
0100
0000
1000
0000
0000
0000
0000
0000
0010
0000
0000
0000
0000
0000
0100
0000
0001
0000
0010
0000
0001
0000
0000
0000
0000
0000
0001
0000
0000
1000
0000
0000
0010
0000
0000
0100
0000
0000
,
0010
0000
0000
0000
0000
0000
0010
0000
1000
0000
0100
0000
1000
0000
0000
0000
0000
0000
1000
0000
0000
0000
0000
0000
1000
0000
0000
0010
0000
0000
0100
0000
0000
0000
0000
0000
0010
0000
0000
1000
0000
0000
0001
0000
0000
0100
0000
0000
,
0010
0000
0000
0000
0000
0000
0010
0000
1000
0000
0100
0000
1000
0000
0000
0000
0000
0000
1000
0000
0000
0000
0000
0000
1000
0000
0010
0000
1000
0000
0100
0000
0000
0000
0000
0000
0100
0000
0000
1000
0000
0000
0010
0000
0000
1000
0000
0000
,
0010
0000
0000
0010
1000
0100
1000
0000
0000
0100
0000
0000
1000
0000
0000
0000
0000
0000
2MM2
0000
0000
3MM3
0000
0000
,
0000
M00M
0000
0000
0000
0000
0000
0000
0000
0000
0000
0000
0000
0000
0000
0000
;

//--------------- dance-double - M. Emirzian ----------------
#NOTES:
     dance-double:
     M. Emirzian:
     Easy:
     5:
     0.382184,0.456674,0.510315,0.023196,0,346,280,66,3,0,0,0.382184,0.456674,0.510315,0.023196,0,346,280,66,3,0,0:
00000000
00000000
00000000
00000000
,
00000000
00000000
00000000
00000000
,
00000000
00000000
00000000
00000000
,
00000000
00000000
00000000
11000000
,
11000000
00000000
00000000
00110000
,
00110000
00000000
00000000
00110000
,
00011000
00000000
00010000
00011000
,
00010000
00000000
00002000
00000000
,
00003100
00000100
00001100
00000001
,
00000000
00000110
00000110
00000000
,
00000011
00000110
00000000
00000100
,
00000100
00001100
00000001
00000000
,
00000010
00001000
00000010
00001000
,
00000010
00010000
00001000
00010000
,
00001000
00100000
00011000
00011000
,
00001000
00100000
00010000
00100000
,
00100000
00110000
10000000
01000000
,
10000000
01000000
10000000
11000000
,
10000000
00100000
01000000
01100000
,
00100000
00010000
00001000
00011000
,
00011000
00000100
00000100
00000100
,
00000100
00001000
00000010
00001000
,
00000010
00001000
00000001
00000010
,
00000011
00000010
00000100
00001000
,
00001100
00001100
00000010
00000110
,
00000010
00010000
00011000
00001000
,
00100000
00100000
00100000
00100000
,
01000000
01000000
11000000
00010000
,
00100000
00110000
00100000
00010000
,
00010000
00010000
00010000
00001000
,
00001100
00001000
00000100
00000001
,
00000100
00001000
00000010
00000100
,
00001000
00010000
01000000
00010000
,
00001000
00000100
00001000
00010000
,
00001000
00010000
00011000
00011000
,
01000000
01100000
01000000
10000000
,
10000000
11000000
00010000
00100000
,
00110000
00100000
00011000
00001100
,
00000010
00000010
00000010
00000010
,
00000100
00000001
00000100
00000001
,
00000110
00000110
00010000
00011000
,
00001000
01000000
01000000
01100000
,
00010000
11000000
11000000
00000000
,
01000000
01000000
01100000
10000000
,
00010000
00011000
00001000
00000010
,
00000010
00000011
00001000
00000100
,
00000110
00000100
00011000
00110000
,
00100000
00000000
00000000
00000000
,
00000000
00000000
00000000
00000000
,
00010000
00001000
00010000
00001000
,
00100000
00010000
00100000
00010000
,
01000000
00100000
10000000
00100000
,
10000000
01000000
00100000
00010000
,
01000000
00001000
00010000
00001000
,
00010000
00000010
00001000
00000010
,
00000100
00000001
00000100
00000010
,
00001000
00000100
00000010
00000001
,
00000010
00000010
00000100
00010000
,
00000100
00010000
00002000
00000000
,
00023000
00000000
01030000
01000000
,
10000000
00000000
10010000
00000000
,
00100000
00100000
01000000
10000000
,
10100000
00000000
00100000
01000000
,
01000000
00001000
00010000
00010100
,
00000000
00001000
00000010
00000100
,
00000001
00000010
00000100
00001000
,
00000010
00000010
00000010
00000010
,
00001100
00011000
01000000
01100000
,
01000000
00100000
00100000
01100000
,
10000000
10000000
11000000
00110000
,
00110000
01000000
01100000
01000000
,
00011000
00011000
00000100
00000100
,
00000100
00000100
00000011
00000011
,
00000100
00000100
00000110
00000001
,
00001000
00011000
00010000
01001000
,
00100000
00000000
10000000
00000000
00100000
10000000
00100000
00000000
,
01000000
00000000
00010000
00000000
00100000
00001000
00100000
00000000
,
00001000
00000000
00010000
00000000
00000010
00001000
00000010
00000000
,
00000100
00000000
00000001
00000010
00000001
00000000
00001100
00000000
;

//--------------- dance-double - M. Emirzian ----------------
#NOTES:
     dance-double:
     M. Emirzian:
     Medium:
     6:
     0.410903,0.517563,0.193301,0.03866,0.027062,372,347,25,5,0,0,0.410903,0.517563,0.193301,0.03866,0.027062,372,347,25,5,0,0:
00000000
00000000
00000000
00000000
,
00000000
00000000
00000000
00000000
,
00000000
00000000
00000000
00000000
,
00000000
00000000
00000000
00001001
,
00000100
00000000
00000100
00000010
00001000
00000100
00010000
00000000
,
00011000
00000000
01000000
00010000
10000000
00100000
01000000
00000000
,
10010000
00000000
01000000
00100000
00001000
00010000
00001000
01000000
,
00001000
00010000
00000100
00001000
00000010
00000000
00000101
00000000
,
00000100
00000000
00000000
00000100
00000000
00000000
00000000
00000000
00000100
00000000
00000000
00000100
00000000
00000000
00000000
00000000
,
00000100
00000000
00000000
00000100
00000000
00000000
00000000
00000000
00000010
00000000
00000000
00000010
00000000
00000000
00000000
00000000
,
00001000
00000000
00000000
00001000
00000000
00000000
00000000
00000000
00000100
00000000
00000000
00000100
00000000
00000000
00000000
00000000
,
00010000
00000000
00000000
00010000
00000000
00000000
00001000
00000000
00010000
00000000
00000000
00000000
00000000
00000000
00000000
00000000
,
00001000
00010010
00011000
00101000
,
00010000
01000000
00100000
10000000
,
00100000
01000000
00010000
01000000
,
10100000
10000000
01000000
00100000
,
00010000
01000000
01001000
00001000
,
00010000
00000100
00010000
00001000
,
00010000
00000010
00001000
00000001
,
00000100
00000010
00000100
00000001
,
00000100
00000010
00000100
00000001
,
00000100
00001000
00010000
00100000
,
10000000
00000000
01000000
00000000
00100000
00010000
00100000
00000000
,
01000000
01000000
00010000
00010000
,
00001000
00001000
00010000
00000100
,
00000010
00000100
00000010
00000001
,
00000010
00000100
00001000
00000100
,
00000010
00000001
00000010
00000000
00000100
00000000
00010000
00000000
,
00001000
00010000
00001000
00000000
01000000
00000000
00100000
10000000
,
00100000
01000000
01000000
00001000
,
00002000
00003000
00002000
00003000
,
00020000
00030000
00002000
00003000
,
00002000
00003000
00010000
00000100
,
00001000
00000010
00000100
00000001
,
00000100
00000001
00000010
00000010
,
00001000
00001000
00010000
00010000
,
01000000
01000000
10000000
10000000
,
00100000
00000000
00100000
00000000
01000000
00010000
01000000
00000000
,
10010000
00100000
00100000
00100000
,
00100000
00000000
01000000
00000000
00010000
01000000
00010000
00000000
,
00100000
00000000
00001000
00000000
00010000
00001000
00010000
00000000
,
00000100
00000000
00001000
00000000
00000010
00001000
00000010
00000000
,
00000100
00000001
00000100
00000000
00001001
00000000
00000010
00000000
,
00000100
00000000
00000001
00000000
00001000
00000100
00001000
00000000
,
00000010
00000000
00010000
00000000
00001000
00010000
00001000
00000000
,
01000000
00000000
00010000
00000000
00100000
01000000
00100000
00000000
,
00010000
01000000
00010000
01000000
00010000
00000000
10010000
00000000
,
01100000
00000000
00000000
00000000
,
00000000
00000000
00000000
00000000
,
10000000
10000000
01000000
01000000
,
00100000
00000000
00100000
00000000
00010000
00100000
00001000
00000000
,
00010000
00000000
00000100
00000000
00001000
00000010
00000100
00000000
,
00000100
00000000
00000001
00000000
00000010
00000100
00001000
00000000
,
00000010
00000000
00000010
00000000
00000100
00000001
00001000
00000000
,
00000100
00000000
00000100
00000000
00010000
00001000
01000000
00000000
,
00010000
00010000
00100000
00100000
,
01000000
01000000
10000000
10010000
,
01000000
00000000
01000000
00000000
00100000
10000000
00100000
00000000
,
01000000
00000000
01000000
00000000
00001000
00010000
00001000
00010000
,
00001000
00000000
00010000
00000000
00000100
00001000
00000100
00001000
,
00000100
00000010
00000001
00000100
,
00000010
00001000
00000010
00001000
00000010
00000000
00000100
00000000
,
00000001
00000010
00000001
00000010
00000001
00000000
00000100
00000000
,
00000010
00010000
00000010
00010000
00000010
00000000
00001000
00000000
,
00000100
00010000
00001000
00000000
00010000
00001000
00010000
00001000
,
00010000
00101000
00011000
00010010
,
00011000
00011000
00011000
00010000
,
00100000
00000000
10000000
00000000
01000000
00100000
01000000
00000000
,
10000000
00000000
00010000
00000000
01000000
00001000
00010000
00000000
,
00001000
00000000
00010000
00000000
00000100
00001000
00000010
00000000
,
00000100
00000001
00000010
00000000
00001001
00000000
00000110
00000000
,
00000100
00000000
00000001
00000000
00001000
00000100
00010000
00000000
,
00001000
00000000
01000000
00000000
00010000
00100000
01000000
00000000
,
10000000
00000000
00010000
00000000
01000000
00001000
00010000
00000000
,
00000100
00001000
00000010
00000000
00001001
00000000
00000110
00000000
,
00000010
00000001
00000100
00000000
00000010
00001000
00000100
00000000
,
00010000
00001000
00100000
00000000
00010000
01000000
00100000
00000000
,
10000000
01000000
00100000
00000000
00010000
01000000
00100000
00000000
,
00010000
00001000
01000000
00001000
00010000
00000000
00010010
00000000
;

//--------------- dance-double - M. Emirzian ----------------
#NOTES:
     dance-double:
     M. Emirzian:
     Hard:
     9:
     0.630713,0.608898,0.371138,0.007732,0.088918,571,523,48,1,0,0,0.630713,0.608898,0.371138,0.007732,0.088918,571,523,48,1,0,0:
00000000
00000000
00000000
00000000
,
00000000
00000000
00000000
00000000
,
00000000
00000000
00000000
00000000
,
00000000
00000000
00000000
00000000
,
00001000
00000000
00000000
00000000
00000000
00010000
00000100
00000000
00000000
00000000
00000000
00000000
00010000
00000000
00000000
00001000
00000000
00000000
01000000
00000000
00000000
00000000
00000000
00000000
,
00001000
00000000
00000000
00000000
00000000
00010000
00000010
00000000
00000000
00000000
00000000
00000000
00010000
00000000
00000000
00001000
00000000
00000000
00100000
00000000
00000000
00000000
00000000
00000000
,
00001000
00000000
00000000
00000000
00000000
00010000
00000100
00000000
00000000
00000000
00000000
00000000
00001000
00000000
00000000
00000001
00000000
00000000
00000010
00000000
00000000
00000000
00000000
00000000
,
00000100
00001000
00000010
00000100
00001001
00000000
00011000
00000000
,
01100000
00000000
00100000
10000000
00100000
01000000
00010000
00000000
,
00110000
00000000
01000000
10000000
01000000
00100000
00001000
00000000
,
00010100
00000000
00000100
00001000
00000100
00000010
00000001
00000000
,
00000100
00000001
00000100
00000010
00001000
00000000
00010100
00000000
,
00010000
00011000
10010000
01100000
,
10000000
01000000
00010000
01000000
10000000
01000000
00010000
00010000
,
01000000
10000000
00100000
00010000
00001000
01000000
00001000
00001000
,
00010000
00000100
00000010
00001000
00000010
00000001
00000100
00000100
,
00000010
00001000
00000100
00000010
00000001
00000001
00000001
00000001
,
00001000
00000010
00010000
00001000
01000000
00001000
00010000
00010000
,
00100000
00010000
00001000
00010000
01000000
00010000
00001000
00001000
,
00100000
00010000
01000000
10000000
01000000
00010000
10000000
10000000
,
01000000
00010000
01000000
00100000
00001000
00001000
00001000
00001000
,
00010000
00000000
00000010
00000000
00001000
00000000
00000010
00000000
00000100
00000000
00000001
00000100
00000000
00000010
00001000
00000000
,
00000100
00000000
00000010
00000000
00000001
00000000
00000010
00000000
00000100
00000000
00010000
00001000
00000000
00100000
00001000
00000000
,
00010000
00000000
01000000
00000000
00010000
00000000
00001000
00000000
00000010
00000000
00000001
00000100
00000000
00000010
00001000
00000000
,
00000010
00000000
00000100
00000000
00001000
00000000
00010000
00000000
00100000
00000000
10000000
01000000
00000000
00100000
00010000
00000000
,
00100000
00000000
00001000
00000000
01000000
00000000
00100000
00000000
10000000
00000000
00010000
00100000
00000000
00001000
00010000
00000000
,
00001000
00000000
00000010
00000000
00000001
00000000
00001000
00000000
00000100
00000000
00000010
00000001
00000000
00000010
00000100
00000000
,
00010000
00000000
00001000
00000000
00000100
00000000
00001000
00000000
00010000
00000000
00001000
00100000
00000000
01000000
10000000
00000000
,
01000000
00000000
00100000
00000000
00010000
00000000
00100000
00000000
01000000
10000000
01000000
00000000
00010000
00000000
00001000
00000000
,
00100000
00001000
00010000
00000010
00001000
00000001
00000100
00001001
,
00000000
00000000
00000100
00000001
00000100
00000010
00001000
00000100
,
00000100
00010000
00001000
01000000
01000000
00100000
10000000
00100000
,
01000000
00010000
00100000
01000000
01000000
00010000
00001000
00000010
,
00000010
00001000
00010000
00000010
00000010
00000100
00000001
00000100
,
00000010
00001000
00000100
00000010
00000010
00001000
00001000
00010000
,
00010000
00100000
00100000
01000000
00001000
00100000
00001000
00010000
,
00010000
00000010
00000010
00000100
00000100
00001000
00001000
00010000
,
00100000
10000000
00010000
00100000
01000000
01000000
01000000
01000000
,
10010000
01001000
00010010
00001010
,
00000001
00000010
00000100
00001000
00000100
00000010
00001000
00001000
,
00010000
00100000
00010000
00001000
00000100
00001000
00010000
00010000
,
01000000
10000000
00100000
10000000
00010000
01000000
00001000
00001000
,
00100000
00000000
01000000
00100000
01000000
00000000
10000000
00000000
00010000
00000000
00000000
00000000
00011000
00000000
00000000
00000000
,
00000010
00000001
00001000
00000100
00000010
00000001
00000100
00000100
,
00001000
00010000
01000000
00010000
00001000
00010000
00100000
00100000
,
10000000
01000000
00100000
00010000
00100000
01000000
00010000
00010000
,
00001000
00000000
01000000
00010000
01000000
00000000
00100000
00000000
10010000
00000000
00000000
00000000
00011000
00000000
00000000
00000000
,
00000020
00000000
00000000
00000000
,
00000000
00000000
00000000
00000030
,
00000101
00001010
00001100
00010100
,
00010000
00001000
01000000
00001000
00010000
01000000
10000000
00000000
,
10100000
01010000
00110000
01001000
,
00001000
00010000
00000010
00010000
00001000
00000010
00000001
00000100
,
00001001
00000011
00000101
00000011
,
00000010
00000100
00001000
00000100
00000010
00001000
00010000
00000000
,
10100000
11000000
10100000
01010000
,
00100000
01000000
00010000
01000000
00100000
00010000
00001000
00100000
,
00011000
00000000
00010100
00000000
00000100
00001000
00000010
00000100
,
00000001
00000000
00001010
00000000
00000100
00010000
00001000
01000000
,
00100000
10000000
01000000
00010000
01000000
10000000
00010000
01000000
,
01001000
00010010
00001100
00001010
,
00000100
00000001
00000100
00001000
00000100
00000001
00000100
00001000
,
00010000
00000010
00010000
00001000
00010000
01000000
00100000
00010000
,
00100000
01000000
10000000
00100000
00010000
00100000
10000000
01000000
,
00010000
00001000
00000010
00000001
00000010
00000100
00001000
00000001
,
00000100
00000010
00000100
00000001
00000100
00001000
00010000
01000000
,
11000000
10010000
00101000
00010100
,
00000010
00000001
00000010
00000100
00001000
00000010
00000100
00001000
,
00010000
00100000
10000000
01000000
00010000
00001000
00000010
00000001
,
00001000
00000100
00000010
00000001
00000010
00000100
00010000
00001000
,
00000100
00001000
00010000
01000000
10000000
00000000
00110000
00000000
,
01000000
10000000
01000000
00100000
00001000
00010000
00000010
00010000
,
00001000
00000010
00000001
00000100
00001000
00010000
00100000
10000000
,
00100000
01000000
00001000
00010000
01000000
00010000
00001000
00000100
,
00000010
00001000
00000010
00000100
00000001
00000000
00001100
00000000
,
00000010
00000000
00000000
00000000
00000000
00000001
00001000
00000000
00000000
00000000
00000000
00000000
00000100
00000000
00000000
00010000
00000000
00000000
00001000
00000000
00000000
00000000
00000000
00000000
,
01000000
00000000
00000000
00000000
00000000
00100000
10000000
00000000
00000000
00000000
00000000
00000000
01000000
00000000
00000000
00100000
00000000
00000000
00001000
00000000
00000000
00000000
00000000
00000000
,
00010000
00000000
00000000
00000000
00000000
00000100
00001000
00000000
00000000
00000000
00000000
00000000
00000010
00000000
00000000
00000100
00000000
00000000
00000001
00000000
00000000
00000000
00000000
00000000
,
00000010
00000100
00010000
00001000
01100000
00000000
10010000
00000000
;

//--------------- dance-double - M. Emirzian ----------------
#NOTES:
     dance-double:
     M. Emirzian:
     Challenge:
     12:
     0.986387,0.974237,0.247425,0.023196,1.121146,893,861,32,3,8,0,0.986387,0.974237,0.247425,0.023196,1.121146,893,861,32,3,8,0:
00000000
00000000
00000000
00000000
,
00000100
00000000
00000000
00000000
00000000
00000000
00010000
00000000
00001000
00000000
01000000
00000000
00001000
00000000
00000000
00000000
00000000
00000000
00010000
00000000
00000000
00000000
00000000
00000000
00000010
00000000
00000000
00010000
00000000
00000000
00001000
00000000
00000000
00000000
00000000
00000000
00100000
00000000
00000000
00001000
00000000
00000000
00010000
00000000
00000000
00000100
00000000
00000000
,
00001000
00000000
00000000
00000000
00000000
00000000
00000100
00000000
00010000
00000000
00001000
00000000
01000000
00000000
00000000
00000000
00000000
00000000
00100000
00000000
00000000
00000000
00000000
00000000
01000000
00000000
00001000
00000000
00010000
00000000
00000010
00000000
00000000
00000000
00000000
00000000
00001000
00000000
00000000
00000100
00000000
00000000
00000010
00000000
00000000
00000100
00000000
00000000
,
00001000
00000000
00000000
00000010
00010000
00001000
01000000
00000000
00000000
00010000
00000000
00000000
10010000
00000000
00000000
00000000
00000000
00000000
10100000
00000000
00000000
00000000
00000000
00000000
,
10000000
00000000
00000000
00000000
00000000
00000000
01000000
00000000
00100000
00000000
00010000
00000000
00100000
00000000
00000000
00000000
00000000
00000000
00010000
00000000
00000000
00000000
00000000
00000000
00100000
00000000
00001000
00000000
00100000
00000000
00010000
00000000
00000000
00000000
00000000
00000000
00100000
00000000
00000000
00001000
00000000
00000000
00010000
00000000
00000000
00001000
00000000
00000000
,
01000000
00000000
00000000
00000000
00000000
00000000
00001000
00000000
00010000
00000000
00000100
00000000
00001000
00000000
00000000
00000000
00000000
00000000
00000010
00000000
00000000
00000000
00000000
00000000
00000100
00000000
00000000
00000001
00000000
00000000
00000010
00000000
00000000
00000000
00000000
00000000
00000100
00000000
00000000
00010000
00000000
00000000
00001000
00000000
00000000
01000000
00000000
00000000
,
00001000
00000000
00000000
00000000
00000000
00000000
00010000
00000000
00001000
00000000
01000000
00000000
00100000
00000000
00000000
00000000
00000000
00000000
10000000
00000000
00000000
00000000
00000000
00000000
01000000
00000000
10000000
00000000
00010000
00000000
01000000
00000000
00000000
00000000
00000000
00000000
00001000
00000000
00000000
00010000
00000000
00000000
00000100
00000000
00000000
00000010
00000000
00000000
,
00000001
00000000
00000000
00001000
00000010
00000100
00000001
00000000
00000000
00001000
00000000
00000000
00000110
00000000
00000000
00000000
00000000
00000000
00001001
00000000
00000000
00000000
00000000
00000000
,
00001000
00000000
00000000
00000000
00000000
00000000
00000010
00000000
00001000
00000000
00000001
00000000
00001000
00000000
00000000
00000000
00000000
00000000
00000100
00000000
00000000
00000000
00000000
00000000
00010000
00000000
00001000
00000000
00100000
00000000
00001000
00000000
00000000
00000000
00000000
00000000
00100000
00000000
00000000
00001000
00000000
00000000
00010000
00000000
00000000
00001000
00000000
00000000
,
01000000
00000000
00000000
00000000
00000000
00000000
00001000
00000000
00010000
00000000
00001000
00000000
00100000
00000000
00000000
00000000
00000000
00000000
00010000
00000000
00000000
00000000
00000000
00000000
10000000
00000000
00000000
00100000
00000000
00000000
01000000
00000000
00000000
00000000
00000000
00000000
00010000
00000000
00000000
10000000
00000000
00000000
01000000
00000000
00000000
00100000
00000000
00000000
,
00010000
00000000
00000000
00000000
00000000
00000000
00100000
00000000
00010000
00000000
10000000
00000000
00010000
00000000
00000000
00000000
00000000
00000000
00001000
00000000
00000000
00000000
00000000
00000000
01000000
00000000
00010000
00000000
00100000
00000000
00010000
00000000
00000000
00000000
00000000
00000000
01000000
00000000
00000000
00001000
00000000
00000000
00010000
00000000
00000000
00001000
00000000
00000000
,
00010000
00000000
00000000
00000100
00001000
00000010
00001000
00000000
00000000
00000010
00000000
00000000
00001001
00000000
00000000
00000000
00000000
00000000
00002200
00000000
00000000
00000000
00000000
00000000
,
00003300
00010010
00011000
01001000
,
01000000
00010000
10000000
00100000
01000000
00010000
10000000
01000000
,
00100000
00001000
00010000
00000010
00000100
00000010
00010000
00001000
,
00000010
00000100
00000010
00000001
00001000
00000010
00010000
00100000
,
01000000
00100000
10000000
01000000
00100000
00100000
00100000
00100000
,
00100000
00001000
00010000
00000010
00000100
00000010
00000001
00000010
,
00000100
00001000
00000100
00000001
00010000
00001000
01000000
00001000
,
00100000
00010000
10000000
00100000
01000000
00010000
10000000
01000000
,
00100000
00010000
00100000
00001000
00010000
00010000
00010000
00010000
,
00010000
00001000
00010000
00001000
00010000
00000100
00001000
00000000
00000010
00001000
00000010
00000100
00000010
00001000
00000001
00000000
,
00000010
00000100
00001000
00000100
00001000
00000001
00001000
00000000
00000010
00001000
00000010
00010000
00001000
00010000
00001000
00000000
,
01000000
00010000
01000000
00100000
10000000
00100000
10000000
00000000
01000000
00100000
00010000
00100000
00001000
00010000
00001000
00000000
,
00010000
00001000
01000000
00010000
01000000
00001000
00010000
00000000
00001000
00000000
00001000
00000000
00001000
00000000
00001000
00000000
,
00001000
00010000
00000100
00010000
00001000
00010000
00001000
00000000
00010000
00000010
00001000
00000010
00001000
00000100
00001000
00000000
,
00000001
00000100
00000010
00001000
00000001
00000100
00000001
00000000
00000100
00000010
00001000
00000010
00010000
00001000
01000000
00000000
,
00010000
01000000
00010000
10000000
01000000
00100000
01000000
00000000
00100000
00010000
00100000
00010000
10000000
00100000
01000000
00000000
,
00010000
01000000
00100000
10000000
00100000
01000000
00100000
00000000
10000000
00000000
10000000
00000000
10000000
00000000
10000000
00000000
,
10000000
01000000
00100000
01000000
00100000
00010000
00100000
00000000
00001000
00000000
00001000
00000000
00001000
00000000
00002000
00000000
,
00000000
00000000
00013000
00001000
00010000
00000100
00001000
00000010
,
01000000
00010000
00100000
00000100
00001000
00000010
00010000
00011000
,
00010000
00000100
01000000
00000100
00010000
00000010
00100000
00000010
,
00010000
00000001
00001000
00000100
00000010
00000100
01000000
00100000
,
01000000
00000000
00001000
00000000
00010000
00000000
00000100
00000000
00010000
00000000
00001000
00010000
00001000
00000000
01000000
00100000
,
01000000
00000000
00001000
00010000
00001000
00000000
00000010
00000100
00000010
00000000
00000100
00000010
00000100
00000000
00001000
00000000
,
00000001
00000000
00000000
00000100
00000000
00000000
00000010
00000000
00000000
00001000
00000000
00000000
00000100
00000000
00000000
00010000
00000000
00000000
00001000
00000000
00000000
01000000
00000000
00000000
00010000
00000000
00000000
00000000
00000000
00000000
10000000
00000000
00010000
00000000
10000000
00000000
00010000
00000000
00000000
00000000
00000000
00000000
00100000
00000000
00000000
00000000
00000000
00000000
,
01000000
10000000
00100000
01000000
00001000
00010000
00000100
00000000
00010000
00000010
00001000
00000001
00000010
00000000
00000100
00000000
,
00001001
00010100
10001000
01100000
,
00010000
00000000
00000000
00000000
00000000
00000000
10000000
00000000
00010000
00000000
01000000
00000000
00010000
00000000
00000000
00000000
00000000
00000000
01000000
00000000
00000000
00000000
00000000
00000000
00100000
00000000
00010000
00000000
10000000
00000000
00010000
00000000
00000000
00000000
00000000
00000000
01000000
00000000
00000000
00001000
00000000
00000000
00010000
00000000
00000000
00000100
00000000
00000000
,
00001000
00000000
00000000
00000000
00000000
00000000
00000010
00000000
00001000
00000000
00000001
00000000
00001000
00000000
00000000
00000000
00000000
00000000
00000100
00000000
00000000
00000000
00000000
00000000
00000010
00000000
00000000
00000001
00000000
00000000
00001000
00000000
00000000
00000000
00000000
00000000
00000010
00000000
00000000
00000100
00000000
00000000
00000010
00000000
00000000
00001000
00000000
00000000
,
00000100
00000000
00000000
00000000
00000000
00000000
00010000
00000000
00001000
00000000
00100000
00000000
00001000
00000000
00000000
00000000
00000000
00000000
01000000
00000000
00000000
00000000
00000000
00000000
00010000
00000000
01000000
00000000
00010000
00000000
00100000
00000000
00000000
00000000
00000000
00000000
10000000
00000000
00000000
00010000
00000000
00000000
10000000
00000000
00000000
01000000
00000000
00000000
,
00100000
00000000
00000000
00100000
00010000
01000000
00010000
00000000
00000000
01000000
00000000
00000000
00110000
00000000
00000000
00000000
00000000
00000000
00000110
00000000
00000000
00000000
00000000
00000000
,
00000001
00000000
00000000
00000000
00000000
00000000
00000010
00000000
00000100
00000000
00001000
00000000
00000001
00000000
00000000
00000000
00000000
00000000
00001000
00000000
00000000
00000000
00000000
00000000
00000001
00000000
00000100
00000000
00000010
00000000
00001000
00000000
00000000
00000000
00000000
00000000
00000010
00000000
00000000
00001000
00000000
00000000
00000010
00000000
00000000
00010000
00000000
00000000
,
00001000
00000000
00000000
00000000
00000000
00000000
00010000
00000000
00000100
00000000
00010000
00000000
00001000
00000000
00000000
00000000
00000000
00000000
00010000
00000000
00000000
00000000
00000000
00000000
00001000
00000000
00000000
01000000
00000000
00000000
00010000
00000000
00000000
00000000
00000000
00000000
01000000
00000000
00000000
00100000
00000000
00000000
10000000
00000000
00000000
00100000
00000000
00000000
,
01000000
00000000
00000000
00000000
00000000
00000000
00010000
00000000
10000000
00000000
01000000
00000000
10000000
00000000
00000000
00000000
00000000
00000000
01000000
00000000
00000000
00000000
00000000
00000000
00100000
00000000
00010000
00000000
10000000
00000000
00010000
00000000
00000000
00000000
00000000
00000000
00100000
00000000
00000000
00001000
00000000
00000000
00010000
00000000
00000000
00000100
00000000
00000000
,
00000010
00000000
00000000
00000001
00001000
00000001
00000100
00000000
00000000
00000010
00000000
00000000
00001010
00000000
00000000
00000000
00000000
00000000
01100000
00000000
00000000
00000000
00000000
00000000
,
00011000
000MM000
00000000
00000000
00000000
00000000
00000000
00000000
,
00000000
00000000
00000000
00000000
,
00000001
00000100
00000010
00000100
00000010
00001000
00000010
00010000
00000010
00000000
00100000
00000000
00001000
00000000
0000M000
00000000
,
00010000
00001000
01000000
00001000
00010000
00001000
00100000
00010000
01000000
00000000
00000100
00000000
00010000
00000000
000M0000
00000000
,
00001000
00010000
00000010
00001000
00000010
00010000
00000010
00010000
00001000
00000000
01000000
00000000
00000100
00000000
00000M00
00000000
,
00010000
00001000
01000000
00010000
01000000
00010000
01000000
00100000
10000000
00000000
10000000
00000000
10000000
00000000
10000000
00000000
,
10000000
01000000
00100000
01000000
00100000
00010000
00100000
00001000
00010000
00000000
00000100
00000000
01000000
00000000
0M000000
00000000
,
00001000
00010000
00001000
00010000
00000010
00010000
00000010
00100000
00000010
00000000
00010000
00000000
00001000
00000000
0000M000
00000000
,
00010000
00000010
00010000
00000010
00001000
00000010
00001000
00000100
00000010
00000000
00000001
00000000
00010000
00000000
000M0000
00000000
,
00000010
00010000
00001000
00010000
00001000
01000000
00001000
00010000
00001000
00000000
00001000
00000000
00001000
00000000
00001000
00000000
,
00001000
00000000
01000100
00000000
00100000
00100000
00100000
00100000
,
00100000
00000000
00000000
00000000
10000000
01000000
00100000
00010000
00100000
00010000
00100000
00010000
01000000
00010000
01000000
00001000
,
01000000
00000000
00000000
00001000
00000000
00000000
00010000
00000000
00000000
00000100
00000000
00000000
00010000
00000000
00000000
00000100
00000000
00000000
00010000
00000000
00000000
00000100
00000000
00000000
00001000
00000000
00000100
00000000
00001000
00000000
00000100
00000000
00000000
00001000
00000000
00000000
00000001
00000000
00000000
00000000
00000000
00000000
00001000
00000000
00000000
00000000
00000000
00000000
,
00000010
00001000
00000010
00000100
00000001
00000000
00000100
00000010
00001000
00000010
00001000
00000010
00010000
00001000
00010000
00000100
,
00010000
00000000
00000000
00001000
00000000
00000000
00010000
00000000
00000000
00001000
00000000
00000000
01000000
00000000
00000000
00010000
00000000
00000000
01000000
00000000
00000000
00100000
00000000
00000000
10000000
00000000
00100000
00000000
10000000
00000000
00100000
00000000
00000000
10000000
00000000
00000000
00010000
00000000
00000000
00000000
00000000
00000000
00100000
00000000
00000000
00000000
00000000
00000000
,
01000000
10000000
00010000
10000000
00010000
00000000
00100000
00010000
01000000
00000000
01000000
00010000
00100000
00010000
00100000
00001000
,
00010000
00000000
00000000
00001000
00000000
00000000
00010000
00000000
00000000
00000010
00000000
00000000
00001000
00000000
00000000
00000010
00000000
00000000
00001000
00000000
00000000
00000001
00000000
00000000
00001000
00000000
00000001
00000000
00001000
00000000
00000001
00000000
00000000
00001000
00000000
00000000
00000100
00000000
00000000
00000000
00000000
00000000
00000010
00000000
00000000
00000000
00000000
00000000
,
00000001
00000000
00000000
00001000
00000000
00000000
00000010
00000000
00000000
00001000
00000000
00000000
00000010
00000000
00000000
00010000
00000000
00000000
00001000
00000000
00000000
00010000
00000000
00000000
00001000
00000000
00000000
00000000
00000000
00000000
01000000
00000000
00010000
00000000
01000000
00000000
00010000
00000000
00000000
00000000
00000000
00000000
00100000
00000000
00000000
00000000
00000000
00000000
,
10000000
01000000
00100000
01000000
00010000
01000000
00100000
00000000
00100000
00010000
01000000
00001000
00010000
00000000
00000100
00000000
,
00011000
00000000
01100000
00000000
00011000
00001000
00010100
00001000
,
00000010
00000000
00000000
00000000
00000000
00000000
00000100
00000000
00000010
00000000
00000100
00000000
00000010
00000000
00000000
00000000
00000000
00000000
00001000
00000000
00000000
00000000
00000000
00000000
00000001
00000000
00001000
00000000
00000001
00000000
00001000
00000000
00000000
00000000
00000000
00000000
00000100
00000000
00000000
00010000
00000000
00000000
00000100
00000000
00000000
00010000
00000000
00000000
,
00001000
00000000
00000000
00000000
00000000
00000000
00010000
00000000
00001000
00000000
00010000
00000000
00001000
00000000
00000000
00000000
00000000
00000000
01000000
00000000
00000000
00000000
00000000
00000000
00100000
00000000
00000000
10000000
00000000
00000000
01000000
00000000
00000000
00000000
00000000
00000000
01000000
00000000
00000000
10000000
00000000
00000000
00100000
00000000
00000000
01000000
00000000
00000000
,
00010000
00000000
00000000
00000000
00000000
00000000
00100000
00000000
00010000
00000000
00100000
00000000
00010000
00000000
00000000
00000000
00000000
00000000
01000000
00000000
00000000
00000000
00000000
00000000
00001000
00000000
01000000
00000000
00001000
00000000
01000000
00000000
00000000
00000000
00000000
00000000
00001000
00000000
00000000
00010000
00000000
00000000
00000010
00000000
00000000
00010000
00000000
00000000
,
00001000
00000000
00000000
00100000
00001000
00100000
00001000
00000000
00000000
00010000
00000000
00000000
00000100
00000000
00000000
00000000
00000000
00000000
00000011
00000000
00000000
00000000
00000000
00000000
,
00001000
00000000
00000000
00000000
00000000
00000000
00000010
00000000
00001000
00000000
00000010
00000000
00001000
00000000
00000000
00000000
00000000
00000000
00000100
00000000
00000000
00000000
00000000
00000000
00010000
00000000
00000100
00000000
00010000
00000000
00000100
00000000
00000000
00000000
00000000
00000000
00010000
00000000
00000000
00001000
00000000
00000000
01000000
00000000
00000000
00010000
00000000
00000000
,
00100000
00000000
00000000
00000000
00000000
00000000
00010000
00000000
10000000
00000000
00010000
00000000
10000000
00000000
00000000
00000000
00000000
00000000
00100000
00000000
00000000
00000000
00000000
00000000
01000000
00000000
00000000
00010000
00000000
00000000
10000000
00000000
00000000
00000000
00000000
00000000
01000000
00000000
00000000
00100000
00000000
00000000
00001000
00000000
00000000
00010000
00000000
00000000
,
00001000
00000000
00000000
00000000
00000000
00000000
01000000
00000000
00001000
00000000
01000000
00000000
00001000
00000000
00000000
00000000
00000000
00000000
00010000
00000000
00000000
00000000
00000000
00000000
00000010
00000000
00010000
00000000
00000010
00000000
00010000
00000000
00000000
00000000
00000000
00000000
00001000
00000000
00000000
00010000
00000000
00000000
00000100
00000000
00000000
00001000
00000000
00000000
,
00000001
00000000
00000000
00000010
00000001
00000010
00000001
00000000
00000000
00001000
00000000
00000000
00010010
00000000
00000000
00000000
00000000
00000000
01001000
00000000
00000000
00000000
00000000
00000000
,
10000000
00000000
00000000
00000000
00000000
00000000
01000000
00000000
00100000
00000000
00010000
00000000
00100000
00000000
00000000
00000000
00000000
00000000
00011000
00000000
00000000
00000000
00000000
00000000
00010000
00000000
00000100
00000000
00001000
00000000
00000001
00000000
00000000
00000000
00000000
00000000
00001000
00000000
00000000
00000010
00000000
00000000
00000100
00000000
00000000
00000010
00000000
00000000
,
00000001
00000000
00000000
00000000
00000000
00000000
00000010
00000000
00001000
00000000
00000010
00000000
00001000
00000000
00000000
00000000
00000000
00000000
00011000
00000000
00000000
00000000
00000000
00000000
00010000
00000000
00000000
01000000
00000000
00000000
00100000
00000000
00000000
00000000
00000000
00000000
10000000
00000000
00000000
01000000
00000000
00000000
00100000
00000000
00000000
00010000
00000000
00000000
,
01000000
00000000
00000000
00000000
00000000
00000000
00100000
00000000
10000000
00000000
00010000
00000000
01000000
00000000
00000000
00000000
00000000
00000000
00011000
00000000
00000000
00000000
00000000
00000000
00001000
00000000
00000010
00000000
00000100
00000000
00000001
00000000
00000000
00000000
00000000
00000000
00000010
00000000
00000000
00000100
00000000
00000000
00010000
00000000
00000000
00000100
00000000
00000000
,
00001000
00000000
00000000
00000010
00010000
00001000
01000000
00000000
00000000
00100000
00000000
00000000
10010000
00000000
00000000
00000000
00000000
00000000
00001001
00000000
00000000
00000000
00000000
00000000
;

//--------------- dance-couple - Easy ----------------
#NOTES:
     dance-couple:
     Easy:
     Easy:
     4:
     0.270621,0.395784,0.123713,0.015464,0,245,229,16,2,0,0,0.268412,0.365339,0.123713,0.015464,0,243,227,16,2,0,0:
00000000
00000000
00000000
00000000
,
00000000
00000000
00000000
00000000
,
00000000
00000000
00000000
00000000
,
00000000
00000000
00000000
10011001
,
00100010
00000000
00000000
00000000
,
10000001
00000000
00000000
00000000
,
01000100
00000000
00000000
00000000
,
00011000
00000000
00000000
10011001
,
01000000
00000000
00000010
00000000
,
10000000
00000000
00000010
00000000
,
10000000
00000000
00000001
00000000
,
01000000
00000000
00000010
00000000
,
20000002
00000000
30011003
00000000
00022000
00000000
10033001
00000010
,
00100000
00000000
00000000
00000010
00100000
00000000
00000000
01000000
,
00000100
00000000
00000000
01000000
00000100
00000000
00000000
01000000
,
00000010
00000000
00000000
00000100
00100000
00000000
00000000
00000000
,
01000100
10000001
01000100
10000001
,
01000100
00000000
01000100
00000000
,
00100010
00000000
00100010
00000000
,
01000100
00000000
01000100
00000000
,
00100010
00011000
00100010
00011000
,
10000001
00100100
01000010
00011000
,
10000001
00100100
01000010
00010100
,
10000001
00011000
01000010
00100100
,
00011000
00100100
01000010
10000001
,
00010000
00100000
01000000
10000000
,
00001000
00000100
00000010
00000001
,
00011000
10000001
00100010
01000100
,
10001000
01000100
00100010
00010001
,
10001000
10001000
00100010
00100010
,
01000100
00000000
10011001
00000000
00000000
00000000
00100010
00000010
,
00000010
00000000
10001000
00001000
00001000
00000000
00100010
00100000
,
00100000
00000000
00010001
00010000
00010000
00000000
10000001
10000001
,
10000001
00000000
10011001
01000100
,
10000010
00100100
10000010
00010100
,
01000010
00100100
10000001
00100010
,
01000001
00100100
01000001
00100100
,
01000010
00100100
00000000
01000100
,
10001000
00010001
10001000
00010001
,
10000000
01000000
00100000
00010000
,
00010000
00100000
01000000
10000000
,
00001000
00000100
00000010
00000001
,
00000001
00000010
00000100
10011001
,
00010000
00100000
01000000
10000000
,
10000000
01000000
00100000
00010000
,
00000001
00000010
00000100
00001000
,
00001000
00000100
00000010
10011001
,
10011001
00000000
00000000
00000000
,
00000000
00000000
00000000
00000000
,
10000001
01000010
00100100
00011000
,
10000001
01000010
00100100
00011000
,
00011000
00000001
00000010
00000100
,
00001000
00010000
00100000
01000000
,
10000000
10000000
01000000
00100000
,
00010000
00001000
00000100
00000010
,
00000001
00000001
00000010
00000100
,
00001000
00010000
00100000
01000000
,
10011001
01100110
10011001
00000000
,
00100100
00000000
01000000
01000000
01000010
00000010
10000010
10000000
,
10000001
00000001
00000001
00000000
01000100
00000000
00100010
00000000
,
00011000
00011000
00011000
00000000
00100010
00000000
10000001
10000001
,
10000001
00100010
00100010
01000100
,
00011000
00011000
00011000
00000000
01000001
01000000
01000010
00000000
,
10001000
00000000
00100010
00000010
10000010
00000000
00011000
00000000
,
01000100
00000000
00011000
00000000
01000100
01000100
01000100
00000000
,
00011000
01000100
00010001
10001000
,
00100010
00000000
10000001
00000000
00100010
00100010
00100010
00000000
,
10000000
01000000
00100000
00011100
,
00010011
00100000
01000000
10000000
,
00000001
00000010
00000100
00111000
,
11001000
00000100
00000010
10011001
,
00011000
00100100
01000010
10000001
,
10000001
01000010
00100100
00011000
,
00011000
00100100
01000010
10000001
,
10000001
01000010
00100100
10011001
,
10001000
10001000
01000100
00100010
,
00010001
00010001
00100010
01000100
,
10001000
10001000
01000100
00100010
,
00010001
00000000
00100010
00100010
10011001
00000000
10011001
00000000
;

//--------------- dance-couple - Medium ----------------
#NOTES:
     dance-couple:
     Medium:
     Medium:
     7:
     0.41753,0.487118,0.262889,0.046392,0,378,344,34,6,4,0,0.402066,0.487118,0.262889,0.046392,0,364,330,34,6,4,0:
00000000
00000000
00000000
00000000
,
00000000
00000000
00000000
00000000
,
00000000
00000000
00000000
00000000
,
00000000
00000000
00000000
00000000
,
00111010
00000000
10000001
00000000
,
00111010
00000000
01000100
00000000
,
00111010
00000000
01000100
00000000
,
10000001
01000100
10000001
00111100
,
10000001
00000000
10000001
00100010
,
10000001
00000000
00011000
00100010
,
10000001
00000000
00011000
00100010
,
10000001
00000000
00011000
00111100
,
10000001
01100110
10011001
11000101
,
01000010
00100000
01000010
00000000
10000001
00000010
10000001
00000000
,
00100010
01000000
00100010
00000000
00010001
00000010
00010001
00000000
,
01000100
00100000
01000100
00000000
10000001
00000100
10000001
00000000
,
00011000
00100100
00011000
00100100
00011000
00000000
10000001
00000000
,
01000100
00100000
01000100
00000000
10001000
00000001
10001000
00000000
,
01000100
00000010
01000100
00000000
00010001
10000000
00010001
00000000
,
01000100
00100000
01000100
00000000
10001000
00010000
10001000
00000000
,
00010001
00000000
01000100
00000000
00011000
10000001
00011000
10000001
,
00100100
00111100
01000010
11000011
,
00100100
00111100
01000100
11000011
,
01000010
00000000
01000010
00000000
,
01100110
00000000
10011001
00000000
10000000
00010000
10000000
00010000
,
01000010
11000011
00100100
00111100
,
01000010
11000011
00100100
00111100
,
01000000
00100000
00010000
00000000
00000100
00000010
00000001
00000000
,
00100010
00000000
10011001
00000000
00011000
10000001
00011000
10000001
,
00100010
00110011
01000100
11001100
,
00100010
00000000
20001000
00000100
00000010
00000001
00000001
00000010
,
00010100
00001000
00001000
00000100
00100010
00000001
30000001
00000000
,
M100010M
00000000
00010002
00100000
01000000
10000000
10000000
01000000
,
00101000
00010000
00010000
00100000
01000010
10000000
10000003
00000000
,
M010001M
00100010
00100010
10000001
,
00011000
01000010
00100100
00000000
00011000
00000000
10000001
00000010
,
10000001
00000000
00010000
00100000
01000000
00000000
00010001
00000100
,
00010001
00000000
10000000
01000000
00100000
00000000
10000000
00000000
,
00100010
00110011
01000100
11001100
,
00100000
01000000
00010000
00000000
00000100
00000010
00000001
00000000
,
01000000
00100000
01000000
00000000
00000100
00000010
00000100
00000000
,
00100000
01000000
00010000
00000000
00000100
00000010
00001000
00000000
,
01000010
00100100
10000001
00100010
01000100
00000000
10011001
00000000
,
10001000
01000010
00100100
01000010
00100100
00000000
00011000
00100100
,
01000010
00100100
01000010
00000000
00100010
00000000
10000001
00000000
,
00100010
01000100
00010001
00000000
01000100
00000000
00010001
00000000
,
01000100
00100010
10001000
00100010
01000100
00000000
10010110
00000000
,
01101001
00000000
00000000
00000000
,
00000000
00000000
00000000
00000000
,
00100002
01000000
00100003
00000000
10002000
00100000
10003000
00000000
,
00010002
00100000
00010003
00000000
10000001
00000000
00011000
00000000
,
20001000
00000001
30001000
00000000
00021000
00000010
00031000
00000000
,
20000001
00000010
30000001
00000000
10000001
00000000
00011000
00000000
,
10000001
00100010
10000001
00000000
00022000
00000000
00033000
00000000
,
00100010
01000100
00100010
00000000
01000100
00000000
10011001
00000000
,
02000200
03000300
00100010
10000001
,
00011000
00000000
10000001
00000000
00011000
10000001
00011000
10000001
,
00100010
10000101
10100100
00101100
,
00111000
00000000
00011000
00100100
01000010
10000001
10000001
01000010
,
00100100
00011000
00011000
00100100
01000010
10000001
10000001
00000000
,
M100010M
00000000
10000001
01000010
00100100
00011000
00011000
00100100
,
01000010
10000001
10000001
01000010
00100100
00011000
00011000
00000000
,
010MM100
00000000
00000000
00000000
01000000
00010000
01000000
00000000
,
00100010
00001000
10000010
00000000
00011000
00100000
10000001
00000000
,
00100100
00000001
01000010
00000000
10000001
00100010
10000001
00000000
,
00100010
00000000
01000100
00000000
01000100
01000100
01000100
00000000
,
00110010
00100011
11000100
01001100
,
00100100
01000010
00011000
00000000
01000100
00000000
00011000
00000000
,
01000010
00100100
10000001
00000000
00100100
00000000
10000001
00000000
,
00100010
01000100
00010001
00000000
01000010
00000000
00011000
00000000
,
01000100
00100010
10001000
00100010
01000100
00000000
10011001
00000000
,
00100010
01000100
00010010
00000100
00100010
00000100
10000001
00000010
,
01000100
00100010
01001000
00100000
01000100
00100000
10000001
01000000
,
00100100
01000010
00011000
00000000
01000010
00000000
00011000
00000000
,
01000010
00100100
10000001
00100100
01000010
00000000
10011001
00000000
,
00100100
01000000
00010010
10000001
01000010
10000001
00011000
00000000
,
01000010
00100100
10000001
00011000
00100100
00011000
10000001
00000000
,
00000010
00000100
00000001
10000000
01000000
10000000
00010001
00000000
,
01000100
00100010
10001000
00010001
00100010
00000000
10011001
00000000
;

//--------------- dance-couple - M. Puls ----------------
#NOTES:
     dance-couple:
     M. Puls:
     Hard:
     9:
     0.569962,0.669788,0.231961,0,0.146909,516,486,30,0,0,0,0.566648,0.669788,0.231961,0,0.143043,513,483,30,0,0,0:
00000000
00000000
00000000
00000000
,
00000000
00000000
00000000
00000000
,
00000000
00000000
00000000
00000000
,
00000000
00000000
00000000
00000000
,
10011001
00000000
01000010
00000000
,
10011001
00000000
00100100
00000000
,
10011001
00000000
00100100
00000000
,
01000010
00100100
01000010
10011001
,
01000100
00000000
10000000
00010000
,
01000000
00000000
00001000
00000001
,
00000100
00000000
00100010
01000100
,
00100010
00000000
00100100
10011001
,
00000000
10101010
01010101
01100110
,
00100100
10000000
00100010
01000000
00100010
10000000
00100100
01000000
,
00100010
00000001
01000100
00000010
01000100
00000001
00100010
00000100
,
00011000
10000000
00010001
00100000
00010001
10000000
00011000
00100000
,
00011000
00000001
10001000
00000100
10001000
00000001
00011000
00000000
,
01000010
10000001
01000010
00100100
01000010
10000001
01000010
00100100
,
01000010
10000001
01000010
00100100
01000010
10000001
01000010
00100100
,
10011001
01000010
00010001
10001000
00010001
01000100
00010001
10001000
,
00010001
00100010
01000100
10001000
00010001
00100010
01000100
10001000
,
00000000
00100010
01000100
10001000
00000000
00100100
01000010
10000001
,
01000010
00100100
00011000
00100100
00000000
00100100
01000010
10000001
,
00011000
01000010
00100100
01000010
00000000
01000010
00011000
10000001
,
00011000
01000000
00101100
01000100
00000000
01000010
00011100
10000100
,
01000011
00100010
00011100
01000100
00000000
01000010
00100110
10000100
,
00010010
00000100
11001000
01000010
00000000
01000010
00110100
00100001
,
11001000
01000001
00110100
00100010
00000000
01000010
01101000
00100001
,
10011001
10001000
00010001
01000100
01000100
01000100
00100010
10001000
,
01000100
10001000
00100010
00000000
01000100
00000000
00100010
00000000
,
10011001
00000000
10000001
00000000
00010010
00010001
00100010
01001000
,
10000010
01000000
00100001
00010000
00010010
00000000
10001000
00000000
01000010
00000000
00100001
00000000
00010010
00100000
01000100
10000000
,
10000010
00000000
00010000
00000000
01000001
00000000
00000001
00000000
00100010
00000000
00010100
00000000
00101000
00000100
10000010
00000001
,
00100001
00000000
00011000
00000000
00100100
00000000
10000010
00000000
00100001
00000010
00010100
00001000
00101000
00000000
01000001
00000000
,
10000100
00000000
01000000
00000000
00100100
00000000
00000000
00000000
01000010
00000000
10000001
00000000
00100100
00000000
10000001
01000010
,
00100100
00011000
00011000
00100100
01000010
00000000
10000001
00000000
10000001
01000010
00100100
00011000
00011000
00000000
01000010
00000000
,
00011000
00000000
00100100
01000000
00100010
00000000
00000000
00000000
00100100
00000010
00010100
00000000
01000010
00000000
10000001
00000000
,
01000010
00011000
00100100
00011000
01000010
10000001
01000010
00100100
,
10000001
10011001
01011100
00111010
,
10000001
00000000
00100010
00000100
01000010
00000000
00000000
00000000
00100100
01000000
00100010
00000000
00000000
00000000
00000000
00000000
,
01000010
00000000
00010001
00000000
00100010
00000000
01000100
00000000
10001000
00000000
01000100
00100010
01000100
00000000
00000000
00000000
,
01000010
00000000
00100100
00000000
00011000
00000000
00011000
00000000
00100100
00000000
01000010
00100100
01000010
00000000
00000000
00000000
,
00011000
00100100
01000010
10000001
01000010
00000000
10011001
00000000
,
00010000
00100000
01000000
00000000
00000100
00000010
00000001
00000000
,
01000010
10000001
00100100
01000010
00011000
01000010
00100100
00000000
,
01000100
00100010
10001000
00100000
01000000
10000010
00000100
00000001
,
10000001
00100100
01000010
00011000
01000100
00000000
01100110
00000000
,
10011001
00000000
00000000
00000000
,
00000000
00000000
00000000
00000000
,
00011000
00100100
10000001
00100100
00011000
00100100
01000010
00000000
,
00010001
00100000
10001000
00100000
00010001
00100000
01000100
00000000
,
00010001
00000100
10001000
00000100
00010001
00000100
00100010
00000000
,
00011000
00000000
01000010
00000000
10001000
00000000
01000010
00000000
00010001
10000000
01000010
00000000
00100100
00000000
00000000
00000000
,
10000001
00000000
00100010
00000000
00011000
00000000
00100010
00000000
10000001
00000100
00100010
00000000
01000100
00000000
00000000
00000000
,
10000001
00000000
01000100
00000000
00011000
00000000
01000100
00000000
10000001
00100000
01000100
00000000
00100010
00000000
00000100
00000000
,
10000001
00000000
00100100
00000000
00011000
00000000
00100100
00000000
10000001
00001000
00100100
00000000
00010010
00000000
00100000
00000000
,
10000001
01000010
00100100
00011000
00011000
00000000
00000000
00000000
00100100
00000000
01000010
00000000
10000001
00000000
00000000
00000000
,
10000001
00000000
00100100
01000010
00100100
00000000
00011000
00000000
10000001
00000000
00100010
00000000
01000100
00000000
00000000
00000000
,
10011001
00000000
10000001
00000000
00010010
00010001
00100010
01001000
,
10000010
01000000
00100001
00010000
00010010
00000000
10001000
00000000
01000010
00000000
00100001
00000000
00010010
00100000
01000100
10000000
,
10000010
00000000
00010000
00000000
01000001
00000000
00000001
00000000
00100010
00000000
00010100
00000000
00101000
00000100
10000010
00000001
,
00100001
00000000
00011000
00000000
00100100
00000000
10000010
00000000
00100001
00000010
00010100
00001000
00101000
00000000
10000001
00000000
,
01000100
00000000
00000000
00000000
01000100
00000000
00000000
00000000
00100010
00000000
10000001
00000000
00100100
00000000
10000001
01000010
,
00100100
00011000
00011000
00100100
01000010
00000000
10000001
00000000
10000001
01000010
00100100
00011000
00011000
00000000
01000010
00000000
,
00011000
00000000
00100100
01000000
00100010
00000000
00000000
00000000
00100100
00000010
00010100
00000000
01000010
00000000
10000001
00000000
,
01000010
00011000
00100100
00011000
01000010
10000001
01000010
00100100
,
10000001
10011001
01011100
00111010
,
10000001
00000000
00100010
00000100
01000010
00000000
00000000
00000000
00100100
01000000
00100010
00000000
00000000
00000000
00000000
00000000
,
01000010
00000000
00010001
00000000
00100010
00000000
01000100
00000000
10001000
00000000
01000100
00100010
01000100
00000000
00000000
00000000
,
01000010
00000000
00100100
00000000
00011000
00000000
00011000
00000000
00100100
00000000
01000010
00100100
01000010
00000000
00000000
00000000
,
00011000
00100100
01000010
10000001
01000010
00000000
10011001
00000000
,
00010000
00100000
01000000
00000000
00000100
00000010
00000001
00000000
,
01000010
10000001
00100100
01000010
00011000
01000010
00100100
00000000
,
01000100
00100010
10001000
00100000
01000000
10000010
00000100
00000001
,
10000001
00100100
01000010
00011000
01000100
00000000
01100110
00000000
,
10011001
00000000
00100100
01000010
00011000
00000000
01000010
00000000
00011000
01000010
00100100
00000000
10000001
00000000
01000010
00000000
,
00100100
00000000
00011000
00100100
01000010
00000000
10000001
00000000
01000010
00100100
00011000
00000000
01000010
00000000
00100100
00000000
,
10000001
00000000
01000010
00100100
10000001
00000000
01000100
00000000
00011000
01000000
00100100
00000000
10000001
00000000
00100100
00000000
,
01000010
00000000
00011000
00100100
01000010
00000000
10000001
00000000
01000010
00000000
00000000
00000000
10011001
00000000
00000000
00000000
;

//--------------- lights-cabinet - ----------------
#NOTES:
     lights-cabinet:
     :
     Easy:
     1:
     0.593158,0.761123,0.239693,0.030928,0.027062,537,488,31,4,0,9,0.593158,0.761123,0.239693,0.030928,0.027062,537,488,31,4,0,9:
00000000
00000000
00000000
00000000
,
10010000
00000000
00000000
00000000
,
10010000
00000000
00000000
00000000
,
10000000
00010000
01000000
11110000
,
10010000
00000000
01100000
00000000
,
10010000
00000000
01100000
00000000
,
10010000
00000000
10100000
00000000
,
01010000
00100000
01000000
10010000
,
01000000
00000000
00000000
00010000
10000000
00000000
00010000
00000000
,
01000000
00000000
00000000
10000000
00010000
00000000
10000000
00000000
,
01000000
00000000
00000000
00010000
00100000
00000000
01000000
00000000
,
00100000
00000000
00000000
10000000
00010000
00000000
10010000
00000000
,
11110000
11110000
11110000
11110000
,
00100000
10000000
00100000
01000000
00100000
10000000
00100000
01000000
,
00100000
10000000
00100000
01000000
00100000
10000000
00100000
01000000
,
00010000
10000000
00010000
00100000
00010000
10000000
00010000
00100000
,
00010000
10000000
00010000
00100000
00010000
10000000
00010000
00100000
,
01000000
10000000
01000000
00100000
01000000
10000000
01000000
00100000
,
01000000
10000000
01000000
00100000
01000000
10000000
01000000
00100000
,
00010000
01000000
00010000
10000000
00010000
01000000
00010000
10000000
,
00100000
10000000
00100000
10000000
00100000
00010000
00100000
10000000
,
00100000
01000000
00010000
00100000
00000000
00100000
01000000
10000000
,
00100000
01000000
00010000
00100000
00000000
00100000
01000000
10000000
,
00010000
01000000
00100000
01000000
00000000
01000000
00010000
10000000
,
00010000
01000000
00100000
01000000
00000000
01000000
00010000
10000000
,
01000000
00100000
00010000
01000000
00000000
01000000
00100000
10000000
,
01000000
00100000
00010000
01000000
00000000
01000000
00100000
10000000
,
00010000
10000000
00100000
01000000
00000000
01000000
00010000
10000000
,
00100000
10000000
00010000
01000000
00000000
01000000
00100000
10000000
,
01000000
10000000
00100000
00000000
01000000
00000000
00100000
00000000
,
10010000
00000000
10000000
00000000
01000000
00010000
01000000
10000000
,
01000000
00010000
01000000
10000000
01000000
00100000
00010000
00100000
,
01000000
10000000
01000000
00000000
00100000
00010000
00100000
10000000
,
00100000
00010000
00100000
10000000
00100000
00010000
00100000
01000000
,
10000000
01000000
00100000
00000000
01000000
10000000
00100000
10000000
,
01000000
10000000
00100000
10000000
01000000
10000000
00100000
01000000
,
00010000
00100000
01000000
00000000
00100000
00010000
01000000
10000000
,
01000000
00010000
00100000
00010000
01000000
10000000
01000000
00100000
,
10000000
10010000
01010000
00110000
,
10000000
00100000
01000000
00000000
00100000
01000000
00010000
00000000
,
01000000
00010000
00100000
01000000
10000000
01000000
00100000
00000000
,
01000000
00100000
00010000
00000000
00100000
00010000
01000000
00000000
,
00010000
00100000
01000000
10000000
01000000
00000000
11110000
00000000
,
00010000
00100000
01000000
00000000
00100000
01000000
10000000
00000000
,
01000000
10000000
00100000
01000000
00010000
01000000
00100000
00000000
,
01000000
00100000
10000000
00000000
00100000
10000000
01000000
00000000
,
10000000
00100000
01000000
00010000
01000000
00000000
11110000
00000000
,
22220000
33330000
00000000
00000000
,
00000000
00000000
00000000
00000000
,
00010000
00100000
10000000
00100000
00010000
00100000
01000000
00000000
,
00010000
00100000
10000000
00100000
00010000
00100000
01000000
00000000
,
00010000
01000000
10000000
01000000
00010000
01000000
00100000
00000000
,
00010000
01000000
10000000
01000000
00010000
01000100
00100000
00000000
,
10000000
01000000
00010000
01000000
10000000
01000000
00100000
00000000
,
10000000
01000000
00010000
01000000
10000000
01000000
00100000
00000000
,
10000000
00100000
00010000
00100000
10000000
00100000
01000000
00000000
,
10000000
00100000
00010000
00100000
10000000
00100000
01000000
00000000
,
10000000
00100000
01000000
00010000
10000000
00100000
01000000
00000000
,
10010000
00000000
00010000
00000000
00100000
10000000
00100000
00010000
,
00100000
10000000
00100000
00010000
00100000
01000000
10000000
01000000
,
00100000
00010000
00100000
00000000
01000000
10000000
01000000
00010000
,
01000000
10000000
01000000
00010000
01000000
10000000
01000000
00100000
,
00010000
00100000
01000000
00000000
00100000
00010000
01000000
00010000
,
00100000
00010000
01000000
00010000
00100000
00010000
01000000
00100000
,
10000000
01000000
00100000
00000000
01000000
10000000
00100000
00010000
,
00100000
10000000
01000000
10000000
00100000
00010000
00100000
01000000
,
00010000
10010000
10100000
11000000
,
00010000
01000000
00100000
00000000
01000000
00100000
10000000
00000000
,
00100000
10000000
01000000
00100000
00010000
00100000
01000000
00000000
,
00100000
01000000
10000000
00000000
01000000
10000000
00100000
00000000
,
10000000
01000000
00100000
00010000
00100000
00000000
10010000
00000000
,
10000000
01000000
00100000
00000000
01000000
00100000
00010000
00000000
,
00100000
00010000
01000000
00100000
10000000
00100000
01000000
00000000
,
00100000
01000000
00010000
00000000
01000000
00010000
00100000
00000000
,
00010000
01000000
00100000
10000000
00100000
00000000
10010000
00000000
,
10000000
00000000
00100000
01000000
00010000
00000000
01000000
00000000
00010000
01000000
00100000
00000000
10000000
00000000
01000000
00000000
,
00100000
00000000
00010000
00100000
01000000
00000000
10000000
00000000
01000000
00100000
00010000
00000000
01000000
00000000
00100000
00000000
,
10000000
00000000
00100000
01000000
00010000
00000000
01000000
00000000
00010000
01000000
00100000
00000000
10000000
00000000
00100000
00000000
,
01000000
00000000
00010000
00100000
01000000
00000000
10000000
00000000
01000000
00000000
00000000
00000000
11110000
00000000
00000000
00000000
;
