#TITLE:Happiness Comes;
#SUBTITLE:;
#ARTIST:Reflection Theory;
#TITLETRANSLIT:;
#SUBTITLETRANSLIT:;
#ARTISTTRANSLIT:;
#GENRE:;
#CREDIT:;
#MUSIC:Happiness Comes.ogg;
#BANNER:Happiness Comes.png;
#BACKGROUND:Happiness Comes-bg.png;
#CDTITLE:;
#SAMPLESTART:20.932;
#SAMPLELENGTH:11.880;
#SELECTABLE:YES;
#OFFSET:-0.286;
#BPMS:0.000=132.100
,40.000=66.050
,44.000=132.100
,120.000=66.050
,122.000=132.100
,178.000=66.000
,182.000=132.000
;
#STOPS:;
#BGCHANGES:;
#FGCHANGES:;

//--------------- dance-single - M. Puls ----------------
#NOTES:
     dance-single:
     M. Puls:
     Beginner:
     1:
     0.072673,0.128186,0.040374,0,0,63,58,5,0,0,0,0.072673,0.128186,0.040374,0,0,63,58,5,0,0,0:
0000
0000
0000
0000
,
0000
0000
0000
0000
,
0000
0000
0000
0000
,
0000
0000
0000
0000
,
0001
0000
0000
0000
,
1000
0000
0000
0000
,
0100
0000
0000
0000
,
1000
0000
0000
0000
,
0001
0000
0000
0000
,
0010
0000
0000
0000
,
0001
0000
0000
0000
,
1000
0000
0000
0000
,
0010
0000
0000
0000
,
0100
0000
0000
0000
,
0010
0000
0000
0000
,
1000
0000
0000
0000
,
0100
0000
0000
0000
,
0010
0000
0000
0000
,
0001
0000
0000
0000
,
0100
0000
0000
0000
,
0100
0000
0000
0000
,
0010
0000
0000
0000
,
0000
0000
0000
0000
,
1001
0000
0000
0000
,
0000
0000
0000
0000
,
1001
0000
0000
0000
,
0000
0000
0000
0000
,
0100
0000
0000
0000
,
0010
0000
0000
0000
,
0100
0000
0000
0000
,
0010
0000
1000
0000
,
0000
0000
0001
0000
,
0000
0000
0001
0000
,
0000
0000
0001
0000
,
0000
0000
1001
0000
,
0000
0000
0000
0000
,
0000
0000
0100
0000
,
0100
0000
0100
0000
,
0000
0000
1001
0000
,
0000
0000
1000
0000
,
0000
0000
0001
0000
,
0000
0000
0100
0000
,
0000
0000
0001
0000
,
0000
0000
0000
0000
,
0000
0000
1001
0000
,
0000
0000
1000
0000
,
0000
0000
1000
0000
,
0000
0000
0100
0000
,
0000
0000
0100
0000
,
0000
0000
1000
0000
,
0000
0000
0001
0000
,
0000
0000
0001
0000
,
0000
0000
0100
0000
,
0100
0000
0010
0000
,
0000
0000
0000
0000
,
1000
0000
0001
0000
,
0000
0000
0001
0000
,
0000
0000
1000
0000
,
0000
0000
1000
0000
,
0000
0000
0010
0000
,
0000
0000
0100
0000
,
0000
0000
0001
0000
,
0000
0000
1000
0000
,
0000
0000
0001
0000
;

//--------------- dance-single - R. McKanna ----------------
#NOTES:
     dance-single:
     R. McKanna:
     Easy:
     5:
     0.194947,0.337221,0.056523,0.104972,0,169,162,7,13,0,0,0.194947,0.337221,0.056523,0.104972,0,169,162,7,13,0,0:
0000
0000
0000
0000
,
0000
0000
0000
0000
,
0000
0000
0000
0000
,
0000
0000
0000
0000
,
0100
0000
0000
0000
,
0010
0000
0000
0000
,
0100
0000
0000
0000
,
0001
0000
0000
1000
,
2000
0000
3000
0001
,
0002
0000
0003
0100
,
0200
0000
0000
0301
,
0000
0100
0000
0010
,
0000
1000
0000
1000
,
0001
1000
0000
0010
,
0000
0100
0000
0001
,
1000
0001
0000
0100
,
0000
0010
0000
1000
,
0100
1000
0000
0010
,
0000
0100
0000
0001
,
1000
0001
0000
0010
,
0000
0001
0000
0010
,
0001
0100
0000
0010
,
0000
0100
0000
0010
,
2000
0100
0000
3001
,
0002
0100
0000
1003
,
1000
0100
0000
0100
,
0000
0100
0000
0001
,
0002
0000
0003
0010
,
0020
0000
0030
0100
,
0200
0000
0000
0300
,
1001
0000
0000
0100
0001
0000
0000
0000
,
0001
0000
0001
0000
,
0010
1000
0001
0000
,
0100
1000
0001
0000
,
0010
1000
1001
0000
,
0100
0000
0010
1000
,
0010
0001
0020
0000
,
0100
0000
0100
0000
,
0130
0000
1000
0000
,
1000
0000
1000
0000
,
0100
0001
1000
0000
,
0010
1000
0100
0001
,
0100
1000
0200
0000
,
0010
0000
0010
0000
,
0310
0000
0000
0000
0001
0010
0001
0010
,
0100
1000
0100
1000
0001
0000
0010
0000
,
0001
0010
0100
0010
,
0100
0010
0100
1000
,
0100
1000
0010
0100
,
0010
0100
1001
0000
,
0100
0000
1001
1000
,
0100
1000
1001
0000
,
0010
0000
1001
0001
,
0100
0001
1000
0100
,
1000
0100
0010
0100
,
0010
0100
1000
0000
,
0010
0100
0001
0000
,
0010
0100
1000
0000
,
0010
0100
0001
0000
,
0010
0100
1000
0000
,
0001
0000
1001
1000
,
0100
0010
0020
0000
,
0000
0130
0200
0000
,
0000
0310
0020
0000
,
0000
0030
0000
0000
;

//--------------- dance-single - R. McKanna ----------------
#NOTES:
     dance-single:
     R. McKanna:
     Medium:
     6:
     0.298765,0.358922,0.113046,0.129196,0.008075,259,245,14,16,0,0,0.298765,0.358922,0.113046,0.129196,0.008075,259,245,14,16,0,0:
0000
0000
0000
0000
,
0000
0000
0000
0000
,
0000
0000
0000
0000
,
0000
0000
0000
0000
,
1000
0100
0100
1000
,
0010
0100
0010
0000
0100
0000
0001
0000
,
0001
0100
0100
0001
,
0010
0100
0010
0000
0100
0000
1000
0000
,
0002
1000
0100
1003
,
0002
0010
0100
0013
,
0002
0000
0000
0000
,
1003
0100
0010
0100
,
0010
0001
0100
0001
1000
0000
0100
0000
,
0010
0100
1000
0010
,
0100
0001
0010
0001
1000
0000
0100
0000
,
1000
0110
0100
0110
,
0001
0110
0100
0110
,
2000
0010
0100
3010
,
0002
0013
2000
3100
,
0001
0010
0100
0010
,
0100
1000
0010
1000
0001
0000
0010
0000
,
0100
0010
0001
0100
,
0010
1000
0100
1000
0001
0000
0010
0000
,
0200
0000
0310
0100
,
0020
0000
0130
1000
,
0001
0010
0100
0010
,
0001
0010
0100
1000
,
2000
0001
0010
3001
,
2000
0010
0100
3010
,
2000
0100
0001
3100
,
1001
0000
0000
1001
1000
0000
1000
0000
,
0100
0000
0100
0000
0010
0000
0010
0001
,
0000
0001
0100
0000
0010
0000
0010
1000
,
0000
1000
0100
0000
0010
0000
0010
0001
,
0000
0001
0100
0000
1001
0000
0000
0000
,
0010
0100
0001
0010
,
0001
0100
0002
0100
,
2000
0000
0000
3003
,
1000
0100
0010
0000
0001
0000
0001
0000
,
0010
0000
0010
0000
0100
0000
0100
1000
,
0000
1000
0010
0000
0100
0000
0100
0001
,
0000
0001
0010
0000
0100
0000
1000
0000
,
0010
1000
0002
0000
,
0010
0000
0100
0000
,
0013
0000
0000
0000
0000
0000
0000
0000
0001
1000
0100
0000
0010
0000
0100
0000
,
1000
0001
0100
0000
0010
0000
0100
0000
0001
0000
0000
0000
0000
0000
0001
0000
,
0000
0001
0000
0000
1000
0000
0000
1000
,
0000
1000
0000
0000
0100
0000
0000
0100
,
0000
0100
0000
0000
1000
0000
0000
1000
,
0000
1000
0000
0000
0001
0000
0000
0001
,
0000
0001
0000
0000
0100
0000
0000
0100
,
0000
0100
0000
0000
0001
0000
0000
0001
,
0000
0001
0000
0000
0010
0000
0000
0010
,
0000
0010
0000
0000
0001
0000
0101
0000
,
0001
0011
0001
1001
,
0001
0010
0100
0000
1000
0000
1000
0100
,
0000
0100
0010
0000
1000
0000
1000
0010
,
0000
0010
0100
0000
1000
0000
1000
0100
,
0000
0100
0010
0000
0001
0000
0100
0000
,
0010
1010
1000
1100
,
1000
0100
0010
0000
0001
0000
0101
0000
,
0001
0010
0100
0000
2000
0000
0010
0000
,
0100
0010
3002
0010
,
0100
0003
1001
0000
;

//--------------- dance-single - M. Emirzian ----------------
#NOTES:
     dance-single:
     M. Emirzian:
     Hard:
     12:
     0.520244,0.603183,0.161495,0.145345,0.24628,451,431,20,18,0,0,0.520244,0.603183,0.161495,0.145345,0.24628,451,431,20,18,0,0:
0000
0000
0000
0000
,
0000
0000
0000
0000
,
0000
0000
0000
0000
,
0000
0000
0000
0000
,
1000
0000
0010
0100
0001
0000
1000
0000
0000
0000
0210
0000
0000
0000
0301
0000
,
0010
0000
0100
1000
0000
0001
0000
1000
0000
0000
0201
0000
0000
0000
0310
0000
,
1000
0000
0100
0010
0001
0000
0100
0000
0000
0000
2001
0000
0000
0000
3010
0000
,
1000
0000
0100
0010
0000
0001
0000
0010
0000
0000
0100
0000
1000
0000
0001
0000
,
1100
0000
0010
0100
1100
0000
0010
0100
,
0101
0000
0010
1000
0100
1100
1001
0000
,
0102
0000
1000
0000
2000
0000
0000
3003
,
1000
0000
0100
0010
0100
0000
1000
0000
0001
0000
0200
0000
0000
0000
0310
0000
,
1000
0000
0100
0010
0000
0100
0000
1000
0000
0000
0001
0000
0100
0000
0010
0000
,
0100
0001
0010
0100
1000
0002
0000
0013
,
0100
0000
0000
0000
1100
0000
0000
0000
1000
0010
0000
0100
0001
0000
0010
0000
,
1100
0000
1000
0010
1000
0200
0000
0310
,
0001
0000
0100
0010
0000
1000
0000
0010
0000
0000
0100
0000
0001
0000
0010
0000
,
0100
1000
0010
0001
0010
2000
0000
3100
,
0010
0000
0001
0000
0100
0000
0010
0000
1000
0100
0000
0010
0001
0000
0100
0000
,
1010
0000
1000
0100
1000
0020
0000
0130
,
0001
0000
0010
0100
0000
1000
0000
0010
0000
0000
0100
0000
0001
0000
0010
0000
,
0001
0100
0010
1000
0100
0020
0000
0031
,
1000
0000
0010
0000
0100
0000
0001
0000
0010
0100
0000
1000
0001
0000
0100
0000
,
1010
0000
0100
0010
1000
0200
0000
0310
,
0001
0000
1000
0010
0000
1000
0000
0001
0000
0000
0010
0000
0100
0000
1000
0000
,
0100
0010
0001
0100
0010
2000
0000
3001
,
0010
0000
0100
1000
0000
0001
0000
0100
0000
0000
0010
0000
1000
0000
0100
0000
,
0011
0000
0100
0010
1001
0000
0010
0100
,
1100
0000
0001
0100
0010
1000
0100
0000
,
0010
0001
0100
1000
0100
0001
0010
0100
,
1000
0000
0010
0100
0000
0001
0000
0010
0000
0100
1000
0000
0001
0100
0010
1000
0100
0000
0000
0000
0010
0000
0000
0000
0001
0000
0000
0000
0100
0000
0000
0000
,
0010
1000
0100
0001
0100
1000
0010
0100
,
0001
0000
0010
0000
0100
0000
1000
0000
0010
0000
0000
0100
0000
0000
0001
0000
,
0010
0000
0000
0100
0000
0000
1000
0000
0001
0000
0000
0100
0000
0000
0010
0000
,
1000
0000
0100
0000
0010
0000
0001
0010
0001
0000
0100
0000
0010
0000
1000
0000
,
0001
0010
0001
0100
0010
0001
0010
1000
,
0100
0000
0010
0000
0001
0000
1000
0000
0001
0000
0000
0100
0000
0000
0010
0000
,
1000
0000
0000
0100
0000
0000
0010
0000
0001
0000
0000
0100
0000
0000
0001
0000
,
0010
0000
0100
1000
0100
1000
0001
0000
0100
0000
0010
0000
1000
0000
0100
0000
,
0001
0100
1000
0010
0100
0001
0010
0100
,
1000
0000
0010
0000
0100
0000
0001
0000
1000
0000
0000
0010
0000
0000
0100
0000
,
0001
0000
0000
0010
0000
0000
0100
0000
1000
0000
0000
0010
0000
0000
0100
0000
,
0001
0000
1000
0000
0100
0000
0010
0001
0010
0000
0001
0000
0100
0000
0010
0000
,
0100
0001
1000
0100
0010
0001
1000
0010
,
1000
0000
0100
0000
0010
0000
0001
0000
0100
0000
0010
0000
1000
0100
1000
0000
,
0001
0000
1000
0000
0100
1000
0010
0100
0001
0000
0010
0000
0100
0000
1000
0000
,
0010
0100
0001
0000
0100
0010
1000
0010
,
0100
0001
1000
0000
0100
1000
0100
1000
,
0001
0010
0100
0000
0010
0001
0100
1000
,
0100
0001
0010
0100
0010
0000
0001
0100
,
1000
0000
1000
0100
0010
0000
0010
1000
,
0100
0010
0001
0000
0011
0000
0100
1000
,
0010
0000
0010
0100
0001
0000
0001
0010
,
1000
0000
0010
0000
0001
0000
1000
0000
0010
0000
0100
0001
0100
0000
0020
0000
,
0000
1030
0100
0010
0001
0100
0010
1000
,
0100
0000
0010
0000
0001
0000
0100
0000
0010
0000
1000
0010
1000
0000
0200
0000
,
0000
0000
0310
0000
0001
0000
0100
0000
0010
0000
1000
0100
0000
0010
0000
0001
,
0000
0100
0010
1000
0100
0010
0001
1000
,
0010
2000
0000
3001
0100
0010
1000
0001
,
0100
0010
1000
0100
0010
0001
0010
0100
,
1000
0010
1000
0100
0001
0100
1000
0010
,
0100
0001
1000
0000
1100
0000
0110
0000
2002
0000
0000
0000
0000
0000
0000
0000
,
0000
3003
0000
0000
;

//--------------- dance-double - M. Emirzian ----------------
#NOTES:
     dance-double:
     M. Emirzian:
     Easy:
     4:
     0.242242,0.273128,0.15342,0.129196,0,210,191,19,16,0,0,0.242242,0.273128,0.15342,0.129196,0,210,191,19,16,0,0:
00000000
00000000
00000000
00000000
,
20000000
30000000
00020000
00030000
,
01000000
02000000
03001000
00000000
,
00020000
00030000
00010100
00000000
,
00001000
00002000
00003010
00000000
,
00000200
00000300
00001001
00000000
,
00000010
00000020
00000130
00000000
,
00020000
00030000
00101000
00000000
,
01000000
02000000
13000000
00000000
,
00200000
00300000
01010000
00000000
,
00100000
00000000
00001000
00000000
00010000
00010000
00010000
00000000
,
00010010
00001000
00000100
00000001
,
00000010
00000001
00000100
00000010
,
00002000
00000000
00003000
00000200
00000000
00000300
00020000
00000000
,
00030000
00001000
00010000
00010000
,
00011000
00000000
00100000
00000000
,
10000000
10000000
00010000
01000000
,
10100000
00000000
10000000
01000000
,
00010000
00001000
00000010
00000001
,
00000100
00000000
00001010
00001000
,
00000100
00000010
00000001
00000100
,
00000010
00000010
00001000
00000100
,
00011000
00000000
00010000
00001000
,
00010000
00010000
01000000
10000000
,
00100000
10000000
01000000
00100000
,
00020000
00000000
00030000
02000000
00000000
03000000
00002000
00000000
,
00013000
00001000
00010100
00000000
,
00001000
00000000
00000010
00000000
,
00000100
00001000
00000000
00000000
,
00000010
00000000
00000100
00000000
,
00001000
00010000
00000000
00000000
00010000
00000000
00100000
00000000
,
01000000
01000000
00010000
10000000
,
00010000
00000000
01000000
00010000
,
00100000
00100000
00001000
00010000
,
00000010
00000010
00000100
00000000
,
00001001
00000000
00000010
00000010
,
00000100
00000000
00001001
00000100
,
00000000
00001010
00001000
00000000
,
00000100
00010000
00001000
01000000
,
00010000
00010000
10000000
01000000
,
10000000
00000000
00100000
01000000
,
00010000
00010000
00100000
00001000
,
00010000
00010000
00000010
00000000
,
00001100
00000000
00000010
00000011
,
00000000
00001000
00001100
00010000
,
00001000
00001000
00001000
00000000
00001000
00000000
01000000
00000000
,
00010000
00000000
10000000
01000000
,
00100000
00010000
01000000
00000000
,
01000000
00000000
01000000
00000000
,
00100000
10000000
01000000
00000000
,
00100000
00001000
00010000
00100000
,
01000000
00001000
00010000
00000000
,
00000100
00000000
00001000
00001000
,
00000010
00000000
00000100
00000100
,
00000001
00001000
00000000
00000100
,
00000100
00000010
00000100
00010000
,
00001000
00101000
00000000
01000000
,
01000000
00100000
00000000
10000000
,
00000000
00010000
00000000
00100000
,
00001000
00010000
00000010
00000000
,
00001000
00000000
00000001
00000100
,
00000110
00010000
00101000
00000000
;

//--------------- dance-double - M. Emirzian ----------------
#NOTES:
     dance-double:
     M. Emirzian:
     Medium:
     6:
     0.388741,0.405352,0.218018,0.040374,0.012112,337,310,27,5,0,0,0.388741,0.405352,0.218018,0.040374,0.012112,337,310,27,5,0,0:
00000000
00000000
00000000
00000000
,
00100000
01000000
00100000
00000000
,
00010000
01000000
00001000
00000000
,
00010000
00100000
00010000
00001000
,
00011000
00010010
00000100
00001000
,
00000001
00000100
00000010
00001000
00000000
00000220
00000000
00000330
,
00000010
00000100
00000010
00001000
,
00010000
00000100
00010000
00001000
00000000
00202000
00000000
00303000
,
00010000
00000000
01000000
00000000
00100000
00000000
10000000
01000000
,
00010000
01000000
10000000
00100000
,
01000000
00000000
00000000
00000000
00010000
00000000
00000000
00000000
00100000
00000000
00001000
00000000
00010000
00000010
00010000
00000000
,
00000100
00000000
00000010
00000000
00000011
00000000
00000100
00001000
,
00000001
00001100
00001010
00000100
,
00000001
00000100
00000010
00000000
00001000
00000000
00000100
00000000
,
00010000
00001000
00011000
00010000
,
01000000
10000000
00100000
00000000
01000000
00000000
01010000
00000000
,
00110000
00000000
01000000
00000000
10000000
00000000
00100000
01000000
,
00010000
00000000
00100000
00001000
00010000
00000000
00010000
00000100
,
00001000
00000000
00000010
00000000
00000100
00000000
00000001
00000100
,
00001000
00000100
00000001
00000010
,
00000100
00000000
00010000
00001000
01000000
00000000
00100000
00000000
,
01000000
00010000
01000000
00000000
00100000
00000000
10000000
00000000
,
01000000
00100000
01000000
00000000
10000000
00000000
00010000
00000000
,
00110000
01010000
00100000
10000000
,
01000000
00000000
00100000
00000000
00001000
00010000
00000010
00000000
,
00010000
00000100
00001000
00000000
00000010
00000000
00000100
00000000
,
00000001
00000000
00000010
00000000
00000100
00001000
00000001
00000100
,
00000010
00000100
00000001
00000100
,
00001000
00010000
00100000
10000000
01000000
00000000
00100000
00000000
,
00101000
00110000
01000000
10000000
,
00100000
00000000
01000000
00010000
01000000
00000000
00100000
00000000
10000000
00000000
00000000
00000000
01000000
00000000
00000000
00000000
,
00010000
00000000
01000000
10000000
00100000
00000000
01000000
00010000
,
00100000
00000000
00001000
00010000
01000000
00010000
00001000
00000000
,
00010100
00000000
00001100
00000000
00000010
00000001
00000100
00000000
,
00000010
00001010
00000100
00000000
,
00000001
00000000
00000010
00000100
,
00001000
00000010
00000100
00000001
00000010
00000000
00000100
00010000
,
00001000
00000000
01000000
00010000
00000000
00100000
01000000
10000000
,
00100000
01000000
10010000
00100000
,
01000000
00000000
10000000
00100000
01000000
00000000
00001000
00010000
,
00100000
00000000
01000000
00001000
00010000
00001000
00000010
00000000
,
00000110
00000000
00000011
00000000
00000100
00000010
00001000
00000000
,
00000100
00000000
00001001
00000000
00000010
00000100
00001000
00000000
,
00000010
00000100
00000001
00000000
00000100
00001000
00010000
01000000
,
10000000
00000000
00010000
00000000
01000000
00000000
00000000
00000000
00100000
00000000
00000000
00000000
10000000
01000000
00100000
00000000
,
00010000
01000000
00001000
00010000
00001000
00000010
00000100
00000000
,
00001000
00000000
00000001
00000100
00000010
00000000
00001000
00000100
,
00000010
00000000
00000001
00000100
00001000
00010000
00001000
00000000
,
00100000
00010000
01000000
00000000
10100000
00000000
11000000
00000000
,
00100000
00010000
10000000
00000000
00100000
00010000
00001000
00000000
,
01000000
00010000
00100000
00000000
01000000
00000000
10000000
00000000
,
00100000
00000000
01010000
00000000
00100000
00000000
00001000
00010000
,
00001000
00000000
00010000
00000100
00001000
00000000
00010010
00000000
,
00001010
00000100
00000001
00000010
,
00000100
00001000
00000010
00000000
00000100
00000000
00000001
00000100
,
00001000
00000000
00010000
00001000
00100000
01000000
10000000
00100000
,
01000000
00000000
00010000
00000000
10000000
01000000
00100000
00000000
,
01000000
10000000
00100000
00000000
01000000
00000000
01000000
00000000
,
00001000
00001000
00010000
00010000
,
00001000
00000000
00000010
00000000
00000001
00000100
00000010
00000000
,
00000000
00000000
00000100
00000000
00000001
00000100
00000010
00000000
,
00000000
00001000
00000100
00010100
,
00000000
00020000
00001000
00031000
;

//--------------- dance-double - M. Emirzian ----------------
#NOTES:
     dance-double:
     M. Emirzian:
     Hard:
     8:
     0.489099,0.509718,0.096897,0.16957,0.09286,424,412,12,21,0,0,0.489099,0.509718,0.096897,0.16957,0.09286,424,412,12,21,0,0:
00000000
00000000
00000000
00000000
,
00000000
00000000
00000000
00000000
,
00000000
00000000
00000000
00000000
,
00000000
00000000
00000000
00000000
,
00010000
00001000
00100000
00010000
10000000
02000000
00000000
03100000
,
01000000
00100000
00010000
01000000
00100000
20000000
00000000
30100000
,
01000000
00100000
10000000
01000000
00010000
00002000
00000000
00003100
,
00001000
00000100
00000001
00001000
00000010
00000001
00000010
00001000
,
00000100
00000000
00020000
00001000
00031000
00000000
02000000
00010000
,
03010000
00000000
20000000
01000000
31000000
00100000
00001000
00011000
,
00010000
00000000
00001000
00000000
00000010
00000000
00000001
00000100
00000010
00000000
00001000
00000000
00000100
00010000
00001000
00000000
,
00101000
00000000
00010000
01000000
00100000
10000000
01000000
00100000
,
01000000
10000000
00100000
01000000
10000000
02000000
00000000
03010000
,
10000000
01000000
00010000
00001000
00000010
00000002
00000000
00001003
,
00000010
00000000
00000000
00000000
00000101
00000000
00000000
00000000
00001000
00000100
00000000
00000010
00000001
00000000
00000100
00000000
,
00001010
00000000
00000001
00000100
00000010
00020000
00000000
00031000
,
00000010
00001000
00010000
00100000
10000000
02000000
00000000
03100000
,
00001000
00010000
01000000
10000000
00100000
01000000
00100000
10000000
,
01000000
00000000
00000000
00000000
00210000
00000000
00000000
00000000
00310000
01000000
00000000
00100000
10000000
00000000
00010000
00000000
,
11000000
00000000
00100000
00010000
10000000
00100000
00010000
00001000
,
00000100
00001000
00000001
00000010
00001000
00000020
00000000
00000031
,
00000010
00001000
00000100
00001000
00000010
00000200
00000000
00000301
,
00000100
00000000
00000010
00000000
00010000
00000000
00001000
00000000
00100000
01000000
00000000
10000000
00100000
00000000
01000000
00000000
,
01010000
00010000
00100000
10000000
00100000
00020000
00000000
01030000
,
00001000
00010000
00000100
00000010
00000001
00002000
00000000
00003010
,
00001000
00000100
00000001
00000100
00001000
00000010
00000100
00000000
,
00001000
00001000
00001000
00000000
00010000
00010000
00010000
00000100
,
00011000
00000000
00010000
00100000
10000000
00020000
00000000
01030000
,
00100000
00010000
00100000
10000000
01000000
00020000
00000000
01030000
,
10000000
00100000
10000000
01000000
00010000
00002000
00000000
00013000
,
00000100
00000000
00001000
00000000
00000001
00000100
00000010
00000000
00001001
00000000
00000000
00000000
00000001
00000000
00000100
00000000
,
00000010
00001000
00000100
00000001
00000100
00001000
00000010
00000100
,
00001000
00000000
00000000
00001000
00000000
00000000
00010000
00000000
00100000
00000000
00000000
00100000
00000000
00000000
10000000
00000000
,
01000000
00000000
00000000
01000000
00000000
00000000
00100000
00000000
00010000
00000000
01000000
00000000
10000000
00000000
00010000
00000000
,
00100000
01000000
00001000
00010000
01000000
00000000
00010000
00001000
,
00000010
00001000
00010000
00000100
00001000
00000010
00000001
00001000
,
00000100
00000000
00000001
00000000
00000010
00000000
00000001
00000000
00000100
00000000
00000000
00000100
00000000
00000000
00001000
00000000
,
00010000
00000000
00000000
00010000
00000000
00000000
00100000
00000000
10000000
00000000
00000000
10000000
00000000
00000000
01000000
00000000
,
01000000
01000000
00100000
00000000
00001000
01000000
00010000
00100000
,
00001000
00000000
00010000
00000000
01000000
00000000
00010000
00000000
00001000
00000000
00000000
00001000
00000000
00000000
00000100
00000000
,
00000001
00000000
00000000
00000001
00000000
00000000
00000010
00000000
00000100
00000000
00000000
00000100
00000000
00000000
00001000
00000000
,
00000010
00010000
00001000
01000000
00100000
01000000
00010000
10000000
,
01000000
00000000
00010000
00000000
01000000
00000000
10000000
00000000
10010000
00000000
00000000
10000000
00000000
00000000
00100000
00000000
,
00010000
00000000
00000000
00010000
00000000
00000000
00001000
00000000
00000010
00000000
00000000
00000010
00000000
00000000
00000001
00000000
,
00000100
00000000
00000010
00000000
00001000
00000000
00000000
00000000
00000001
00000000
00000100
00000000
00001000
00010000
00100000
00000000
,
10000000
00000000
01000000
00000000
00100000
00010000
00100000
00000000
10010000
00000000
00000000
00000000
01100000
00000000
00000000
00000000
,
10000000
00100000
01000000
00001000
00010000
00000000
00010000
00000100
,
00001000
00000001
00000010
00000000
00000001
00000000
00001000
00000000
,
00000100
00000000
00000010
00000001
00000100
00000000
00000010
00010000
,
00001000
00000000
10000000
00100000
01000000
00010000
10000000
01000000
,
00100000
00010000
01000000
00000000
00100000
00000000
01000000
00001000
,
00010000
00000000
00000010
00010000
00001000
00000000
01000000
00001000
,
00010000
00001000
00000100
00001000
00000001
00000010
00001000
00000100
,
00001000
00000001
00001000
00000010
00000100
00001000
00010000
01000000
,
10000000
00200000
00000000
10300000
01000000
00100000
00010000
10000000
,
00100000
01000000
00001000
00010000
00000010
00000000
00000100
00000010
,
00001000
00000000
00000100
00000000
00000010
00000001
00000100
00000010
,
00001000
00000000
00000100
00000010
00000001
00001000
00000010
00000100
,
00000010
00001000
00000100
00000000
00010000
00001000
01000000
00010000
,
00100000
00001000
00100000
00010000
10000000
01000000
00100000
00010000
,
01000000
10000000
01000000
00100000
00010000
00001000
00010000
00000100
,
00001000
00000010
00001000
00000100
00000010
00000000
00000001
00000000
,
00000100
00000020
00000000
00001030
00000200
00000000
00000000
00000000
,
00000000
00000300
00000000
00000000
00000000
00000000
00000000
00000000
;

//--------------- dance-double - M. Emirzian ----------------
#NOTES:
     dance-double:
     M. Emirzian:
     Challenge:
     9:
     0.587149,0.857941,0.193794,0.161495,0.32299,509,485,24,20,6,0,0.587149,0.857941,0.193794,0.161495,0.32299,509,485,24,20,6,0:
00000000
00000000
00000000
00000000
,
00000000
00000000
00000000
00000000
,
00000000
00000000
00000000
00000000
,
00000000
00000000
00000000
00000000
,
00100000
00000000
10000000
00010000
00100000
00000000
00001000
00000000
00010000
00000000
00010200
00000000
000M0000
00000000
00000310
00000000
,
00000001
00000000
00000100
00000010
00000000
00001000
00000000
00000100
00000000
00000000
00020010
00000000
000000M0
00000000
00000000
00000000
,
00130000
00000000
10000000
00010000
01000000
00000000
00100000
00000000
10000000
00000000
10020000
00000000
M0000000
00000000
00130000
00000000
,
00001000
00000000
00010000
00000100
00000000
00000010
00000000
00000001
00000000
00000000
00002100
00000000
00000M00
00000000
00003010
00000000
,
00000100
00000000
00000001
00000100
00000001
00000000
00000010
00000000
00000100
00000000
00020100
00000000
00000M00
00000000
00130000
00000000
,
10000000
00000000
00010000
01000000
00000000
00100000
00000000
10000000
00000000
00000000
10020000
00000000
M1000000
00000000
01000000
00000000
,
01030000
00000000
00100000
00000000
10000000
01000000
00010000
00000000
00001000
00000000
00010000
00000000
00000010
00001000
00000100
00000000
,
00000011
00000001
00000100
00001000
00010000
00002000
00000000
00003100
,
00000001
00000010
00001000
00000100
00001000
00010000
00000010
00010000
,
00001000
00000000
00010000
00001000
00010000
00000000
01000000
00000000
10000000
00000000
00010000
10000000
00010000
00000000
01000000
00000000
,
10000000
00000000
00100000
00000000
10000000
00000000
01000000
00000000
00010000
01000000
00000000
00100000
10000000
00000000
01000000
00000000
,
10010000
00100000
00001000
00010000
00000010
00000200
00000000
00000301
,
00000100
00001000
00000010
00001000
00010000
00001000
01000000
00100000
,
01000000
00000000
00001000
01000000
00001000
00000000
00100000
00000000
01000000
00000000
10000000
00010000
10000000
00000000
00100000
00000000
,
00010000
00000000
01000000
00000000
00010000
00000000
00001000
00000000
00010000
00001000
00000000
00010000
00000010
00000000
00001000
00000000
,
00001001
00001000
00000100
00000010
00000001
00000200
00000000
00001300
,
00010000
00001000
00000010
00000001
00000010
00001000
00000001
00000100
,
00001000
00000000
00000001
00001000
00000001
00000000
00001000
00000000
00000010
00000000
00000100
00000001
00000100
00000000
00000010
00000000
,
00010000
00000000
01000000
00000000
10000000
00000000
00010000
00000000
01000000
00100000
00000000
10000000
00010000
00000000
00100000
00000000
,
11000000
00100000
01000000
00010000
10000000
02000000
00000000
03010000
,
00100000
00010000
00001000
00000100
00001000
00010000
00000010
00001000
,
00000100
00000000
00000010
00000001
00000010
00000000
00001000
00000000
00010000
00001000
00010000
00000000
00001000
00000000
00000100
00000000
,
00000001
00000000
00000010
00000000
00001000
00000000
00000010
00000000
00000001
00000100
00000010
00000000
00001000
00000100
00010000
00000000
,
00001000
00010000
01000000
10000000
00100000
00010000
02000000
00000000
,
03010000
00001000
00010000
01000000
10000000
00010000
02000000
00000000
,
03100000
00010000
00001000
00000010
00000100
00001000
00000002
00000000
,
00000013
00000000
00000100
00001000
00000000
00000010
00000000
00010000
00000000
00001000
00010000
00000000
01000000
00100000
00010000
10000000
00100000
00000000
00000000
00000000
01000000
00000000
00000000
00000000
00010000
00000000
00000000
00000000
00100000
00000000
00000000
00000000
,
10000000
00100000
00010000
01000000
00100000
00010000
01000000
00010000
,
00001000
00000000
00010000
00000000
00000010
00000000
00001000
00000000
00000100
00000000
00000000
00000011
00000000
00000000
00000100
00000000
,
00001000
00000000
00000000
00011000
00000000
00000000
00100000
00000000
10000000
00000000
00000000
11000000
00000000
00000000
00010000
00000000
,
00001000
00000000
00000000
00001100
00000000
00000000
00000100
00000001
00000100
00000000
00000010
00000000
00001000
00000000
00000100
00000000
,
00001000
00000001
00000100
00001000
00000010
00001000
00010000
01000000
,
10000000
00000000
00010000
00000000
01000000
00000000
00100000
00000000
10000000
00000000
00000000
11000000
00000000
00000000
00100000
00000000
,
00010000
00000000
00000000
00011000
00000000
00000000
00001000
00000000
00000100
00000000
00000000
00000101
00000000
00000000
00000010
00000000
,
00001000
00000000
00000100
00010000
00000100
00010000
00001000
00000000
00000100
00000000
00000001
00000000
00000010
00000000
00001000
00000000
,
00000100
00001000
00010000
00100000
00010000
00001000
01000000
00010000
,
00100000
00000000
01000000
00000000
10000000
00000000
00100000
00000000
01000000
00000000
00000000
01010000
00000000
00000000
00100000
00000000
,
10000000
00000000
00000000
11000000
00000000
00000000
00100000
00000000
00001000
00000000
00000000
00011000
00000000
00000000
00001000
00000000
,
00000100
00000000
00000001
00000000
00001000
00000100
00001000
00000100
00000010
00000000
00000001
00000000
00000100
00000000
00001000
00000000
,
00000010
00001000
00010000
00001000
00000010
00000001
00000010
00000100
,
00010000
00000000
00001000
00000000
01000000
00000000
00100000
00000000
10000000
00000000
01000000
00000000
00100000
00010000
00100000
00000000
,
01000000
10000000
01000000
00010000
01000000
10000000
00100000
00010000
00001000
00000000
00010000
00000000
01000000
00000000
00010000
00000000
,
00001000
00000100
00000002
00000000
00000013
00000100
00001000
00000010
,
00001000
00000100
00000010
00001000
00020000
00000000
00031000
00000100
,
00001000
00000000
00010000
00100000
10000000
01000000
00010000
00100000
,
00010000
00001000
00020000
00000000
01030000
10000000
00010000
01000000
,
00100000
00010000
00002000
00000000
00103000
00001000
00010000
00000010
,
00000100
00000001
00000010
00000100
00001000
00000000
00000010
00000100
,
00000001
00000000
00000100
00001000
00010000
00001000
00000100
00001000
,
00010000
00001000
00000000
01000000
00010000
00000000
00100000
00000000
11000000
00000000
00100000
00000000
01000000
00000000
00010000
00000000
,
00100000
00000000
01000000
00000000
10000000
01000000
10000000
00000000
00100000
00000000
00010000
00000000
01000000
00000000
00010000
00000000
,
00001000
00000000
00010000
00000000
00000010
00000000
00001000
00000000
00000100
00000010
00000100
00000000
00001000
00000001
00001000
00000000
,
00000010
00000000
00000100
00000000
00000001
00000000
00000010
00000000
00000100
00001000
00000100
00000000
00010000
00001000
00010000
00000000
,
00100000
10000000
00100000
00010000
01000000
00010000
00001000
00000100
,
00001000
00010000
01000000
00100000
00001000
00010000
00000100
00000010
,
00001000
00000000
00010000
00000000
00002000
00000000
00000000
00000000
00003100
00000001
00000100
00000001
00000010
00000100
00001000
00000100
,
00010000
00001000
00000100
00001000
00010000
00001000
01000000
00100000
10000000
00100000
01000000
00001000
00010000
00001000
00100000
00010000
,
10000000
01000000
10000000
00010000
10100000
00000000
01010000
00000000
20020000
00000000
00000000
00000000
00000000
00000000
00000000
00000000
,
00000000
00000000
30030000
00000000
;

//--------------- lights-cabinet - ----------------
#NOTES:
     lights-cabinet:
     :
     Easy:
     1:
     0.484484,0.589658,1.09009,0.040374,0.008075,420,263,135,5,0,13,0.484484,0.589658,1.09009,0.040374,0.008075,420,263,135,5,0,13:
00000000
00000000
00000000
00000000
,
11000000
00110000
11000000
01100000
10010000
01100000
00000000
00000000
,
10010000
01100000
01100000
10010000
,
11000000
00110000
11000000
01100000
10010000
01100000
10010000
00000000
,
10000000
01000000
01000000
10000000
,
00100000
01000000
00100000
00000000
01000000
00000000
00010000
00000000
,
10010000
01100000
11000000
00010000
,
00100000
01000000
00100000
00000000
01000000
00000000
10000000
00000000
,
00010000
10000000
01010000
10000000
,
01010000
10100000
11000000
00110000
,
22220000
33330000
00000000
00000000
,
10010000
11000000
01100000
01010000
,
10100000
00010000
01000000
00010000
10010000
00000000
01100000
00000000
,
10100000
01000000
10010000
01100000
,
01000000
00010000
10100000
00010000
10000000
00000000
01010000
00000000
,
10000000
01100000
10010000
01100000
,
10010000
01100000
10010000
01100000
,
10000000
10100000
01000000
01100000
,
10010000
01100000
10010000
01100000
,
10010000
10100000
01010000
00100000
,
01000000
10000000
00100000
10000000
00010000
00000000
10100000
00000000
,
01010000
00100000
10010000
01100000
,
00100000
10000000
01000000
10000000
00010000
00000000
10100000
00000000
,
01000000
00100000
10100000
01000000
,
11100000
00000000
01000000
10000000
,
00010000
00100000
01000000
00100000
,
00010000
00100000
01000000
10000000
,
11110000
00010000
01100000
10010000
,
10100000
10110000
01000000
00100000
,
10010000
01100000
00010000
01000000
,
10010000
00000000
00000000
11110000
11110000
00000000
10000000
00000000
,
11000000
00000000
11000000
00000000
00110000
00000000
10100000
00010000
,
00000000
10010000
01100000
00000000
10100000
00000000
01100000
10000000
,
00000000
10000000
11000000
00000000
01100000
00000000
01100000
00010000
,
00000000
00010000
11000000
00000000
10110000
00000000
00000000
00000000
,
10100000
01000000
00110000
10100000
,
00110000
11000000
00110000
01000000
,
20000000
00000000
30010000
00100000
,
10000000
01000000
00100000
00000000
00010000
00000000
00110000
00000000
,
10100000
00000000
01100000
00000000
01000000
00000000
01000000
10000000
,
00000000
10000000
01100000
00000000
01000000
00000000
01100000
00010000
,
00000000
00010000
10100000
00000000
01000000
00000000
10100000
00000000
,
00100000
11000000
10010000
00000000
,
10100000
00000000
01100000
00000000
,
10100000
00000000
00000000
00000000
00000000
00000000
00000000
00000000
00010000
10000000
01000000
00000000
00100000
00000000
01000000
00000000
,
10000000
00010000
01000000
00000000
00100000
00000000
01000000
00000000
10010000
00000000
00000000
00000000
00000000
00000000
01110000
00000000
,
00000000
10010000
00000000
00000000
10010000
00000000
00000000
10100000
,
00000000
11000000
00000000
00000000
01010000
00000000
00000000
11000000
,
00000000
01100000
00000000
00000000
10000000
00000000
00000000
10010000
,
00000000
10010000
00000000
01100000
10010000
00000000
00000000
01010000
,
00000000
01010000
00000000
10000000
01000000
00000000
00000000
01000000
,
00000000
01000000
00000000
00000000
10010000
00000000
00000000
10010000
,
00000000
10010000
00000000
00000000
01100000
00000000
00000000
00110000
,
00000000
11000000
00000000
00000000
10010000
00000000
01010000
00000000
,
00010000
00110000
00010000
10010000
,
00010000
00100000
01000000
00000000
10000000
00000000
10000000
01000000
,
00000000
01000000
00100000
00000000
10000000
00000000
10000000
00100000
,
00000000
00100000
01000000
00000000
10000000
00000000
10000000
01000000
,
00000000
01000000
00100000
00000000
00010000
00000000
01000000
00000000
,
00100000
10100000
10000000
11000000
,
10000000
01000000
00100000
00000000
00010000
00000000
01010000
00000000
,
00010000
01000000
11110000
00000000
,
00000000
11110000
11110000
00000000
,
00000000
11110000
11110000
00000000
;
