#TITLE:Flying High;
#SUBTITLE:;
#ARTIST:Filo Bedo;
#TITLETRANSLIT:;
#SUBTITLETRANSLIT:;
#ARTISTTRANSLIT:;
#GENRE:;
#CREDIT:;
#MUSIC:Flying High.ogg;
#BANNER:Flying High.png;
#BACKGROUND:Flying High-bg.png;
#CDTITLE:;
#SAMPLESTART:90.786;
#SAMPLELENGTH:12.880;
#SELECTABLE:YES;
#OFFSET:-0.040;
#BPMS:0.000=146.021;
#STOPS:;
#DISPLAYBPM:146.000;
#BGCHANGES:;
#FGCHANGES:;

//--------------- dance-single - M. Puls ----------------
#NOTES:
     dance-single:
     M. Puls:
     Beginner:
     1:
     0.08,0.147,0.025,0,0:
0000
0000
0000
0000
,
0000
0000
0000
0000
,
0000
0000
0000
0000
,
0000
0000
0000
0000
,
0010
0000
0000
0000
,
0000
0000
0000
0000
,
0010
0000
0000
0000
,
0000
0000
0000
0000
,
0100
0000
0000
0000
,
0100
0000
0000
0000
,
0010
0000
0000
0000
,
0001
0000
0000
0000
,
0010
0000
0000
0000
,
0100
0000
0000
0000
,
0010
0000
0000
0000
,
0000
0000
0000
0000
,
0010
0000
0000
0000
,
0010
0000
0000
0000
,
0001
0000
0000
0000
,
1000
0000
0000
0000
,
0100
0000
1000
0000
,
0010
0000
0100
0000
,
0100
0000
0000
0000
,
0000
0000
0000
0000
,
1001
0000
0000
0000
,
0000
0000
0000
0000
,
1000
0000
0000
0000
,
0000
0000
0000
0000
,
0001
0000
0000
0000
,
0001
0000
0000
0000
,
0100
0000
0010
0000
,
0100
0000
0000
0000
,
0001
0000
0000
0000
,
1000
0000
0000
0000
,
0100
0000
0000
0000
,
1000
0000
0000
0000
,
0010
0000
0000
0000
,
0100
0000
0000
0000
,
0001
0000
0000
0000
,
1000
0000
0000
0000
,
0001
0000
0000
0000
,
0001
0000
0000
0000
,
1000
0000
1000
0000
,
1000
0000
0000
0000
,
0100
0000
0000
0000
,
0010
0000
0000
0000
,
1001
0000
0000
0000
,
0000
0000
0000
0000
,
1000
0000
0000
0000
,
0010
0000
0000
0000
,
0100
0000
0000
0000
,
0100
0000
0100
0000
,
0100
0000
0000
0000
,
0000
0000
0010
0000
,
0010
0000
0000
0000
,
0000
0000
0000
0000
,
1000
0000
0000
0000
,
0100
0000
0000
0000
,
1000
0000
0000
0000
,
0001
0000
0000
0000
,
0010
0000
0000
0000
,
0001
0000
0000
0000
,
1000
0000
0000
0000
,
0010
0000
0000
0000
,
0100
0000
0000
0000
,
0100
0000
0000
0000
,
0010
0000
0000
0000
,
1000
0000
0000
0000
,
0001
0000
0000
0000
,
1000
0000
0000
0000
,
0001
0000
0000
0000
,
0000
0000
0000
0000
,
1001
0000
0000
0000
;

//--------------- dance-single - K. Ward ----------------
#NOTES:
     dance-single:
     K. Ward:
     Easy:
     2:
     0.13,0.206,0.041,0,0:
0000
0000
0000
0000
,
0000
0000
0000
0000
,
0000
0000
0000
0000
,
0000
0000
0000
0000
,
0010
0000
0100
0000
,
1000
0000
0010
0000
,
0001
0000
0000
0000
,
0000
0000
0000
0000
,
1000
0000
0001
0000
,
1000
0000
0100
0000
,
0010
0000
0010
0000
,
0100
0000
0000
0000
,
0001
0000
1000
0000
,
0100
0000
0010
0000
,
1001
0000
0000
0000
,
0000
0000
0000
0000
,
0100
0000
0100
0000
,
0010
0000
0010
0000
,
0001
0000
1000
0000
,
0001
0000
0000
0000
,
0010
0000
0000
0000
,
0100
0000
0000
0000
,
0001
0000
1000
0000
,
0001
0000
1000
0000
,
1001
0000
0000
0000
,
0100
0000
0000
0000
,
1000
0000
0000
0000
,
0001
0000
0000
0000
,
0100
0000
0010
0000
,
0100
0000
0001
0000
,
1000
0000
0000
0000
,
0001
0000
0000
0000
,
0100
0100
0000
0000
,
1000
1000
0000
0000
,
0001
0001
0000
0000
,
1000
1000
0000
0000
,
0001
0000
0001
0000
,
1000
0000
1000
0000
,
0100
0000
0000
0000
,
0000
0000
0000
0000
,
0010
0000
0010
0000
,
0100
0000
0100
0000
,
1000
0000
0001
0000
,
1000
0000
0000
0000
,
0100
0100
0100
0000
,
1000
1000
1000
0000
,
0001
0000
0000
0000
,
0001
0000
0000
0000
,
1001
0000
0010
0000
,
0100
0000
0010
0000
,
0001
0000
0000
0000
,
1000
0000
0000
0000
,
0010
0000
0100
0000
,
0001
0000
0000
0000
,
1000
0000
0000
0000
,
0000
0000
0000
0000
,
1000
0001
0000
0000
,
0010
0001
0000
0000
,
0100
1000
0000
0000
,
0001
0001
0000
0000
,
0100
0000
1000
0000
,
0010
0000
0001
0000
,
1001
0000
0000
0000
,
0000
0000
0100
0000
,
0010
0000
0010
0000
,
0001
0000
0001
0000
,
0010
0000
0100
0000
,
0001
0000
0000
0000
,
1000
0000
0001
0000
,
1000
0000
0001
0000
,
0010
0000
0000
0000
,
0100
0000
0000
0000
,
1001
0000
0000
0000
;

//--------------- dance-single - K. Ward ----------------
#NOTES:
     dance-single:
     K. Ward:
     Medium:
     5:
     0.261,0.413,0.074,0.09,0:
0000
0000
0000
0000
,
0000
0000
0000
0000
,
0000
0000
0000
0000
,
0000
0000
0000
0000
,
1000
0000
1000
0000
,
0001
0000
0001
0000
,
2002
0000
0000
0000
,
3003
0000
0000
0000
,
1000
1000
0001
0001
,
0100
0010
0100
1000
,
0200
0000
0000
1300
0000
0000
0000
0000
,
0002
0000
0000
1003
0000
0000
0000
0000
,
0001
0001
0000
0100
0000
0010
0000
0100
,
0000
0001
0000
0010
0000
0100
0010
0000
,
0002
0000
0000
0000
,
1003
0000
0000
0000
,
0100
0010
0100
0100
,
1000
0001
1000
1000
,
0100
1000
0000
1000
0000
0000
0000
0000
,
0010
0100
0000
0001
0000
0000
0000
0000
,
0010
0100
0010
0001
,
1000
0010
0100
1001
,
0001
1000
0001
1000
0001
1000
0001
1000
,
0001
0001
1000
1000
,
1001
0000
0000
0000
,
0100
0000
0000
0000
,
1000
0000
0000
0000
,
0001
0000
0000
0000
,
0100
0100
0010
0010
,
1000
1000
0001
0001
,
1000
0001
1000
0001
,
1001
0000
0000
0000
,
0010
1000
0100
0000
0010
0000
0010
0000
,
0010
0001
0100
0000
0010
0000
0010
0000
,
0100
0001
0010
0000
0001
0000
0001
0000
,
1000
1001
0001
1001
,
0000
0100
0000
1000
,
0000
0010
0000
0001
,
0000
1000
0000
0001
,
0000
2002
0000
3003
,
1000
1000
1000
1000
,
0001
0001
0001
0001
,
0100
0000
0000
0010
0000
0000
0100
0001
,
0000
0000
0010
0100
,
1000
0100
0010
0000
0100
0000
0000
0000
,
0010
0100
0010
0000
0001
0000
0000
0000
,
1000
0010
0100
0001
,
1000
1000
0001
0010
,
0101
0000
1000
0000
,
0001
0000
0100
0000
,
0010
0100
0100
0000
,
0001
0010
0100
0000
0010
0000
0001
0000
,
2000
0000
0000
0000
,
3000
0000
0000
0001
0000
0001
0000
0002
,
0000
0000
0000
0000
,
0003
0000
0000
0000
,
1000
0010
0100
0001
,
0010
0100
0010
0100
,
1000
0000
1000
0000
,
0001
0000
0001
0100
,
1000
0000
0100
0000
,
0010
0000
1000
0000
,
0001
0001
1000
1000
,
0100
0010
0100
0010
,
0001
0000
1000
0000
,
0001
0000
1000
0000
,
0001
0000
0100
0000
0010
0000
0100
0001
,
0000
0000
0010
0100
,
1000
1000
2000
0000
,
3001
0001
0002
0000
,
1003
0010
0001
0010
,
0100
0000
0001
0000
0010
0100
0010
0000
,
1001
0000
0000
0000
;

//--------------- dance-single - K. Ward ----------------
#NOTES:
     dance-single:
     K. Ward:
     Hard:
     9:
     0.414,0.501,0.156,0.156,0.115:
0000
0000
0000
0000
,
0000
0000
0000
0000
,
0000
0000
0000
0000
,
0000
0000
0000
0000
,
0010
0100
0000
0001
0000
0000
0000
1000
,
0000
0000
0000
0100
0000
0010
0100
0000
,
2002
0000
0000
0000
,
3003
0000
0000
0000
,
1010
0100
0000
0011
0000
0000
0000
0000
,
0011
0100
0000
1001
0000
0000
0000
0000
,
0100
0100
1000
0000
0100
0100
0010
0000
,
0100
0010
0000
1001
0000
0000
0000
0000
,
0001
0100
1000
0100
0010
0100
1000
0100
,
0010
0100
0001
0010
,
2002
0000
0000
3003
,
1000
0100
1000
0000
0001
0010
0001
0000
,
0100
0100
0000
1100
0000
0000
0000
0000
,
0010
0100
0000
0011
0000
0000
0000
0000
,
0001
0100
1000
0000
1000
0100
0001
0000
,
0010
0100
0010
1001
0000
0000
0000
0000
,
0010
0001
0010
0000
0100
1000
0100
0000
,
0010
1000
0100
0000
0010
0001
1000
0000
,
0100
1000
0100
0010
0100
1000
0100
0010
,
0100
0010
0100
0010
,
1001
0000
0000
0010
0000
0000
0100
0000
0010
0000
0000
0000
0000
0000
0000
0000
,
1000
0000
0000
0001
0000
0000
0010
0000
0001
0000
0000
0000
0000
0000
0000
0000
,
0010
0000
0000
0100
0000
0000
1000
0000
0100
0000
0000
0000
0000
0000
0000
0000
,
0010
0000
0000
0100
0000
0000
0010
0000
0001
0000
0000
0000
0000
0000
0000
0000
,
0100
0000
0000
0100
0000
0000
0100
0000
0100
0000
0000
0000
0000
0000
0000
0000
,
0010
0000
0000
0010
0000
0000
0010
0000
0010
0000
0000
0000
0000
0000
0000
0000
,
1000
0100
0010
0000
0100
0001
0100
0000
,
2002
0000
0000
3003
,
0001
0000
0010
0000
0001
0000
0100
0010
0000
0010
0100
0000
0001
0000
0000
0000
,
1000
0000
0100
0000
1000
0000
0100
0010
0000
0010
0100
0000
0010
0000
0000
0000
,
0100
0000
1000
0000
0010
0000
0100
0010
0000
0010
0100
0000
0001
0000
0000
0000
,
0001
0100
1000
0000
1000
0100
0001
0000
,
0020
0000
0230
0000
,
2300
0000
3002
0000
,
0103
0000
0010
0000
0100
0001
0010
0000
,
0100
1000
0100
0010
0100
0000
1001
0000
,
0001
0000
0010
0000
0001
0000
0010
0001
0000
0001
0010
0000
0001
0000
0000
0000
,
1000
0000
0100
0000
1000
0000
0100
1000
0000
1000
0100
0000
1000
0000
0000
0000
,
0010
0100
0001
0000
0010
0100
1000
0000
,
0100
0001
0100
0010
0100
0000
1001
0000
,
0002
0000
1003
0000
,
2000
0000
3001
0000
,
0100
0010
1000
0100
,
0001
0000
0100
0000
0010
0100
0010
0000
,
1001
0100
0010
1000
,
0001
0010
0100
0000
0010
0100
1000
0000
,
0100
0010
0001
0000
0100
0010
1000
0000
,
0100
0010
0100
0001
0100
0000
0110
0000
,
0002
0000
0100
0000
,
1003
0000
0000
0100
0000
0010
0000
0202
,
0000
0000
0000
0000
,
0303
0000
0000
0000
,
1000
0000
0100
0000
1000
0000
0010
0100
0000
0010
0100
0000
0010
0000
0000
0000
,
0001
0000
0010
0000
0001
0000
0010
0001
0000
0010
0001
0000
0010
0000
0000
0000
,
0100
0000
0010
0000
0100
0000
0010
0100
0000
0010
0100
0000
0010
0000
0000
0000
,
0001
1000
0001
1000
0010
0000
0100
0000
,
1000
1000
1000
0000
0200
0000
0000
0000
,
0310
0010
0010
0000
2000
0000
0000
0000
,
3100
0100
0010
0000
0010
0100
0100
0000
,
1000
1000
0100
0010
0100
0000
1001
0000
,
0000
0000
0100
0000
0010
0000
0100
0010
0000
0100
0010
0000
0100
0000
0000
0000
,
0000
0000
0001
0000
1000
0000
0001
1000
0000
0001
1000
0000
0001
0000
0000
0000
,
0000
0100
0100
0000
0000
0010
0010
0000
,
0000
1000
1000
0000
0100
0010
0001
0000
,
0200
0000
1300
0000
,
0200
0000
0301
0000
,
1000
0000
0000
0100
0000
0000
1000
0000
0010
0000
0000
0100
0000
0000
0001
0000
,
0010
0000
0100
0000
1000
0100
0010
0000
,
1001
0000
0000
0000
;

//--------------- dance-single - M. Puls ----------------
#NOTES:
     dance-single:
     M. Puls:
     Challenge:
     13:
     0.681,0.648,0.147,0.27,0.356:
0000
0000
0000
0000
,
0000
0000
0000
0000
,
2000
0000
0000
0000
0100
0000
0010
3000
,
0002
0000
0000
0000
0000
0000
0000
0000
0010
0000
0000
0000
0100
0000
0000
0003
,
1000
0100
1000
0010
,
0100
0000
0001
0000
0010
0001
1000
0100
,
0010
0000
0001
0100
1000
0000
1000
0100
,
0001
0000
0001
0010
0100
0000
1000
0001
,
1000
1000
0100
1000
1000
0001
1000
1000
,
0100
1000
0100
0010
0010
0001
0010
0001
,
0100
0010
1000
1000
0100
0010
0001
1000
,
0100
1000
0010
0020
0000
0100
0130
0000
,
0001
0100
1000
0100
0001
0100
1000
0100
,
0001
1000
0001
0010
0011
0000
1100
0000
,
1000
0100
0010
0000
0001
0100
0010
0000
,
1000
0100
1000
0010
0100
0001
0011
0000
,
1000
0100
1000
0001
0010
0001
1000
0000
,
0010
1000
0001
1000
0002
0000
0013
0000
,
0001
0001
0100
0010
1000
0100
1000
1000
,
0001
0100
0010
1000
0200
0000
1300
0000
,
0010
0100
0001
0010
0001
0100
0010
1000
,
1000
0100
0010
0001
0010
0100
1000
0100
,
1000
0010
1000
0010
0010
0100
0001
0010
,
0001
0100
0010
1000
1000
0010
0100
0010
,
1000
0100
0000
1000
0000
0010
0100
0000
0001
0010
0000
0010
0002
0000
0000
0000
,
0013
0001
0000
0100
0000
0010
1000
0000
0010
0100
0000
0100
0020
0000
0000
0000
,
1030
0100
0000
1000
0000
0010
0100
0000
0001
0010
0000
0010
0002
0000
0000
0000
,
0013
0001
0000
0100
0000
0010
1000
0000
0010
0100
0000
0100
0020
0000
1000
0000
,
1030
0100
0000
1000
0000
0010
0100
0000
0001
0010
0000
0010
0001
0000
0010
0000
,
0001
0100
0000
0100
0000
0010
1000
0000
0010
0100
0000
0100
0010
0000
1000
0000
,
0100
1000
0000
1000
0000
0010
0100
0000
0001
0010
0000
0010
0002
0000
0010
0000
,
0013
0001
0100
0010
2000
0000
3010
0000
,
1000
0010
0110
0100
0011
0000
0100
0010
,
0010
0100
0001
0010
0000
0001
0100
0010
,
1000
0100
0100
0010
0001
0010
0001
0100
,
0001
0000
0001
0000
1000
0000
0001
1000
0000
0001
1000
0000
0001
0000
1000
0000
,
0010
0100
0100
0010
1000
0010
0100
0001
,
0010
0000
0001
0000
0100
0000
0010
1000
0000
0010
1000
0000
0001
0000
1000
0000
,
2000
0010
0010
0000
0000
0010
0010
3000
,
1000
0000
0010
0000
0010
0000
0100
0000
0100
0000
0001
0000
0010
0001
1000
0000
,
2000
0000
0001
0000
0001
0000
0001
0000
3001
0000
0100
0000
0010
1000
0002
0000
,
1000
0000
1000
0000
1000
0000
1000
0000
1003
0000
0100
0000
0010
0001
0200
0000
,
0010
0010
0310
2000
0010
3010
1000
0100
,
1000
0010
0100
0001
0010
0001
1000
2000
,
0010
0010
0010
3010
0200
0010
0010
0310
,
2000
0100
3100
0100
1000
1000
0010
1000
,
0100
0010
0001
0100
0010
0010
1000
0010
,
0100
0001
0010
0001
1000
0000
0010
1000
,
1100
0000
0000
0000
1000
0000
0000
0000
0010
0000
0100
0010
1000
0000
0100
0000
,
0010
0000
0001
0010
0001
0000
0100
0000
0010
0000
0100
0000
0001
0000
0000
0000
,
0110
1001
0011
1100
,
1000
0001
0010
0001
0100
0010
1000
1000
,
2000
0000
0001
0000
3001
0011
0000
1100
,
0000
0110
1100
0000
0001
0010
0001
1000
,
0010
0010
0000
0010
0000
0010
0000
0010
,
0200
0000
0302
0000
0013
0001
0011
0000
,
1000
0100
0000
1000
0000
0010
0100
0000
0001
0010
0000
0010
0001
0000
0001
0000
,
0010
0001
0000
0100
0000
0010
1000
0000
0010
0100
0000
0100
0010
0000
0010
0000
,
1000
0100
0000
1000
0000
0010
0100
0000
0001
0010
0000
0010
0001
0000
0001
0000
,
0010
0001
0000
0100
0000
0010
1000
0000
0010
0100
0000
0100
0020
0000
1000
0000
,
1030
0100
0000
1000
0000
0010
0100
0000
0001
0010
0000
0010
0001
0000
0010
0000
,
0001
0100
0000
0100
0000
0010
1000
0000
0010
1000
0000
1000
0100
0000
1000
0000
,
0010
0100
0000
0100
0000
0010
0100
0000
0001
0010
0000
0010
0001
0000
0100
0000
,
0100
0010
0000
0010
0000
1000
0100
0000
2000
0000
0100
0000
3100
0000
1000
0000
,
0020
0100
0230
0001
0301
0100
0010
1000
,
0200
1000
1000
1300
0010
0100
0002
0010
,
0013
0001
0010
0100
2000
0010
0010
3020
,
0000
0130
0100
0000
0010
0100
0010
1000
,
0020
0000
0100
0100
0230
0000
0001
0001
,
0302
0000
0013
0000
0001
0100
0010
1000
,
0100
1000
0000
1000
0000
0010
0100
0000
0001
0010
0000
0010
0001
0000
0100
0000
,
0010
1000
0010
0110
0000
1100
0010
0100
,
0110
0000
0000
0000
;

//--------------- dance-double - M. Emirzian ----------------
#NOTES:
     dance-double:
     M. Emirzian:
     Easy:
     3:
     0.205,0.236,0.041,0.033,0:
00000000
00000000
00000000
00000000
,
00000000
00000000
00000000
00000000
,
00000000
00000000
00000000
00000000
,
00000000
00000000
00000000
00000000
,
00000010
00000000
00010000
00000000
,
00001000
00010000
01000000
00000000
,
10000000
00000000
00000000
00000000
,
01000000
00000000
00100000
00000000
,
00001000
00001000
00010000
00000000
,
00001000
00001000
00000100
00000000
,
00000001
00000001
00001000
00000000
,
00000100
00000100
00010000
00000000
,
00001000
00001000
01000000
00000000
,
00100000
00100000
10000000
00000000
,
10010000
00000000
00000000
00000000
,
00100000
00000000
01000000
00000000
,
00001000
00000000
00010000
00000000
,
00001000
00000010
00000001
00000000
,
00000010
00000000
00000100
00000000
,
00001000
00000100
00000010
00000000
,
00000001
00000000
00000100
00000000
,
00000010
00010000
00001000
00000000
,
00022000
00000000
00000000
00000000
,
00033000
00000000
00000000
00000000
,
00010000
00000000
00010000
00000000
,
00100000
00000000
00100000
00000000
,
10000000
00000000
10000000
00000000
,
01000000
00000000
01000000
00000000
,
00010000
00000000
00010000
00000000
,
00001000
00000000
00001000
00000000
,
00000010
00000000
00000010
00000000
,
00000001
00000000
00000001
00000000
,
00000100
00000100
00000010
00000000
,
00010000
00010000
00001000
00000000
,
01000000
01000000
00100000
00000000
,
10000000
10000000
01000000
00000000
,
00010000
00010000
00001000
00000000
,
00000010
00000010
00000001
00000000
,
00000100
00000100
00001000
00000000
,
00010000
00010000
00001000
00000000
,
00010000
00010000
00100000
00000000
,
10000000
10000000
00010000
00000000
,
01000000
01000000
00100000
00000000
,
01000000
01000000
00001000
00000000
,
00010000
00010000
00000100
00000000
,
00001000
00001000
00000010
00000000
,
00001001
00000000
00000000
00000000
,
00000100
00000000
00000000
00000100
,
00000100
00000000
00000000
00000000
,
00000100
00000000
00010000
00000000
,
00001000
01000000
00010000
00000000
,
00010000
00000000
10000000
00000000
,
00100000
00000000
01000000
00000000
,
00002000
00000000
00000000
00000000
,
00023000
00000000
00000000
00000000
,
00030000
00000000
00000000
00000000
,
00000010
00000010
00000001
00000000
,
00000100
00000100
00000010
00000000
,
00010000
00010000
00001000
00000000
,
01000000
01000000
00100000
00000000
,
10000000
10000000
01000000
00000000
,
00010000
00010000
00001000
00000000
,
00000010
00000010
00000001
00000000
,
00000100
00000100
00000010
00000000
,
00010000
00010000
00001000
00000000
,
01000000
01000000
00100000
00000000
,
10000000
10000000
01000000
00000000
,
00010000
00010000
00001000
00000000
,
00000100
00000100
00001000
00000000
,
00000001
00000001
00000100
00000000
,
00011000
00000000
00100000
00000000
,
01000000
00000000
10000000
00010000
,
01100000
00000000
00000000
00000000
;

//--------------- dance-double - M. Emirzian ----------------
#NOTES:
     dance-double:
     M. Emirzian:
     Medium:
     6:
     0.35,0.383,0.041,0.008,0:
00000000
00000000
00000000
00000000
,
00000000
00000000
00000000
00000000
,
00000000
00000000
00000000
00000000
,
00000000
00000000
00000000
00000000
,
10000000
00000000
00100000
00000000
,
01000000
00001000
00010000
00000000
,
00010010
00000000
00010000
00000000
,
00001000
00000100
00000001
00000000
,
00000010
00000010
00000100
00001000
,
00000001
00000100
00001000
00000000
,
00010000
00001000
00000100
00001000
,
00010000
01000000
10000000
00000000
,
01000000
10000000
00010000
00000000
10000000
00000000
01000000
00000000
,
00010000
01000000
10000000
00000000
10000000
01000000
00010000
00000000
,
00001000
00000100
00000001
00000000
00000001
00000100
00001000
00000000
,
00000100
00000001
00001000
00000000
,
00000100
00000010
00001000
00010000
,
00001000
00010000
00100000
00000000
10000000
00000000
01000000
00000000
,
00010000
01000000
10000000
00000000
10000000
01000000
00010000
00000000
,
00001000
00000100
00000001
00000000
00000010
00000000
00001001
00000000
,
00000010
00000100
00001000
00010000
,
00100000
00010000
00001000
00000010
,
00001000
00000000
00010000
00000000
,
00100000
10000000
00010000
00000000
,
10000000
00000000
01000000
00000000
00100000
00010000
00100000
00000000
,
01000000
00000000
10000000
00000000
00100000
01000000
00100000
00000000
,
00010000
00000000
00001000
00000000
00010000
00000100
00010000
00000000
,
00001000
00000000
00010000
00000000
00000100
00001000
00000100
00000000
,
00000010
00000000
00000001
00000000
00001000
00000100
00001000
00000000
,
00000010
00000100
00000000
00000100
,
00001000
00010000
01000000
00010000
,
00001000
00000100
00001000
00010000
,
00100000
10000000
01000000
00000000
00100000
00000000
00100000
00000000
,
00100000
00010000
01000000
00000000
00100000
00000000
00100000
00000000
,
00100000
00010000
00001000
00000000
00000100
00000000
00000100
00000000
,
00000100
00000001
00000010
00000000
00000100
00000000
00000100
00000000
,
00000100
00001000
00000010
00000000
00000010
00000000
00000010
00000000
,
00000100
00001000
00010000
00000000
00010000
00000000
00010000
00000000
,
00100000
10000000
01000000
00000000
01000000
00000000
01000000
00000000
,
00100000
00010000
01000000
00000000
10010000
00000000
00000000
00000000
,
10000000
01000000
00010000
00001000
,
00000010
00001000
00010000
00001000
,
00000100
00000001
00000010
00000000
00000010
00000000
00000010
00000000
,
00000100
00001000
00000010
00000000
00000010
00000000
00000010
00000000
,
00000100
00001000
00010000
00000000
00010000
00000000
00010000
00000000
,
01000000
10000000
00010000
00000000
00000000
00000000
01000000
00000000
,
00100000
10000000
01000000
00010000
,
00001000
00000100
00000001
00000000
,
00001000
00001000
00000100
00000100
,
00000010
00000010
00000001
00000001
,
00000100
00001000
00010000
00000000
00001000
00010000
00100000
00000000
,
10000000
01000000
00010000
00000000
01000000
00010000
00001000
00000000
,
00010000
00001000
00000100
00000000
00001000
00000100
00000001
00000000
,
00000010
00000100
00001000
00000000
,
00000020
00000000
00000000
00000000
,
00000030
00000000
00000000
00000000
,
00010000
00001000
00000100
00001000
,
00010000
00100000
10000000
01000000
,
00010000
01000000
10000000
00000000
10000000
00100000
00010000
00000000
,
00001000
00000010
00000001
00000000
00000100
00000000
00000010
00000000
,
00001000
00001000
00000100
00000100
,
00010000
00001000
00000100
00001000
,
00010000
01000000
00010000
00001000
,
00010000
00000000
00100000
00000000
10000000
01000000
00100000
00000000
,
00001000
00000000
00010000
00000000
00100000
00010000
00001000
00000000
,
00010000
00000000
00001000
00000000
00000010
00001000
00010000
00000000
,
00001000
00000000
00000010
00000000
00000100
00000010
00000001
00000000
,
00000001
00000100
00001000
00000000
00010000
01000000
10000000
00000000
,
00100000
00100000
01000000
01000000
,
00010000
00000000
00010000
00000000
00100000
00001000
00010000
00000000
,
00010100
00010000
00000010
00000010
,
00000100
00000000
00000001
00000010
00000100
00001000
00000010
00000000
,
00001001
00000000
00000000
00000000
;

//--------------- dance-double - M. Emirzian ----------------
#NOTES:
     dance-double:
     M. Emirzian:
     Hard:
     8:
     0.491,0.501,0.254,0.025,0.078:
00000000
00000000
00000000
00000000
,
00000000
00000000
00000000
00000000
,
00000000
00000000
00000000
00000000
,
00000000
00000000
00000000
00000000
,
10000000
01000000
00100000
00001000
,
00010000
00000000
00000100
00000000
00010000
00001000
01000000
00001000
,
00010000
00000100
00000000
00000010
00000000
00000001
00000000
00000100
,
00000000
00000010
00000000
00002000
00000000
00000000
00000000
00000000
,
00003001
00000100
00001000
00000000
00001100
00000000
00011000
00000000
,
00010000
01000000
10000000
00000000
10100000
00000000
00110000
00000000
,
00010000
00100000
01000000
00001000
00010000
00000000
00000010
00000000
,
00010000
00001000
00010000
00000100
00001000
00000000
00000010
00000000
,
00000001
00000010
00001000
00000000
00001100
00000000
00011000
00000000
,
00010000
00001000
01000000
00010000
00100000
00001000
00011000
00000000
,
00010000
00001000
00000000
00100000
00000000
01000000
00000000
00100000
,
00000000
00010000
10000000
01000000
00100000
00001000
00010000
00000000
,
00000001
00000100
00001000
00000000
00001100
00000000
00000101
00000000
,
00000001
00000010
00000100
00000000
00000110
00000000
00010100
00000000
,
00010000
00000100
00010000
00001000
00100000
00000000
00010000
00000000
,
01000000
00001000
00010000
00001000
01000000
00000000
00100000
00000000
,
10000000
01000000
00100000
00000000
01010000
00000000
00011000
00000000
,
00010000
00001000
00000010
00001000
00010000
00001000
00011000
00000000
,
00001010
00000001
00000000
00001000
00000000
00000100
00000000
00000001
,
00000000
00000100
00001000
00000010
00000100
00000010
00010000
00001000
,
00010000
00000000
00000000
00001000
00000000
00000000
00010000
00000000
00100000
00000000
00000000
00000000
10000000
00000000
00000000
00000000
,
01000000
00000000
00000000
00010000
00000000
00000000
01000000
00000000
10000000
00000000
00000000
00000000
01000000
00000000
00000000
00000000
,
00010000
00000000
00000000
01000000
00000000
00000000
00100000
00000000
00001000
00000000
00000000
00000000
00010000
00000000
00000000
00000000
,
00000010
00000000
00000000
00010000
00000000
00000000
00001000
00000000
00000010
00000000
00000000
00000000
00000001
00000000
00000000
00000000
,
00001000
00000000
00000000
00000100
00000000
00000000
00000010
00000000
00000001
00000000
00000000
00000000
00000010
00000000
00000000
00000000
,
00000100
00000000
00000000
00001000
00000000
00000000
00000001
00000000
00001000
00000000
00000000
00000000
00000010
00000000
00000000
00000000
,
00000100
00000000
00000000
00001000
00000000
00000000
00010000
00000000
00000100
00000000
00000000
00000000
00010000
00000000
00000000
00000000
,
00002000
00000000
00000000
00000000
,
00013000
00100000
10000000
00000000
00100000
00000000
10000000
01000000
,
00100000
00010000
01000000
00000000
00010000
00000000
10000000
01000000
,
00100000
01000000
10000000
00000000
01010000
00000000
00011000
00000000
,
00010000
00001000
00100000
00001000
00010000
00000010
00010000
00000000
,
00001000
00010000
00000100
00000000
00000010
00000000
00000100
00001000
,
00000001
00000100
00000010
00000000
00001000
00000000
00000001
00000100
,
00000010
00000100
00000001
00000000
00001100
00000000
00011000
00000000
,
00100000
10000000
00010000
01000000
00100000
10000000
01000000
00000000
,
10000000
01000000
00100000
00000000
00010000
00000000
01000000
00100000
,
10000000
01000000
00100000
00000000
00010000
00000000
10000000
01000000
,
10000000
00010000
01000000
00000000
00011000
00000000
00001010
00000000
,
00000010
00000001
00000100
00001000
00000100
00000001
00000010
00000000
,
00000100
00001000
00000010
00000100
00000010
00001000
00000100
00010000
,
00001000
01000000
00001000
00010000
00100000
10000000
00100000
01000000
,
00001000
00010000
00001000
00000000
01100000
00000000
01010000
00000000
,
00100000
00001000
00010000
00000100
00010000
00000000
00010010
00000000
,
00001010
00000001
00000110
00011000
,
00010000
01000000
10000000
00000000
10100000
00000000
00110000
00000000
,
00010000
00100000
01000000
00100000
00010000
00000000
00001000
00000000
,
00010000
00000100
00010000
00000010
00000100
00000000
00000001
00000000
,
00000010
00000001
00000000
00000100
00000000
00000010
00000000
00010000
,
00000000
00001000
01000000
00010000
00100000
00010000
01000000
00100000
,
20000000
00010000
00000000
00010000
00000000
00010000
00000000
00010000
,
30000000
00000000
00000000
00000000
,
10000000
00000000
00000000
00010000
00000000
00000000
01000000
00000000
00100000
00000000
10000000
00000000
00100000
00000000
01000000
00000000
,
00010000
00000000
00000000
10000000
00000000
00000000
01000000
00000000
00100000
00000000
00010000
00000000
00100000
00000000
00001000
00000000
,
00010000
00000000
00000000
00000100
00000000
00000000
00000010
00000000
00000100
00000000
00001000
00000000
00000001
00000000
00000100
00000000
,
00000001
00000000
00000000
00000010
00000000
00000000
00000100
00000000
00010000
00000000
00001000
00000000
01000000
00000000
00100000
00000000
,
10000000
00000000
00000000
01000000
00000000
00000000
00100000
00000000
00010000
00000000
01000000
00000000
00010000
00000000
00100000
00000000
,
01000000
00000000
00000000
10000000
00000000
00000000
00100000
00000000
01000000
00000000
00001000
00000000
00010000
00000000
00000100
00000000
,
00000010
00000001
00000100
00000010
,
00001000
00000100
00001000
00000010
00010000
00001000
01000000
00000000
,
00010000
00000000
01000000
00000000
00100000
00000000
00000000
00000000
01000000
00010000
00000000
00010000
01000000
00000000
00100000
00000000
,
10000000
00000000
01000000
00000000
00100000
00000000
00000000
00000000
01000000
00100000
00000000
00100000
01000000
00000000
00100000
00000000
,
01000000
10000000
00100000
00000000
00110000
00000000
00011000
00000000
,
00010000
00000000
00001000
00000000
01000000
00000000
00000000
00000000
00001000
00010000
00000000
00010000
00001000
00000000
00010000
00000000
,
00001000
00010000
00000100
00000000
00000010
00000000
00000100
00000010
,
00000001
00000010
00000100
00000000
00010000
00000000
00001000
00000000
,
00000100
00001000
00010000
01000000
,
10000000
01000000
00010000
01000000
10000000
00000000
10000000
01000000
,
00010000
00000000
00000000
00000000
;

//--------------- dance-double - M. Emirzian ----------------
#NOTES:
     dance-double:
     M. Emirzian:
     Challenge:
     9:
     0.656,0.648,0.278,0.098,0.446:
00000000
00000000
00000000
00000000
,
00000000
00000000
00000000
00000000
,
00000000
00001000
00000000
00000100
00000000
00000010
00000000
00010000
,
00000000
00001000
00000000
01000000
00000000
00100000
00000000
10000000
,
00100000
10000000
00000000
10000000
00000000
01000000
00000000
00100000
,
00000000
00001000
00000000
00010000
00000000
00000100
00001000
00000000
,
00020020
00000000
00000000
00000000
00000000
00030030
00000000
00000010
,
00000000
00000100
00000000
00000001
00000000
00010000
00000000
00001000
,
00010000
00000100
00010000
00001000
01000000
00010000
00100000
00000000
,
00010000
00000000
01000000
00000000
00100000
00000000
10000000
00010000
00000000
00010000
00100000
00000000
00001000
00000000
00010000
00000000
,
00000100
00001000
00000100
00010000
00000100
00000010
00000100
00001000
,
00000001
00000000
00000100
00000000
00000010
00000000
00001000
00000010
00001000
00000000
00000001
00000000
00000100
00000000
00000010
00000000
,
00001000
00000100
00010000
00001000
00000100
00001000
00010000
00002000
,
00000000
00000010
00000000
00010000
00000000
00100000
00013000
00000000
,
00202000
00000000
00000000
00000000
00000000
00303000
00000000
02000000
,
00000000
00100000
00000000
10000000
03000000
01000000
00000000
00010000
,
10000000
00010000
00100000
01000000
10000000
00010000
01000000
00000000
,
00001000
00000000
00010000
00000000
00000100
00000000
00010000
00001000
00000000
00001000
00010000
00000000
00000100
00000000
00001000
00000000
,
00000010
00001000
00000100
00000010
00000100
00001000
00000010
00000100
,
00000001
00000000
00001000
00000000
00000100
00000000
00010000
00001000
00010000
00000000
01000000
00000000
10000000
00000000
00010000
00000000
,
10000000
00100000
01000000
00010000
01000000
00001000
00010000
00000020
,
00000000
00001000
00000000
00000100
00000000
00010000
00001030
00000000
,
00011000
00010100
00000000
00001100
00000000
00000110
00000000
00001010
,
00000000
00000000
00010010
00000000
00000000
00000000
00011000
00000000
00010000
00001000
00010000
00000100
00000000
00010000
00001000
01000000
,
00001000
00000000
00000000
00010000
00000000
00000000
00100000
00000000
10000000
00000000
00100000
00000000
01000000
00000000
00010000
00000000
,
10000000
00000000
00000000
10000000
00000000
00000000
01000000
00000000
00100000
00000000
00010000
00000000
00100000
00000000
01000000
00000000
,
00010000
00000000
00000000
00010000
00000000
00000000
00001000
00000000
00010000
00000000
00000100
00000000
00010000
00000000
00001000
00000000
,
00000100
00000000
00000000
00000100
00000000
00000000
00000001
00000000
00001000
00000000
00000010
00000000
00000100
00000000
00000001
00000000
,
00000010
00000000
00000000
00000010
00000000
00000000
00000100
00000000
00001000
00000000
00000100
00000000
00000010
00000000
00000001
00000000
,
00001000
00000000
00000000
00001000
00000000
00000000
00000010
00000000
00010000
00000000
00001000
00000000
01000000
00000000
00010000
00000000
,
10000000
00000000
00000000
10000000
00000000
00000000
00100000
00000000
01000000
00000000
00010000
00000000
10000000
00000000
01000000
00000000
,
02200000
00000000
00000000
03300000
,
10000000
00100000
00000000
01000000
00000000
00010000
01000000
00000000
00100000
01000000
00000000
00010000
01000000
00000000
00001000
00000000
,
00010000
00000100
00000000
00010000
00000000
00001000
00010000
00000000
00000010
00001000
00000000
00001000
00000100
00000000
00000010
00000000
,
00000100
00001000
00000001
00000100
00000010
00001000
00000001
00000010
,
00001000
00010000
00100000
10000000
00010000
01000000
00010000
10000000
,
01000000
00100000
00000000
01000000
00000000
00010000
01000000
00000000
00100000
00010000
00000000
01000000
00001000
00000000
00010000
00000000
,
00000100
00001000
00000000
00000010
00000000
00010000
00001000
00000000
00010000
00000100
00000000
00000100
00001000
00000000
00000010
00000000
,
00000100
00000000
00000000
00000000
00000001
00000010
00000001
00000000
00001001
00000000
00000000
00000000
00000100
00001000
00000100
00000000
,
00010100
00000000
00000000
00000000
00001000
00010000
00001000
00000000
01001000
00000000
00000000
00010000
00001000
00000000
01000000
00000000
,
00001000
00010000
00000000
00010000
00000000
00010000
00001000
00000000
01000000
00010000
00000000
00010000
10000000
00000000
01000000
00000000
,
00100000
00010000
00000000
00010000
00000000
00010000
01000000
00000000
00001000
00010000
00000000
00000010
00001000
00000000
00000100
00000000
,
00010000
00001000
00000100
00000010
00001000
00000010
00000100
00000001
,
00001000
00000100
00000010
00000001
00001000
00000010
00010000
00001000
,
01000000
00001000
00000000
00001000
00000000
00001000
00010000
00000000
00000100
00001000
00000000
00001000
00000010
00000000
00010000
00000000
,
00001000
01000000
00000000
01000000
00000000
01000000
00010000
00000000
00100000
01000000
00000000
10000000
00010000
00000000
01000000
00000000
,
00100000
00000000
00000000
00000000
10000000
00100000
10000000
00000000
10010000
00000000
00000000
00000000
00100000
00010000
00100000
00000000
,
00101000
00000000
00000000
00000000
00001000
00010000
00001000
00000000
00010010
00000000
00000000
00000000
00001100
00000000
00000000
00000000
,
00000110
00000100
00001000
00000001
00000100
00000010
00001000
00000001
,
00000010
00000100
00001000
00000010
00010000
00001000
01000000
00010000
,
00100000
01000000
00010000
00001000
00010000
00000100
00010000
00001000
,
01000000
00010000
01000000
00100000
00000000
10000000
00000000
01000000
,
00000000
00110000
00000000
00101000
00000000
00011000
00000000
01001000
,
00000000
00011000
00000000
00000010
00010000
00001000
00010000
00000100
,
00000010
00001001
00000000
00000110
00000000
00011000
00000000
01001000
,
00001000
00000000
00010000
00000000
00001000
00000000
01000000
00000000
00010000
00000000
10000000
00000000
01000000
00100000
01000000
00000000
,
10000000
00010000
00000000
01000000
00000000
00100000
01000000
00000000
00010000
01000000
00000000
10000000
01000000
00000000
00010000
00000000
,
01000000
00001000
00000000
00010000
00000000
00000100
00010000
00000000
00001000
00010000
00000000
00010000
00000100
00000000
00001000
00000000
,
00000100
00010000
00001000
00000010
00000001
00001000
00000010
00000100
,
00000001
00000100
00000010
00001000
00000100
00001000
00000010
00010000
,
00001000
00010000
00000000
00000100
00000000
00001000
00000010
00000000
00010000
00001000
00000000
01000000
00010000
00000000
01000000
00000000
,
00100000
01000000
00000000
00010000
00000000
10000000
01000000
00000000
00100000
00010000
00000000
00010000
00100000
00000000
00001000
00000000
,
00010000
00000000
00000000
00000000
00001000
01000000
00001000
00000000
01010000
00000000
00000000
00000000
00100000
10000000
00100000
00000000
,
10010000
00000000
00000000
00000000
01000000
00100000
01000000
00000000
00110000
00000000
00000000
00100000
00001000
00000000
00010000
00000000
,
00001000
01000000
00000000
01000000
00000000
01000000
00010000
00000000
00100000
00001000
00000000
00001000
00010000
00000000
00000010
00000000
,
00001000
00000100
00000000
00000100
00000000
00000100
00000010
00000000
00000001
00001000
00000000
00000010
00000100
00000000
00000001
00000000
,
00000200
00000000
00000010
00001000
00000310
00000000
00001010
00000000
,
00000200
00000000
00010000
00001000
00010300
00000000
00011000
00000000
,
00001000
01000000
00000000
00010000
00000000
01000000
00001000
00000000
00010000
00001000
00000000
01000000
00100000
00000000
10000000
00000000
,
01000000
00100000
00000000
00010000
00000000
01000000
00001000
00000000
00010000
00000100
00000000
00001000
00000100
00000000
00000010
00000000
,
00000002
00000000
00001000
00000100
00001003
00000000
00000110
00000000
,
00010000
00001000
01000000
00001000
00010000
00100000
10000000
01000000
,
01100000
00000000
00000000
00000000
;

//--------------- lights-cabinet - ----------------
#NOTES:
     lights-cabinet:
     :
     Easy:
     1:
     0.501,0.747,0.606,0.074,0:
00000000
00000000
00000000
00000000
,
10010000
01100000
10010000
01100000
,
10010000
01100000
10010000
01100000
,
10010000
01100000
10010000
01100000
,
10010000
01100000
10010000
01100000
,
10010000
01100000
10110000
01100000
,
11010000
01100000
10010000
01100000
,
10110000
01100000
10010000
01100000
,
10110000
01100000
22220000
33330000
,
10000000
10000000
00010000
01000000
,
00010000
01000000
00100000
00010000
,
10000000
10000000
01100000
10000000
,
10010000
01000000
00100000
10010000
,
10000000
00100000
10000000
00000000
10000000
00000000
01000000
00000000
,
10000000
01000000
10000000
00000000
10000000
01000000
10000000
00000000
,
10010000
00000000
01100000
00000000
,
01000000
00000000
00010000
00000000
10000000
10010000
10010000
00000000
,
00100000
00100000
10000000
00010000
,
10000000
00010000
00100000
00000000
00010000
00000000
01000000
00000000
,
00010000
01000000
00010000
00000000
10000000
01000000
10000000
00000000
,
10000000
01000000
10000000
00000000
00100000
00000000
10010000
00000000
,
00100000
01000000
00100000
10000000
,
00100000
10000000
00100000
01000000
,
00010000
11100000
00010000
11100000
00010000
11100000
00010000
11100000
,
01010000
11100000
00010000
11100000
10010000
11100000
00010000
11100000
,
10010000
00000000
01000000
00000000
00100000
00010000
00100000
00000000
,
01000000
00000000
10000000
00000000
00100000
01000000
00100000
00000000
,
10000000
00000000
00010000
00000000
00010000
01000000
00010000
00000000
,
10000000
00000000
00010000
00000000
01000000
00100000
01000000
00000000
,
00100000
00000000
00010000
00000000
10000000
01000000
10000000
00000000
,
00100000
00000000
01000000
00000000
00010000
10000000
01000000
00000000
,
00010000
00000000
10000000
00000000
00100000
10000000
10010000
00000000
,
10010000
00000000
20000000
30010000
,
00100000
10000000
01000000
00000000
00100000
00000000
00100000
00000000
,
00100000
00010000
01000000
00000000
00100000
00000000
00100000
00000000
,
00100000
00010000
10000000
00000000
01000000
00000000
01000000
00000000
,
01000000
00010000
00100000
00000000
01000000
00000000
01000000
00000000
,
01000000
10000000
00100000
00000000
00100000
00000000
00100000
00000000
,
01000000
10000000
00010000
00000000
00010000
00000000
00010000
00000000
,
00100000
10000000
01000000
00000000
01000000
00000000
01000000
00000000
,
00100000
00010000
01000000
00000000
10010000
00000000
00000000
00000000
,
10000000
01000000
00010000
10000000
,
00100000
00000000
10000000
00000000
00010000
00000000
10000000
00100000
,
01000000
00010000
00100000
00000000
00100000
00000000
00100000
00000000
,
01000000
10000000
00100000
00000000
00100000
00000000
00100000
00000000
,
01000000
00100000
10000000
00000000
00010000
00000000
00010000
00000000
,
01000000
00100000
10000000
00000000
00010000
00000000
01100000
00000000
,
10000000
00100000
01000000
00010000
,
10010000
00000000
01100000
00000000
10010000
00000000
10010000
10010000
,
10010000
10000000
01000000
01000000
,
10000000
00100000
10000000
00010000
,
01000000
00100000
10000000
00000000
10000000
00010000
00100000
00000000
,
00010000
01000000
00010000
10000000
01000000
00000000
10000000
00000000
,
00010000
00010000
10010000
10010000
,
00100000
00100000
01100000
01100000
,
22220000
00000000
00330000
33000000
00000000
00000000
00000000
00000000
,
00000000
00000000
00000000
00000000
,
00010000
10000000
01000000
10000000
,
00010000
00100000
00010000
10000000
,
00010000
00000000
10000000
00000000
10000000
00100000
10000000
00000000
,
10000000
00100000
10000000
00000000
01000000
00000000
10000000
00000000
,
00010000
10000000
00100000
01000000
,
00010000
10000000
01000000
10000000
,
00010000
01000000
00100000
10000000
,
00010000
10000000
00100000
10000000
00010000
00000000
10000000
00000000
,
10000000
00000000
00010000
00000000
00100000
00010000
10000000
00000000
,
00010000
00000000
10000000
00000000
00100000
10000000
00010000
00000000
,
10000000
00000000
00100000
00000000
01000000
00100000
10000000
00000000
,
00010000
10000000
00010000
00000000
00010000
00000000
10000000
00000000
,
00100000
00100000
01000000
01000000
,
10110000
00010000
10000000
11000000
,
10010000
01000000
00010000
11000000
,
10010000
00000000
11100000
00000000
10010000
00000000
00110000
10000000
,
10010000
00000000
00000000
00000000
;
