#TITLE:Fly Away;
#SUBTITLE:;
#ARTIST:Missing Heart;
#TITLETRANSLIT:;
#SUBTITLETRANSLIT:;
#ARTISTTRANSLIT:;
#GENRE:;
#CREDIT:;
#MUSIC:Fly Away.ogg;
#BANNER:Fly Away.png;
#BACKGROUND:Fly Away-bg.png;
#CDTITLE:;
#SAMPLESTART:69.580;
#SAMPLELENGTH:13.640;
#SELECTABLE:YES;
#OFFSET:-3.555;
#BPMS:0.000=137.997;
#STOPS:;
#DISPLAYBPM:138.000;
#BGCHANGES:;
#FGCHANGES:;

//--------------- dance-single - M. Puls ----------------
#NOTES:
     dance-single:
     M. Puls:
     Beginner:
     1:
     0.077,0.133,0.015,0,0:
0000
0000
0000
0000
,
0000
0000
0000
0000
,
0000
0000
0000
0000
,
0000
0000
0000
0000
,
0000
0000
0000
0000
,
0001
0000
0000
0000
,
0001
0000
0000
0000
,
1000
0000
0000
0000
,
1000
0000
0000
0000
,
0001
0000
0000
0000
,
0010
0000
0000
0000
,
0001
0000
0000
0000
,
1000
0000
0000
0000
,
0010
0000
0000
0000
,
1000
0000
0000
0000
,
0100
0000
0000
0000
,
0010
0000
0000
0000
,
0001
0000
0000
0000
,
1000
0000
0000
0000
,
0100
0000
0000
0000
,
0010
0000
0000
0000
,
0001
0000
0000
0000
,
0001
0000
0000
0000
,
0010
0000
0000
0000
,
0100
0000
0000
0000
,
1000
0000
0000
0000
,
0100
0000
0000
0000
,
0010
0000
0000
0000
,
0001
0000
0000
0000
,
1001
0000
0000
0000
,
0000
0000
0000
0000
,
0000
0000
1000
0000
,
0000
0000
1000
0000
,
0000
0000
0001
0000
,
0000
0000
0001
0000
,
0000
0000
0010
0000
,
0000
0000
0100
0000
,
0001
0000
0001
0000
,
1000
0000
0000
0000
,
1000
0000
0000
0000
,
0001
0000
0000
0000
,
0001
0000
0000
0000
,
1000
0000
1000
0000
,
0001
0000
0001
0000
,
1000
0000
0000
0000
,
1000
0000
0000
0000
,
0001
0000
0000
0000
,
0100
0000
0000
0000
,
0100
0000
0000
0000
,
0000
0000
0001
0000
,
0001
0000
0000
0000
,
1000
0000
0000
0000
,
0100
0000
0000
0000
,
0010
0000
0000
0000
,
0001
0000
0000
0000
,
1000
0000
0000
0000
,
0001
0000
0000
0000
,
0001
0000
0000
0000
,
0100
0000
0000
0000
,
0010
0000
0010
0000
,
0010
0000
0000
0000
,
0100
0000
0000
0000
,
0001
0000
0000
0000
,
0100
0000
0000
0000
,
0010
0000
0000
0000
,
1000
0000
0000
0000
,
0100
0000
0000
0000
,
0010
0000
0000
0000
,
0001
0000
0000
0000
,
0100
0000
0000
0000
,
1001
0000
0000
0000
;

//--------------- dance-single - K. Ward ----------------
#NOTES:
     dance-single:
     K. Ward:
     Easy:
     3:
     0.136,0.213,0.023,0,0:
0000
0000
0000
0000
,
0000
0000
0000
0000
,
0000
0000
0000
0000
,
0000
0000
0000
0000
,
0000
0000
0000
0000
,
0001
0000
0000
0000
,
1000
0000
0010
0000
,
1000
0000
0010
0000
,
1000
0000
0001
0000
,
1000
0000
0001
0000
,
0100
0000
0001
0000
,
0010
0000
0001
0000
,
1000
0000
0001
0000
,
1000
0000
0001
0000
,
0001
0000
0000
0000
,
0100
0000
0000
0000
,
0010
0000
0000
0000
,
1000
0000
0000
0000
,
1000
0000
0000
0000
,
0100
0000
0000
0000
,
1000
0000
0000
0000
,
0010
0000
1000
0000
,
1000
0000
0000
0000
,
1000
0000
0010
0000
,
0100
0010
0000
0000
,
1000
0000
0010
0000
,
0100
0100
0000
0000
,
0010
0000
0100
0000
,
0001
1000
0001
0000
,
1001
0000
0000
0000
,
1000
0000
0000
0000
,
0001
0000
0100
0100
,
0010
0000
0000
0000
,
1000
0000
0001
0000
,
1000
0000
0000
0000
,
0000
0000
0010
0010
,
0100
0000
0000
0000
,
0001
0000
1000
0000
,
0010
0010
0100
0100
,
0001
0000
1000
0000
,
0010
0100
0010
0000
,
1000
1000
0001
0001
,
0010
0000
0001
0000
,
1000
0000
0100
0000
,
1000
0000
0010
0010
,
0100
0000
0001
0000
,
1001
0000
0000
0000
,
0000
0000
0100
0000
,
1000
0000
0100
0000
,
0001
0000
0010
0000
,
0001
0000
0000
0000
,
0001
0000
0100
0000
,
1000
0000
0000
0000
,
0100
0000
0001
0000
,
1000
0000
0001
0000
,
1000
0000
1000
1000
,
0010
0000
0100
0000
,
0001
0000
1000
1000
,
0010
0000
0000
0000
,
0010
0100
0001
1000
,
0001
0000
0000
0000
,
1000
0000
0010
0000
,
0100
0000
0001
0000
,
0010
0000
0100
0000
,
0010
0000
0001
0000
,
1000
0000
0010
0010
,
0100
0000
0000
0000
,
0100
0000
0000
0000
,
1000
0000
0100
0000
,
0001
0000
0010
0000
,
1001
0000
0000
0000
;

//--------------- dance-single - K. Ward ----------------
#NOTES:
     dance-single:
     K. Ward:
     Medium:
     7:
     0.304,0.356,0.084,0.068,0:
0000
0000
0000
0000
,
0000
0000
0000
0000
,
0000
0000
0000
0000
,
0000
0000
0000
0000
,
0000
0000
0000
0000
,
0001
0000
0100
0000
,
0001
0001
0100
0010
,
1000
0100
1000
0000
0010
0000
0010
0000
,
0100
0000
0001
0000
1000
0100
1000
0000
,
1000
0001
0100
0010
,
1000
0100
1000
0000
0100
0000
0100
0000
,
1000
0010
1000
0000
0010
0000
0010
0000
,
1000
0100
1000
0000
1000
0010
1000
0000
,
0001
0000
0000
0000
0000
0000
0000
0000
0000
0000
0000
0000
0000
0000
0000
0000
0000
0000
0000
0000
0000
0000
0000
0000
0001
0000
0000
0000
0000
0000
0000
0000
0000
0000
0000
0000
0000
0000
0000
0000
0000
0000
0000
0000
0000
0000
0000
0000
0200
0000
0000
0000
0000
0000
0000
0000
0000
0000
0000
0000
0000
0000
0000
0000
0000
0000
0000
0000
0000
0000
0000
0000
0000
0300
0000
0000
0000
0000
0000
0000
0000
0000
0000
0000
0000
0000
0000
0000
0000
0000
0000
0000
0000
0000
0000
0000
,
0001
1000
0010
1000
,
1000
0001
0010
0100
,
1000
0001
0100
0010
,
1000
0000
0001
0000
0100
0001
0100
0000
,
0001
0100
0010
1000
,
1000
0001
0010
0100
,
1000
0001
0100
0010
,
1000
0000
0001
0000
0010
0001
0100
0000
,
0000
1100
0000
0110
,
0000
0011
0000
1001
,
1000
0001
1000
0000
0000
0000
0000
0000
,
1000
1100
0001
0110
,
0100
0010
0100
0000
0000
0000
0000
0000
,
1000
0011
0000
0110
,
0001
1000
0001
0000
0000
0000
0100
0000
,
0110
0000
0000
0000
,
2000
0000
0000
3000
,
0000
0010
1000
0000
,
0002
0000
0000
0003
,
0100
0010
1000
0000
0010
0100
0001
0000
,
0200
0000
0000
0000
,
0300
0000
0010
1000
,
0002
0000
0003
0100
,
0010
0000
0110
0000
,
0001
0010
0001
0000
0010
0000
0001
0000
,
0100
0010
1000
0000
1000
0000
1000
0000
,
0001
0010
0001
0000
0100
0010
0100
0000
,
0001
0100
0001
0100
0001
0000
1000
0000
,
2000
0000
0000
0000
,
3000
0000
0001
0100
,
0001
0001
0100
0100
,
0010
1000
0010
1000
,
0001
0010
0001
0000
0010
0000
0001
0000
,
1000
0100
1000
0000
0010
0000
0100
0000
,
0001
0010
0001
0000
1000
0100
1000
0000
,
1000
0000
0010
0000
0100
0010
0100
0000
,
0001
0001
0100
0100
,
0010
0010
1000
1000
,
0020
0000
0000
0130
,
0002
0000
1003
0000
,
0100
1000
0010
0000
0100
0000
0100
0000
,
0001
0010
0001
0000
0100
0000
0100
0000
,
0010
0100
0010
0000
1000
0000
0001
0000
,
0100
0010
0100
0010
,
1000
0100
1000
0000
0100
0000
0100
0000
,
1000
0001
1000
0001
1000
0001
1000
0000
,
0010
0000
0000
0100
,
0001
0001
0100
0100
,
0001
0010
0001
0000
0010
0000
0010
0000
,
1000
0100
1000
0000
0010
0000
0010
0000
,
0001
0010
0001
0000
1000
0100
1000
0000
,
0010
1000
0010
0100
,
0001
0010
0001
0000
0010
0000
0001
0000
,
0100
0010
1000
0000
0010
0000
0100
0000
,
0001
0010
0001
0000
0010
0001
0010
0000
,
0001
1000
0010
0010
,
2100
0000
0010
0000
,
0100
0000
0010
0000
,
3100
0000
0000
0000
;

//--------------- dance-single - K. Ward ----------------
#NOTES:
     dance-single:
     K. Ward:
     Hard:
     10:
     0.414,0.465,0.152,0.183,0.084:
0000
0000
0000
0000
,
0000
0000
0000
0000
,
0000
0000
0000
0000
,
0000
0000
0000
0000
,
0000
0000
0000
0000
,
2000
0000
3001
0000
,
0010
1000
0100
0000
0010
0001
1000
0000
,
0100
0000
1000
0000
0100
0010
0000
0010
0100
0000
1000
0000
0100
0000
0000
0000
,
0010
0001
1000
0000
0010
0100
1000
0000
,
0100
0000
0010
0000
1000
0100
0000
0100
0010
0000
0100
0000
1000
0000
0000
0000
,
0010
0100
0001
0010
0100
1000
0100
0000
,
0010
0100
1000
0010
0100
0001
0010
0000
,
0001
1000
0100
0000
0010
0001
0100
0000
,
0010
0100
0001
0010
0100
0010
0001
0000
,
2000
0000
3100
0000
,
0002
0000
0000
0000
0013
0000
0000
1000
,
0200
0000
0310
0000
,
0200
1000
0010
1300
,
0002
0000
0013
0000
,
2000
0000
0000
0000
3100
0000
0000
0001
,
0020
0000
0031
0000
,
1000
0100
0010
0100
0010
0000
1001
0000
,
0200
0010
0000
1000
,
0000
0010
0000
1300
,
0100
0010
1001
0000
0000
0000
0021
0000
,
0000
0100
0000
0001
,
0000
0100
0001
0130
,
1001
0010
1001
0100
,
0010
0100
0001
0010
0100
1000
0100
0000
,
0011
0100
0000
0010
,
2002
0000
0000
0000
,
3003
0000
0100
0010
1000
0000
0100
0000
,
0020
0000
0030
0000
,
1000
0100
0010
0001
1000
0100
0010
0001
,
0100
0010
0200
0000
0000
0000
0000
0000
,
0000
0000
1000
0310
,
2002
0000
3003
0000
,
0100
0010
1000
0000
0100
0010
0100
0000
,
1001
0100
0010
0000
0100
0001
0010
0000
,
0100
0000
0010
0000
0100
1000
0000
1000
0100
0000
0010
0000
0100
0000
0000
0000
,
0010
0001
0100
0000
0010
0100
1000
0000
,
0100
0000
0010
0000
1000
0100
0000
0100
0010
0000
0100
0000
1000
0000
0000
0000
,
1010
0100
0001
0000
0011
0100
1000
0000
,
0100
0000
0010
0000
1000
0100
0000
0100
0010
0000
0100
0000
1000
0000
0000
0000
,
0020
0000
0030
0000
,
1000
0001
0001
1000
,
0100
0010
0001
0000
0100
0010
1000
0000
,
0100
0000
0010
0000
0001
0100
0000
0100
0010
0000
1000
0000
0100
0000
0000
0000
,
0010
0100
1000
0000
0010
0100
1000
0000
,
0100
0000
0010
0000
0100
0010
0000
0010
0100
0000
0000
0000
1001
0000
0000
0000
,
0010
0100
1000
0100
0010
0000
0011
0000
,
0100
0010
0001
0010
0100
0000
1001
0000
,
0020
0130
0200
0310
,
0001
1000
1000
0001
,
0100
0100
1000
0000
0100
0100
0010
0000
,
1000
0000
0100
0000
1000
0100
0000
0100
0010
0000
0001
0000
0010
0000
0000
0000
,
0001
0001
0010
0000
0100
0100
0010
0000
,
0001
0000
1000
0000
0100
0010
0000
0010
0100
0000
0010
0000
0100
0000
0000
0000
,
1001
0100
1000
0000
0101
0010
0001
0000
,
0100
0010
1000
0010
0100
0010
1000
0100
,
0020
0000
0030
0000
,
0100
0011
0100
1001
,
0010
0100
1000
0000
0100
0010
1000
0000
,
0100
0000
0010
0000
0100
0010
0000
0010
0100
0000
0000
0000
1010
0000
0000
0000
,
0100
0010
0001
0000
0010
0100
1000
0000
,
0100
0000
0010
0000
0100
0010
0000
0010
0100
0000
0000
0000
1001
0000
0000
0000
,
0100
0010
1000
0010
0100
0010
1000
0010
,
0100
0001
0010
0001
0100
0001
0010
0001
,
1000
0100
0010
0100
1000
0100
0010
0100
,
0010
0001
0100
0010
0100
0001
0010
0000
,
0002
0000
0203
0000
,
0320
0000
2030
0000
,
3000
0000
0000
0000
;

//--------------- dance-single - M. Puls ----------------
#NOTES:
     dance-single:
     M. Puls:
     Challenge:
     14:
     0.678,0.771,0.304,0.319,0.388:
0000
0000
0000
0000
,
0000
0000
0000
0000
,
0000
0000
0000
0000
,
0000
0000
0000
0000
,
0000
0000
0000
0000
,
0020
0000
0000
0000
0000
0000
0000
0030
2200
0000
0000
0000
0000
0000
3300
0000
,
1000
0000
0010
0000
1000
0001
1000
0000
0010
0000
0100
0000
0010
1000
0001
0000
,
1000
0000
1000
0000
0001
0000
0001
0000
0010
0000
0100
0000
1000
0001
0000
0000
,
0001
0000
0100
0000
0001
1000
0001
0000
0100
0000
0010
0000
0100
0001
0010
0000
,
0001
0000
0001
0000
0001
0000
1000
0000
0100
0000
0010
0000
0001
0100
0010
0000
,
1000
0000
0010
0000
1000
0001
1000
0000
0010
0000
0100
0000
0010
1000
0001
0000
,
1000
0000
1000
0000
0001
0000
0001
0000
0010
0000
0100
0000
1000
0001
0010
0000
,
0001
0000
0100
0000
0001
1000
0001
0000
0100
0000
0010
0000
0100
0001
1000
0000
,
0001
0001
0100
0010
1000
0100
1100
0000
,
1000
0001
0000
0000
0011
0000
0000
0000
0010
0100
0000
0000
1100
0000
0000
0000
,
1000
0100
0000
0000
0110
0000
0000
0000
0010
0001
0000
0000
0110
0000
0001
0100
,
0001
0000
0000
0000
0110
0000
1000
0100
1000
0000
0000
0000
0110
0000
0001
0010
,
0001
0000
0000
0000
0110
0000
1000
0010
1000
0000
0001
1000
0010
0000
0100
0000
,
0001
1000
0000
0000
1100
0000
0000
0000
0100
0010
0000
0000
0011
0000
0000
0000
,
0001
0010
0000
0000
0110
0000
0000
0000
0100
1000
0000
0000
0110
0000
1000
0010
,
1000
0000
0000
0000
0110
0000
0001
0010
0001
0000
0000
0000
0110
0000
1000
0100
,
1000
0000
0000
0000
0110
0000
0001
0100
0001
0000
1000
0001
0100
0000
0010
0000
,
1000
0000
0100
1000
0200
0000
0000
0000
1300
0000
0010
0100
0020
0000
0000
0000
,
0130
0000
0001
0010
0002
0000
0000
0000
0013
0000
0001
0100
0010
0000
0010
0000
,
1000
0000
0100
1000
0200
0000
0000
0000
1300
0000
0001
0010
0002
0000
0000
0000
,
1003
1000
1100
0000
0010
0010
0110
0000
,
1000
0000
0001
1000
0200
0000
1000
0000
1300
0000
0001
0010
0002
0000
1000
0000
,
1003
0100
1000
0100
2000
0000
0001
0000
3001
0010
0001
0010
0002
0000
1000
0003
,
1100
0000
1000
0000
0110
0000
0010
0000
0100
0001
0100
0010
1000
0000
0001
0000
,
0020
0000
0200
0000
0300
0000
0200
0030
,
2300
0001
0001
0000
3010
0001
0001
0000
,
0100
0000
0100
0000
0020
0000
0000
0000
1030
0000
0100
0000
0010
0000
0001
0010
,
0001
0100
0020
0000
1030
0010
0200
0000
,
0301
0000
0010
0000
0001
0000
0100
0010
1000
0000
0100
0000
1000
0000
0010
0000
,
0010
0100
0020
0000
1030
0100
1100
0000
,
M010
0100
0002
0000
0103
0010
0110
0000
,
100M
0010
0100
0001
1000
0100
0010
0100
,
0110
0000
0000
0MM0
0000
0000
0000
0000
0011
0000
0000
00MM
0000
0000
0000
0000
,
M010
0000
1000
0000
0001
1000
0010
0000
0100
0010
1000
0000
0002
0000
1003
0010
,
010M
0000
0001
0000
1000
0100
1000
0000
0010
0000
0100
0001
1000
0000
0010
0000
,
0100
0000
0010
0000
1000
0001
1000
0000
0010
0000
0100
0000
0010
1000
0001
0000
,
1000
1000
1000
0001
0010
0100
1100
0000
,
0001
0010
0001
0000
0010
0000
0010
0000
0001
0010
0001
0000
0010
0000
0010
0000
,
0100
1000
0100
0000
1000
0000
1000
0000
0010
0100
0010
0000
0100
0000
0100
0000
,
0001
0000
0010
0001
0100
0000
0010
0000
1000
0000
0100
0010
0001
0000
0100
0000
,
0010
0000
0100
0000
0001
0010
0001
0000
0100
0000
0010
0000
1000
0100
1000
0000
,
0010
0010
0010
1000
0010
0100
0001
0010
,
0001
0000
0100
0000
0001
1000
0001
0000
0100
0000
0010
0000
0100
0001
1000
0000
,
0001
0001
0001
1000
0100
0010
0001
1000
,
2000
0000
0100
0000
3200
0010
0010
0000
,
0310
0001
0010
0100
0000
1000
0100
0010
,
0002
0000
0100
0000
1003
0100
0010
0001
,
0200
0010
1000
0310
,
2000
0010
3002
0103
,
1000
0000
0010
0000
1000
0001
1000
0000
0010
0000
0100
0000
0010
1000
0001
0000
,
1000
0000
1000
0100
1000
0000
0001
0000
0010
0000
0100
0000
1000
0001
0000
0000
,
0001
0000
0100
0000
0001
1000
0001
0000
0100
0000
0010
0000
0100
0001
1000
0000
,
0001
0000
0001
0010
0001
0000
1000
0000
0100
0000
0010
0000
0001
1000
0000
0000
,
1000
0100
1000
0000
0100
0000
0100
0000
1000
0100
1000
0000
0010
0000
0100
0000
,
0001
0010
0001
0000
0010
0000
0010
0000
0001
0010
0001
0000
0010
0000
0001
0000
,
0100
0000
0010
1000
0100
0000
1000
0000
0010
0000
0100
0010
0100
0000
0001
0000
,
0011
0000
0000
0000
0110
0000
0000
0000
1100
0000
0000
0000
0000
MM00
0000
0000
1100
0000
0000
0000
0110
0000
0000
0000
0011
0000
0000
0000
0000
00MM
0000
0000
,
1000
0000
0001
0000
1000
0000
0000
0000
1100
0000
0100
0000
0010
0001
0000
0000
,
1001
0000
0000
0000
0011
0000
1000
0000
0010
0000
1000
0000
0100
1000
0000
0000
,
0010
0000
1000
0000
0110
0000
1000
0100
1000
0000
0001
0000
0011
0000
0100
0010
,
1000
0000
0010
0000
0110
0000
0100
0010
1000
0000
0001
0000
0110
0000
0001
0010
,
0001
0000
1000
0000
0110
0000
0000
0000
1000
0100
0010
0000
0100
0010
0001
0000
,
0100
0000
0010
0000
0100
0000
0000
0000
0001
0010
0100
0000
0010
0100
1000
0000
,
1000
0100
0010
0002
0100
0103
1001
0000
,
1000
0001
0010
0001
0010
0000
0001
0000
1000
0100
1000
0100
1000
0000
0010
0000
,
2000
0000
3000
0200
M000
0300
2000
0M00
3020
0000
M030
0200
00M0
0300
0020
0M00
,
2030
0000
30M0
0020
M000
0030
0200
00M0
0302
0000
0M03
0020
000M
0030
0002
00M0
,
0203
000M
0000
0300
0000
0000
0000
0000
;

//--------------- dance-double - M. Emirzian ----------------
#NOTES:
     dance-double:
     M. Emirzian:
     Easy:
     3:
     0.219,0.27,0.091,0.053,0:
00000000
00000000
00000000
00000000
,
00000000
00000000
00000000
00000000
,
00001000
00000000
00000000
00000000
,
00000010
00000000
00000000
00000000
,
00000001
00000000
00000100
00000000
,
00000010
00000000
00010000
00000000
,
00001000
01000000
00010000
01000000
,
00000000
00100000
10000000
00000000
,
01000000
00100000
00001000
00010000
,
00000000
00000010
00000100
00000000
,
00000010
00001000
00000001
00000100
,
00000000
00000100
00000010
00000000
,
00010100
00010000
00010000
00001000
,
00010000
00100000
10000000
01000000
,
00100000
00000000
00001000
00000000
,
00010000
00000100
00001000
00001000
,
00000010
00000000
00000200
00000010
,
00000000
00000310
00000000
00000010
,
00010000
00000000
00001000
00000000
,
00010000
00010000
00000000
00001000
,
01000000
00000000
00010000
00100000
,
01000000
10000000
00100000
00000000
,
01010000
01000000
01000000
00000000
,
00001000
00011000
00100000
00100000
,
00001000
00000000
00010100
00010000
,
00010000
00001000
00000010
00000000
,
00000001
00000100
00000000
00000100
,
00000010
00000010
00001000
00000100
,
00010100
00001000
00000000
00010000
,
00001000
00000000
01000000
00000000
,
01000000
00000000
00000000
00000000
,
00100000
00000000
00000000
00000000
,
10000000
00000000
01000000
00000000
,
10000000
00000000
00100000
00000000
,
00010000
00001000
00000000
00010000
,
00000100
00001000
00000010
00000000
,
00001000
00000100
00000001
00000000
,
00000100
00000000
00001000
00000000
,
00000010
00000000
00000100
00000001
,
00001000
00000000
00000010
00010000
,
00011000
00001000
01000000
00000000
,
00010000
00100000
00100000
01000000
,
10000000
00100000
00000000
00000000
,
01000000
00010000
00010000
00100000
,
00001000
00000000
00010100
00010000
,
00001000
00000000
00000100
00000000
,
00000001
00000100
00000010
00000000
,
00010100
00010000
00010000
00001000
,
01000000
00000000
00010000
00000000
,
10000000
00000000
01000000
00000000
,
00100000
00010000
00100000
00000000
,
00001000
00010000
00001000
00010100
,
00001000
00000000
00000001
00000000
,
00000100
00000000
00000010
00000000
,
00010000
00000000
00010100
00000000
,
00010000
00000000
00000010
00001000
,
00000100
00000000
00010000
00000000
,
01001000
00000000
01000000
00010000
,
00100000
00000000
01000000
10000000
,
00010000
00000000
00100000
00001000
,
00010000
00000000
00001000
00000000
,
00000100
00000001
00000010
00000000
,
00000200
00000000
00010000
00000000
,
00010300
00000000
00002000
00000000
,
00100000
00000000
00103000
00000000
,
00020000
00000000
10000000
00000000
,
10030000
00000000
00200000
00000000
,
01000000
00000000
01300000
00000000
,
00001000
00010000
00000100
00000000
,
00000010
00000001
00000100
00000010
,
00002002
00000000
00000000
00000000
,
00003003
00000000
00000000
00000000
;

//--------------- dance-double - M. Emirzian ----------------
#NOTES:
     dance-double:
     M. Emirzian:
     Medium:
     5:
     0.269,0.297,0.061,0.046,0:
00000000
00000000
00000000
00000000
,
00000000
00000000
00000000
00000000
,
00000010
00000000
00001000
00000000
,
00010000
00000000
00100000
10000000
,
01000000
00000000
00110000
00001000
,
00010000
00000000
00000000
00000000
00001000
00000100
00000001
00000000
,
00000010
00000100
00001000
00000010
,
00000100
00000000
00000001
00000000
00000100
00000001
00000010
00000000
,
00000100
00000000
00010000
00000000
,
00001000
00000000
00010100
00000000
00010000
00001000
00000100
00000000
,
00001000
00010000
00100000
00010000
,
00001000
00010000
01000000
10000000
,
01000000
10000000
00100000
00000000
01000000
00000000
00010000
00000000
,
00100000
01000000
00010000
00001000
,
00010000
00000000
00000000
00000000
00000100
00000000
00001000
00000010
,
00000100
00000000
00000001
00000100
,
00001010
00000000
00000100
00000000
00000010
00000000
00000001
00000100
,
00000010
00010000
00001000
00000010
,
00001000
00010000
00100000
10000000
,
01000000
00000000
00110000
00000000
01000000
00100000
10000000
00000000
,
01000000
00100000
00001000
00010000
,
01000000
00010000
00001000
00000000
00000000
00000000
00010000
00000000
,
00000100
00000000
00001000
00000000
,
00000010
00000000
00000100
00000001
,
00000010
00000000
00000100
00000000
,
00010000
00001000
01001000
01000000
,
00100000
00000000
10000000
01000000
,
00100000
00000000
00001000
00010000
,
00000100
00000000
00000010
00000000
,
00000100
00000100
00000100
00000000
,
00000200
00000000
00000000
00000300
,
00000020
00000000
00000002
00000030
,
00002000
00000003
00000000
00003000
,
00000010
00000000
00000100
00000000
00001000
00010000
00001000
00000000
,
01000000
00010000
00100000
01000000
,
10000000
00100000
01000000
00010000
,
01000000
00000000
01000000
00000000
,
00001000
00000000
00001000
00000000
,
00010000
00100000
00010000
00001000
,
00000010
00000000
00000001
00000000
00000100
00000010
00001000
00000000
,
00000100
00000010
00000001
00001000
,
00000010
00000000
00000100
00000000
00001000
00010000
01000000
00000000
,
00010000
01000000
10000000
00100000
,
01000000
00010000
00100000
00000000
01000000
00000000
00000000
00000000
,
01000000
00000000
00100000
00000000
,
00100000
00000000
00001000
00000000
,
00010000
00001000
00000100
00000010
,
00001000
00000000
00000100
00000000
00000001
00000100
00001000
00000000
,
00000010
00000100
00000001
00000010
,
00000100
00010000
00001000
00000010
,
00001000
00000000
00010000
00000000
,
00001000
00000000
00010000
00000000
,
00100000
10000000
01000000
00110000
,
01000000
01000000
00100000
00100000
,
10000000
01000000
00010000
00001000
,
00010000
00000000
00001000
00000000
00000100
00000001
00000010
00000000
,
00000100
00001000
00000010
00001000
,
00000001
00000000
00000100
00000000
00001000
00010000
00100000
00000000
,
00010000
00000000
00001000
00000000
,
00010000
00000000
00001000
00000000
,
00010000
00100000
10000000
00010000
,
01010000
00100000
00100000
01000000
,
01000000
00000000
01000000
00000000
,
00100000
00000000
00001000
00010000
,
01000000
00000000
00010000
00000000
,
00001000
00000010
00000001
00000100
,
00000010
00000000
00000000
00000000
,
00001000
00000000
00000100
00000000
,
00000010
00000001
00000100
00001000
,
00010000
00000000
00100000
00000000
10000000
01000000
00010000
00000000
,
20020000
00000000
00000000
00000000
,
30030000
00000000
00000000
00000000
;

//--------------- dance-double - M. Emirzian ----------------
#NOTES:
     dance-double:
     M. Emirzian:
     Hard:
     7:
     0.431,0.459,0.076,0.144,0.198:
00000000
00000000
00000000
00000000
,
00000000
00000000
00000000
00000000
,
00200000
00000000
20300000
00000000
,
31000000
00010000
00001000
00000100
,
00000001
00000000
00000010
00000100
,
00002000
00000000
00003002
00000000
,
00000103
00000000
00000001
00000000
00000010
00000000
00000000
00000100
00000000
00000000
00000010
00000000
00000100
00000000
00000000
00010000
,
00000000
00000000
00000010
00000000
00010000
00000000
00000000
00001000
00000000
00000000
00010000
00000000
01000000
00000000
00000000
00010000
,
00000000
00000000
01000000
00000000
10000000
00000000
00000000
00100000
00000000
00000000
01000000
00000000
00100000
00000000
00000000
00010000
,
00000000
00000000
00100000
00000000
00010000
00000000
00000000
00001000
00000000
00000000
00100000
00000000
00001000
00000000
00000000
00010000
,
00000000
00000000
00001000
00000000
00000100
00000000
00000000
00001000
00000000
00000000
00000100
00000000
00000010
00000000
00000000
00001000
,
00000000
00000000
00000001
00000000
00000010
00000000
00000000
00000100
00000000
00000000
00000010
00000000
00000100
00000000
00000000
00010000
,
00000000
00000000
01000000
00000000
10000000
00000000
00000000
00010000
00000000
00000000
01000000
00000000
00100000
00000000
00000000
01000000
,
00000000
00000000
00001000
00000000
00010000
00000000
00000000
00000100
00000000
00000000
00000010
00000000
00000100
00000000
00000000
00000000
,
00000100
00000000
00000000
00000101
00000000
00000000
00000000
00000000
00000100
00000000
00000000
00001100
00000000
00000000
00000000
00000000
,
00010000
00000000
00000000
00011000
00000000
00000000
00000000
00000000
00100000
00000000
00000000
00110000
00000000
00000000
00000000
00000000
,
00002000
00023000
00230000
00320000
,
00031000
01000000
00100000
00000000
10000000
00000000
01000000
00000000
,
10000000
00000000
00000000
11000000
00000000
00000000
00000000
00000000
01000000
00000000
00000000
01010000
00000000
00000000
00000000
00000000
,
00010000
00000000
00000000
00011000
00000000
00000000
00000000
00000000
00001000
00000000
00000000
00110000
00000000
00000000
00000000
00000000
,
00022000
00030000
00000000
00000000
00000000
00000000
00000000
00000000
00000000
00000000
00000000
00000000
00000000
00000000
00000000
00000000
00000000
00000000
00000000
00000000
00000000
00000000
00000000
00000000
00000000
00000000
00000000
00000000
00000000
00000000
00000000
00000000
00000000
00000000
00000000
00000000
00000000
00000000
00000000
00000000
00000000
00000000
00000000
00000000
00000000
00000000
00000000
00000000
00023000
00000000
00000000
00000000
00000000
00000000
00000000
00000000
00000000
00000000
00000000
00000000
00000000
00000000
00000000
00000000
00000000
00000000
00000000
00000000
00000000
00000000
00000000
00000000
00000000
00000000
00000000
00000000
00000000
00000000
00000000
00000000
00000000
00000000
00000000
00000000
00000000
00000000
00000000
00000000
00000000
00000000
00000000
00000000
00000000
00000000
00000000
00000000
00230000
00000000
00000000
00000000
00000000
00000000
00000000
00000000
00000000
00000000
00000000
00000000
00000000
00000000
00000000
00000000
00000000
00000000
00000000
00000000
00000000
00000000
00000000
00000000
00000000
00000000
00000000
00000000
00000000
00000000
00000000
00000000
00000000
00000000
00000000
00000000
00000000
00000000
00000000
00000000
00000000
00000000
00000000
00000000
00000000
00000000
00000000
00000000
00320000
00000000
00000000
00000000
00000000
00000000
00000000
00000000
00000000
00000000
00000000
00000000
00000000
00000000
00000000
00000000
00000000
00000000
00000000
00000000
00000000
00000000
00000000
00000000
00000000
00000000
00000000
00000000
00000000
00000000
00000000
00000000
00000000
00000000
00000000
00000000
00000000
00000000
00000000
00000000
00000000
00000000
00000000
00000000
00000000
00000000
00000000
00000000
,
00031000
01000000
00100000
00000000
10000000
00000000
01000000
00000000
,
00100000
00010000
01000000
00000000
00001000
00000000
00010000
00001000
,
00100000
00000000
00010000
01000000
00100000
00000000
01000000
00001000
,
00010000
00000100
00010000
00000000
00000001
00000000
00000010
00000100
,
00001000
00000000
00000001
00000100
00001000
00000000
00000100
00000010
,
00010000
00001000
00010000
00000000
00100000
00000000
10000000
00000000
,
00010000
00000000
00100000
01000000
10000000
00000000
01000000
00100000
,
00010000
01000000
00001000
00000000
00010000
00000000
00001000
00000000
,
00000100
00000001
00000000
00000010
,
00000001
00000100
00000010
00000000
00000100
00000000
00000010
00000000
,
00000100
00000000
00001000
00000000
00010000
00001000
01000000
00001000
,
00010000
01000000
00100000
01000000
,
10000000
00100000
00010000
00000000
00100000
10000000
01000000
00000000
,
10000000
01000000
00010000
00000000
00001000
00000000
00000010
00000000
,
00000100
00000000
00000010
00000000
00000001
00000100
00001000
00000000
,
00000100
00000000
00000010
00000000
00000100
00000000
00001000
00010000
,
00200000
00000000
20300000
00000000
,
31000000
00000000
00100000
00000000
00010000
00000000
00000000
10000000
00000000
00000000
00100000
00000000
00010000
00000000
00000000
00100000
,
00000000
00000000
01000000
00000000
00001000
00000000
00000000
00010000
00000000
00000000
00000100
00000000
00001000
00000000
00000000
00000010
,
00000000
00000000
00001000
00000000
00000100
00000000
00000000
00000010
00000000
00000000
00000001
00000000
00000100
00000000
00000000
00000010
,
00000000
00000000
00010000
00000000
00001000
00000000
00000000
01000000
00000000
00000000
00100000
00000000
10000000
00000000
00000000
01000000
,
00000000
00000000
00100000
00000000
01000000
00000000
00000000
00100000
00000000
00000000
00001000
00000000
00010000
00000000
00000000
00000100
,
00000000
00000000
00010000
00000000
00001000
00000000
00000000
00000100
00000000
00000000
00000001
00000000
00000010
00000000
00000000
00000100
,
00000000
00000000
00001000
00000000
00000001
00000000
00000000
00000010
00000000
00000000
00000100
00000000
00010000
00000000
00000000
00001000
,
00000000
00000000
00100000
00000000
00010000
00000000
00000000
01000000
00000000
00000000
00100000
00000000
01000000
00000000
00010000
00000000
,
00100000
01000000
00100000
00010000
10000000
00000000
10000000
00100000
,
00010000
00000000
00001000
00000000
00010000
00001000
00010000
00001000
,
00000010
00000001
00000100
00000010
00000100
00000000
00000100
00000001
,
00000010
00000000
00000100
00000000
00000010
00000100
00001000
00000010
,
00010000
00000000
00001000
00010000
01000000
00000000
10000000
00000000
,
00100000
01000000
00001000
00010000
00000010
00000000
00010000
00001000
,
00000100
00000001
00000010
00000100
,
00002000
00000000
00003002
00000000
,
00000103
00000010
00001000
00000001
00000100
00000010
00010000
00001000
,
01000000
00100000
10000000
01000000
00010000
01000000
00100000
00001000
,
00010000
00000100
00001000
00000010
00000100
00001000
00000100
00000010
,
00001000
00000000
00000100
00000000
00010000
00000000
00001000
00010000
,
00100000
01000000
00001000
00010000
,
01000000
10000000
00100000
01000000
00010000
00000000
00100000
01000000
,
00100000
00001000
01000000
00100000
,
01000000
00010000
00100000
00001000
00010000
00000100
00001000
00000010
,
00000000
00000000
00000100
00000000
00000010
00000000
00000000
00001000
00000000
00000000
00000100
00000000
00000010
00000000
00000000
00000100
,
00000000
00000000
00001000
00000000
00000001
00000000
00000000
00000100
00000000
00000000
00001000
00000000
00000100
00000000
00000000
00001000
,
00000000
00000000
00010000
00000000
00100000
00000000
00000000
00010000
00000000
00000000
00100000
00000000
10000000
00000000
00000000
00100000
,
00000000
00000000
01000000
00000000
00010000
00000000
00000000
00100000
00000000
00000000
00001000
00000000
00010000
00000000
00000000
00000010
,
00000000
00000000
00001000
00000000
00000010
00000000
00000000
00010000
00000000
00000000
00001000
00000000
00010000
00000000
00000000
00100000
,
00000000
00000000
10000000
00000000
01000000
00000000
00000000
00100000
00000000
00000000
00001000
00000000
00010000
00000000
00000000
00100000
,
00000000
00000000
10000000
00000000
01000000
00000000
00000000
00100000
00000000
00000000
00001000
00000000
00010000
00000000
00000000
00000010
,
00000000
00001000
00000001
00000010
00000100
00010000
00001000
00000000
,
02002000
00000000
00000000
00000000
,
03003000
00000000
00000000
00000000
;

//--------------- dance-double - M. Emirzian ----------------
#NOTES:
     dance-double:
     M. Emirzian:
     Challenge:
     9:
     0.57,0.594,0.015,0.137,0.449:
00000000
00000000
00000000
00000000
,
00000000
00000000
00000000
00000000
,
00020000
00000000
00130000
00010000
,
00001000
00010000
02000000
10000000
,
03100000
00M00000
00001000
00020000
,
00100000
00032000
000M0010
00013000
,
00001000
00000000
00000100
00000000
00000001
00000100
00000000
00000010
00000000
00000000
00010000
00000000
00001000
01000000
00000000
00010000
,
00000000
00000000
00100000
00000000
01000000
10000000
00000000
01000000
00000000
00000000
00010000
00000000
00001000
00010000
00000000
00000100
,
00000000
00000000
01000000
00000000
00001000
00010000
00000000
00001000
00000000
00000000
00010000
00000000
00000100
00001000
00000000
00000001
,
00000000
00000000
00000100
00000000
00000010
00010000
00000000
00001000
00000000
00000000
01000000
00000000
00100000
10000000
00000000
01000000
,
00000000
00000000
00100000
00000000
00001000
00000000
00000000
00010000
00000000
00000000
00001000
00000000
00010000
00000000
00000000
00000100
,
00000000
00000000
00000001
00000000
00000100
00000000
00000000
00010000
00000000
00000000
00001000
00000000
01000000
00000000
00000000
10000000
,
00000000
00000000
01000000
00000000
00001000
00000000
00000000
00010000
00000000
00000000
00000100
00000000
00010000
00000000
00000000
00001000
,
00000000
00000100
00000001
00000010
00000100
00000010
00000001
00000100
,
00000010
00000000
00001000
00000001
00000000
00000010
00000100
00000000
00001000
00000000
00000010
00010000
00000000
00000100
00001000
00000000
,
00000010
00000000
00010000
00001000
00000000
01000000
00010000
00000000
00100000
00000000
01000000
10000000
00000000
00010000
01000000
00000000
,
00100000
00000000
10000000
01000000
00000000
00100000
00001000
00000000
00010000
00000000
00000100
00010000
00000000
00001000
00010000
00000000
,
00001000
00000000
00000100
00000001
00000000
00001000
00000100
00000000
00000010
00000000
00000100
00010000
00000000
00001000
00010000
00000000
,
00000010
00000000
00010000
00001000
00000000
01000000
00100000
00000000
10000000
00000000
00010000
00100000
00000000
01000000
00100000
00000000
,
00001000
00000000
00010000
00000010
00000000
00010000
00001000
00000000
01000000
00000000
00001000
00000100
00000000
00000001
00000010
00000000
,
00000100
00000000
00001000
00000100
00000000
00000001
00000100
00000000
00010000
00000000
00001000
00100000
00000000
00001000
00010000
00000000
,
00100000
00000000
01000000
00001000
00000000
01000000
00100000
00000000
01000000
00000000
00001000
00010000
00000000
01000000
10000000
01000000
,
10000000
00100000
01000000
00001000
00010000
00000100
00010000
01000000
,
10000000
00000000
00010000
01000000
00001000
00000100
00000001
00000000
,
00000100
00000010
00001000
00000100
00000010
00000001
00000100
00000010
,
00010000
00100000
01000000
00001000
00100000
01000000
10000000
00000000
,
00001000
00010000
00000010
00001000
00000100
00000010
00000001
00000100
,
00000010
00000000
00010000
00001000
00000100
00001000
01000000
10000000
,
01000000
00000000
00000000
00010000
00000000
00000000
00200000
00000000
00000000
00000000
00000000
00000000
02000000
00000000
00000000
00000000
00000000
00000000
10000000
00000000
03300000
00000000
00000000
00000000
,
00010000
00200000
00000000
02300000
,
03100000
00001000
00000010
00000000
00000002
00000000
00000100
00000000
,
00000013
00000000
00001000
00000000
00010000
00000100
00001000
00100000
,
00010000
00000000
00001000
00000000
00100000
00001000
00000100
00000000
,
00001000
00000000
00010000
00000000
01000000
10000000
00100000
01000000
,
00010000
01000000
00001000
00000000
00100000
00000000
00001000
00000000
,
00000010
00000001
00000100
00000000
00000010
00000000
00001000
00000010
,
00010000
01000000
00010000
00000000
00001000
00000000
01000000
00100000
,
10010000
00200000
00001000
01300000
,
10000000
00000000
00100000
00000000
01000000
00010000
00000000
00100000
00000000
00000000
00001000
00000000
00010000
00000100
00000000
00001000
,
00000000
00000000
00000010
00000000
00000100
00000001
00000000
00000010
00000000
00000000
00000100
00000000
00010000
00001000
00000000
01000000
,
00000000
00000000
00001000
00000000
00010000
00001000
00000000
00100000
00000000
00000000
01000000
00000000
10000000
00100000
00000000
01000000
,
00000000
00000000
00100000
00000000
10000000
01000000
00000000
00100000
00000000
00000000
00001000
00000000
00010000
00000010
00000000
00000100
,
00000000
00000000
00000001
00000000
00000010
00000100
00000000
00000010
00000000
00000000
00000100
00000000
00001000
00000100
00000000
00010000
,
00000000
00000000
00001000
00000000
01000000
00100000
00000000
01000000
00000000
00000000
00010000
00000000
01000000
00001000
00000000
00100000
,
00000000
00000000
00010000
00000000
10000000
01000000
00000000
00010000
00000000
00000000
00001000
00000000
00010000
00001000
00000000
00010000
,
00000000
00000000
00000100
00000000
00000010
00000001
00000000
00000100
00000000
00000000
00000010
00000000
00010000
00001000
00010000
00000000
,
00100000
10000000
01000000
00100000
00010000
01000000
00001000
00010000
,
00010000
00000000
00000001
00000000
00000010
00000000
00000100
00000000
00000010
00000000
00000001
00000000
00000010
00000000
00000100
00010000
,
00001000
00000000
01000000
00000000
00001000
00000000
00010000
00000000
00010000
00000000
00001000
00000000
01000000
00000000
00100000
10000000
,
00100000
10000000
01000000
00010000
00001000
01000000
00001000
00010000
,
00010000
00000000
00000000
00000000
00000001
00000000
00000010
00000000
00000100
00000000
00001000
00000000
00000010
00000000
00000100
00000001
,
00000100
00000010
00010000
00001000
01000000
00010000
00100000
01000000
,
10000000
00000000
02000000
00000000
03020000
0M000000
00031000
010M0000
,
00001000
00000000
00010000
00000000
00000100
00000000
00000010
00000000
00000001
00000000
00010000
00000000
00001000
00000000
01000000
00000100
,
01000000
00000000
00001000
00000000
00010000
00000000
00001000
00000000
01000000
00000000
00001000
00000000
00010000
00000000
00100000
10000000
,
00100000
00000000
01000000
00000000
00010000
00000000
00100000
00000000
01000000
00000000
10000000
00000000
01000000
00000000
00100000
00010000
,
00100000
00000000
00001000
00000000
00010000
00000000
00000010
00000000
00000100
00000000
00000001
00000000
00000010
00000000
00000100
00010000
,
00000100
00000000
00001000
00000000
00000010
00000000
00010000
00000000
00100000
00000000
10000000
00000000
01000000
00000000
00100000
00010000
,
00100000
00000000
00002000
00000000
00003200
0000M000
00000301
00000100
,
00000010
00000000
00010000
00000000
00001000
00000000
10000000
00000000
01000000
00000000
00010000
00000000
00001000
00000000
00010000
00001000
,
00010000
00000000
00100000
00000000
10000000
00000000
01000000
00000000
00100000
00000000
00001000
00000000
00010000
00000000
00000100
00001000
,
00000100
00000010
00000100
00010000
00002000
00000000
20003000
0000M000
,
31000000
00000000
M0100000
00000000
01000000
00010000
00000000
00001000
00000000
00000000
00010000
00000000
00100000
01000000
00000000
00001000
,
00000000
00000000
01000000
00000000
00001000
00010000
00000000
00000010
00000000
00000000
00001000
00000000
00000100
00000010
00000000
00000100
,
00000000
00000000
00001000
00000000
00000001
00000100
00000000
00001000
00000000
00000000
00010000
00000000
00100000
01000000
00000000
00010000
,
00000000
00000000
00100000
00000000
01000000
00100000
00000000
00001000
00000000
00000000
00010000
00000000
00000010
00010000
00000000
00001000
,
00000000
00000000
00000100
00000000
00000010
00000000
00000000
00010000
00000000
00000000
00001000
00000000
00100000
00000000
00000000
10000000
,
00000000
00000000
00100000
00000000
00001000
00000000
00000000
00010000
00000000
00000000
00000010
00000000
00000001
00000000
00000000
00000010
,
00000000
00000000
00010000
00000000
00000100
00000000
00000010
00000000
00001000
00000000
00010000
00000000
00000100
00000000
01000000
00010000
,
01000000
00000000
00001000
00000000
00010000
00000000
00000010
00000000
00010000
00000000
00001000
00000000
00000010
00000000
00000001
00001000
,
00002002
00000000
00000000
00000000
,
00003003
00000000
00000000
00000000
;

//--------------- lights-cabinet - ----------------
#NOTES:
     lights-cabinet:
     :
     Easy:
     1:
     0.677,0.794,1,0,0.076:
00000000
00000000
00000000
00000000
,
00000000
00000000
00000000
00000000
,
00000000
00000000
00000000
00000000
,
00000000
00000000
00000000
00000000
,
11110000
00000000
00000000
11110000
,
11110000
00000000
11110000
00000000
,
10000000
01000000
10100000
00000000
00100000
00010000
10100000
00000000
,
10000000
00000000
01000000
00000000
10010000
01000000
00000000
01000000
00100000
00000000
00010000
00000000
10100000
00000000
00000000
00000000
,
10000000
01000000
10100000
00000000
00110000
00010000
10100000
00000000
,
10000000
00000000
01000000
00000000
10110000
01000000
00000000
01000000
00100000
00000000
00010000
00000000
11100000
00000000
00000000
00000000
,
10110000
01000000
10000000
00010000
11100000
00010000
01000000
00000000
,
10110000
00100000
00010000
10000000
01100000
10000000
00110000
00000000
,
10110000
01000000
10000000
00010000
11100000
00010000
01000000
00000000
,
11010000
00100000
00010000
10000000
01110000
10000000
10010000
00000000
,
11110000
00000000
11110000
00000000
,
10110000
00000000
00000000
00000000
11000000
00110000
10000000
00100000
,
10110000
00000000
10100000
00000000
,
01110000
01000000
11000000
00110000
,
11110000
00000000
11100000
00000000
,
01110000
00000000
11100000
10010000
,
11100000
00000000
11010000
00000000
,
11100000
00000000
10010000
00000000
10010000
01000000
01100000
00000000
,
11010000
01110000
00000000
10110000
,
00000000
11100000
00000000
10110000
,
01000000
00100000
10010000
00000000
00000000
00000000
10100000
00000000
,
01000000
00110000
00000000
10010000
,
01100000
00010000
10100000
00000000
00000000
00000000
10010000
00000000
,
01100000
10100000
01000000
10110000
,
01110000
10000000
00100000
00000000
10010000
00000000
01100000
00000000
,
10110000
11110000
00000000
11110000
,
11000000
00010000
10000000
00010000
,
01100000
00000000
01010000
00000000
10010000
00000000
00100000
01000000
,
10100000
00000000
00010000
00000000
01000000
00000000
00010000
10000000
,
01000000
00100000
00010000
10000000
01000000
00100000
00010000
00100000
,
11000000
00100000
01010000
00000000
01000000
00000000
00100000
00000000
,
10000000
00010000
11000000
00110000
,
11110000
00000000
00000000
11100000
,
01010000
00000000
11100000
00000000
,
10000000
01000000
10000000
00000000
01100000
00010000
00100000
00000000
,
10010000
00000000
01000000
00000000
10000000
01000000
00000000
01000000
10100000
00000000
00010000
00000000
00100000
00000000
00000000
00000000
,
10100000
01000000
10000000
00000000
10100000
00010000
00100000
00000000
,
10100000
00000000
01000000
00000000
10010000
01000000
00000000
01000000
10100000
00000000
00010000
00000000
01100000
00000000
00000000
00000000
,
10000000
01000000
10100000
00010000
01000000
00010000
11000000
00000000
,
00010000
00100000
01010000
10000000
00100000
10000000
11000000
00000000
,
00110000
10000000
00010000
01100000
,
10100000
00000000
11100000
00000000
,
11010000
00100000
00010000
00000000
01100000
10000000
01000000
00000000
,
10110000
00000000
01000000
00000000
10000000
01000000
00000000
01000000
10100000
00000000
00010000
00000000
01100000
00000000
00000000
00000000
,
10000000
01000000
10110000
00000000
00100000
01000000
10100000
00000000
,
10000000
00000000
01000000
00000000
10110000
01000000
00000000
01000000
00100000
00000000
00010000
00000000
11100000
00000000
00000000
00000000
,
11010000
00100000
00010000
01000000
01110000
10000000
00100000
00000000
,
10100000
01000000
10010000
00100000
11000000
00100000
11000000
00010000
,
11100000
00000000
00000000
01110000
,
11010000
01000000
10000000
00000000
11100000
01000000
00110000
00000000
,
11010000
01000000
10000000
00000000
11100000
00010000
11100000
00000000
,
10110000
00000000
01000000
00000000
10110000
01000000
00000000
01000000
00100000
00000000
00010000
00000000
11100000
00000000
00000000
00000000
,
11010000
01000000
00100000
00000000
11010000
00100000
11010000
00000000
,
10110000
00000000
00100000
00000000
00010000
00100000
00000000
00100000
11000000
00000000
10000000
00000000
01010000
00000000
00000000
00000000
,
10110000
01000000
10000000
00100000
11000000
00100000
10000000
00000000
,
10100000
01000000
01100000
10000000
10100000
01000000
01100000
10000000
,
11100000
00110000
11000000
01110000
,
10110000
00100000
00010000
00000000
11010000
00100000
11010000
00100000
,
11010000
00000000
11110000
00000000
10100000
01000000
00110000
00000000
,
10010000
00000000
00100000
00000000
11000000
00100000
00000000
00100000
01010000
00000000
10000000
00000000
01110000
00000000
10000000
00000000
,
10010000
00000000
01110000
00000000
01100000
10000000
11010000
00000000
,
10010000
00000000
00100000
00000000
01010000
00100000
00000000
00100000
11000000
00000000
10000000
00000000
01010000
00000000
00000000
00000000
,
11000000
00100000
01100000
00010000
01100000
00010000
11000000
00100000
,
10100000
01000000
10010000
00010000
11000000
00100000
11000000
00010000
,
01100000
00100000
11000000
00010000
10100000
00100000
01000000
00010000
,
00110000
01000000
10100000
00100000
01010000
00000000
10100000
00000000
,
11000000
00000000
00110000
00000000
,
10010000
00000000
01100000
00000000
,
11110000
00000000
00000000
00000000
;
