#TITLE:Euphoria;
#SUBTITLE:;
#ARTIST:KaW feat. ☺;
#TITLETRANSLIT:;
#SUBTITLETRANSLIT:;
#ARTISTTRANSLIT:KaW feat. Smiley;
#GENRE:;
#CREDIT:;
#MUSIC:Euphoria.ogg;
#BANNER:Euphoria.png;
#BACKGROUND:Euphoria-bg.png;
#CDTITLE:;
#SAMPLESTART:51.460;
#SAMPLELENGTH:13.460;
#SELECTABLE:YES;
#OFFSET:-0.057;
#BPMS:0.000=140.000
,152.000=70.000
,184.250=140.000
;
#STOPS:184.125=1.180;
#BGCHANGES:;
#FGCHANGES:;

//--------------- dance-single - M. Puls ----------------
#NOTES:
     dance-single:
     M. Puls:
     Beginner:
     2:
     0.095389,0.148406,0.048858,0,0,82,76,6,0,0,0,0.095389,0.148406,0.048858,0,0,82,76,6,0,0,0:
0000
0000
0000
0000
,
0000
0000
0000
0000
,
0000
0000
0000
0000
,
0000
0000
0000
0000
,
0001
0000
0000
0000
,
0001
0000
0000
0000
,
1000
0000
0000
0000
,
1000
0000
0000
0000
,
0010
0000
0000
0000
,
0010
0000
0000
0000
,
0100
0000
0000
0000
,
0100
0000
0000
0000
,
1000
0000
0000
0000
,
0001
0000
0000
0000
,
0100
0000
0000
0000
,
1000
0000
0000
0000
,
0001
0000
0000
0000
,
0010
0000
0000
0000
,
0001
0000
0000
0000
,
1000
0000
0000
0000
,
1001
0000
0000
0000
,
0100
0000
0010
0000
,
1001
0000
0000
0000
,
1000
0000
0000
0000
,
0001
0000
0000
0000
,
0010
0000
0000
0000
,
0001
0001
0000
0000
,
1000
1000
0000
0000
,
0100
0100
0000
0000
,
1001
0000
0000
0000
,
0100
0100
0100
0000
,
0000
0000
0000
0000
,
0010
0010
0010
0000
,
0000
0000
0000
0000
,
1000
1000
1000
0000
,
0000
0000
0000
0000
,
0001
0001
0001
0000
,
0000
0000
0000
0000
,
1001
0000
0000
0000
,
1000
0000
0100
0000
,
1000
0000
0000
0000
,
0001
0000
0010
0010
,
0001
0000
1000
0000
,
0001
0000
1000
0000
,
0100
0000
0010
0000
,
0100
0000
0010
0000
,
1001
0000
0000
0010
,
0000
0000
0000
0010
,
0000
0000
0000
0100
,
0000
0000
0000
0100
,
0000
0000
0000
0001
,
0000
0000
0000
0001
,
0000
0000
0000
1000
,
0000
0000
0000
1000
,
0000
0000
0000
0010
,
0000
0010
0000
0010
,
0000
0000
0000
0100
,
0000
0100
0000
0100
,
0000
0000
0000
1000
,
0000
0001
0000
1000
,
0000
0000
0000
1001
;

//--------------- dance-single - K. Ward ----------------
#NOTES:
     dance-single:
     K. Ward:
     Easy:
     4:
     0.177983,0.247343,0.154717,0.08143,0,153,134,19,10,0,0,0.177983,0.247343,0.154717,0.08143,0,153,134,19,10,0,0:
0000
0000
0000
0000
,
0000
0000
0000
0000
,
0000
0000
0000
0000
,
0000
0000
0000
0000
,
0001
0000
0000
0000
,
1000
0000
0000
0000
,
0100
0000
0000
0000
,
0010
0000
1001
0000
,
0100
0100
0100
0000
,
0010
0010
0010
0000
,
1000
1000
1000
0000
,
0001
0001
0001
0000
,
0100
0010
1000
0000
,
0010
0100
0001
0000
,
1000
0001
1000
0000
,
0100
0010
0100
0010
,
0001
0000
0000
0000
,
1000
0000
0000
0000
,
0010
0000
0000
0000
,
0100
0000
0000
0000
,
1001
0000
0100
0000
,
2002
0000
0000
3003
0000
0000
0000
0000
,
0010
0000
0010
0000
,
0010
0000
0000
0000
,
0100
0000
0100
0000
,
0100
0000
0000
0000
,
1000
0000
0001
0000
,
1000
0000
0000
0000
,
0010
0000
0100
0000
,
0022
0000
0033
0000
,
0100
1000
0100
0010
,
0100
1000
0100
0000
,
0001
0010
0100
0010
,
0001
0010
0100
0000
,
1000
0001
0100
1000
,
0100
0001
1000
0000
,
0100
0000
0010
0000
,
0001
0000
1001
0000
,
0100
0100
0200
0300
,
1000
1000
2000
3000
,
0010
0010
0020
0030
,
0001
0001
0002
0003
,
0000
1001
0000
1001
,
0000
0110
0000
0110
,
0000
0011
0000
1100
,
0000
0110
0000
1001
,
0000
0000
0000
0100
,
0100
0100
0000
1000
,
1000
1000
0000
0001
,
0001
0001
0000
1000
,
0001
1000
0001
0010
,
0010
0010
0000
0100
,
0100
0100
0000
1000
,
1000
1000
0000
0001
,
1000
0001
1000
0100
,
0000
1001
0000
0010
,
0000
1001
0000
0010
,
0010
0010
0000
0100
,
0100
0100
0000
0011
,
0000
1100
0000
0220
,
0000
0330
0000
0000
0000
0000
1001
0000
;

//--------------- dance-single - K. Ward ----------------
#NOTES:
     dance-single:
     K. Ward:
     Medium:
     9:
     0.321066,0.371015,0.187289,0.122145,0,276,253,23,15,2,0,0.321066,0.371015,0.187289,0.122145,0,276,253,23,15,2,0:
0000
0000
0000
0000
,
0000
0000
0000
0000
,
0000
0000
0000
0000
,
0000
0000
0000
0000
,
1001
0000
0000
0000
,
0100
0000
0000
0000
,
0011
0000
0000
0000
,
0100
0100
0100
0000
0010
0000
1001
0000
,
1000
0000
0010
0000
0010
1000
0100
0000
,
0010
0000
0100
0000
0100
0010
0001
0000
,
1000
0000
0001
0000
0010
0100
1000
0000
,
0100
0010
0100
0010
,
0002
0000
1000
1000
1003
0000
0000
0000
,
2000
0000
0001
0001
3001
0000
0000
0000
,
0100
0000
0010
1000
0100
0000
1100
0000
,
0010
0000
0100
0001
0010
0000
0011
0000
,
1000
0100
0010
0000
0001
0100
0010
0000
,
0001
0010
0100
0000
0001
0010
0100
0000
,
1000
0001
0010
0000
0001
1000
0100
0000
,
0010
0100
0010
0100
0010
0000
0100
0000
,
0011
0000
1100
0000
,
1001
0110
1001
0000
,
0200
0000
0300
0000
,
0020
0000
0030
0000
,
1000
0001
0010
0000
0002
0000
0000
0000
,
0013
0100
1000
0000
0200
0000
0000
0000
,
0320
0100
0130
0M00
,
0002
1000
1003
M000
,
0001
0100
1000
0100
,
0010
0100
0010
0100
0010
0000
0110
0000
,
0001
1000
0001
1000
,
0010
0001
0010
0001
,
1000
0001
1000
0001
,
0010
1000
0100
1001
,
0001
0000
1000
0000
0001
1000
1000
0000
,
0100
0000
0001
0000
0010
0010
0001
0000
,
0100
0000
1000
0000
0100
0010
1000
0000
,
0100
0010
0100
0110
,
0002
1003
2000
3001
,
0100
0010
1000
0100
0020
0000
0030
0000
,
0002
1003
2000
3001
,
0001
0010
0100
1000
0200
0000
0310
0000
,
0100
1001
0010
1001
,
0010
0100
0010
0100
0100
0000
1001
0000
,
0001
0110
1000
0110
,
0001
0010
0100
1000
1000
0100
0010
0001
,
2000
0000
3000
0001
,
1000
0000
0100
0010
0001
0100
0010
0000
,
0100
0000
0010
0100
1000
0100
0010
0000
,
0100
0000
0001
0010
0100
0010
0001
0000
,
1000
0001
1001
0100
,
0010
0000
0100
0001
0010
0100
0010
0000
,
0100
0000
1000
0100
0001
0100
1000
0000
,
0001
0000
0010
0100
1000
0000
0100
0010
,
0001
0000
0010
0100
1000
0000
0100
1000
,
0100
0000
0010
0001
0010
0000
0100
1000
,
0100
1000
0100
0000
0000
0000
0001
0100
,
0010
0000
0100
0001
0010
0000
0001
1000
,
0100
0010
0100
0000
0000
0000
1100
0000
,
0010
0011
0100
1100
,
0000
0000
0010
0010
0100
0000
1001
0000
;

//--------------- dance-single - K. Ward ----------------
#NOTES:
     dance-single:
     K. Ward:
     Hard:
     12:
     0.48509,0.519421,0.105859,0.114002,0.427507,417,404,13,14,28,0,0.48509,0.519421,0.105859,0.114002,0.427507,417,404,13,14,28,0:
0000
0000
0000
0000
,
0000
0000
0000
0000
,
0000
0000
0000
0000
,
0000
0000
0000
0000
,
1001
0000
0000
0000
0000
0000
0000
0100
,
0010
0000
0000
0000
,
0011
0000
0000
0000
0000
0000
0000
0100
,
1000
0000
0000
0100
0010
0000
1001
0000
,
1000
0001
0000
1000
0001
0000
1000
0001
0000
1000
0001
0000
1000
0000
0001
0000
,
0010
0100
0000
0010
0100
0000
0010
0100
0000
0010
0100
0000
0010
0000
0100
0000
,
1000
0100
0000
0010
0001
0000
0100
0010
0000
1000
0100
0000
0010
0000
0001
0000
,
0001
0010
0000
0100
1000
0000
0010
0100
0000
0001
0010
0000
0001
0000
0000
0000
,
0001
1000
0000
1000
0100
0000
0010
0100
0000
1000
0100
0000
1000
0000
0000
0000
,
1000
0100
0000
0100
0010
0000
0001
0010
0000
0100
0010
0000
0001
0000
0000
0000
,
0001
0100
0000
0010
0100
0000
1000
0100
0000
0010
0100
0000
1000
0000
0100
0000
,
0010
0100
0000
0100
0001
0000
0001
0010
0000
0010
0100
0000
0010
0000
0000
0000
,
0001
0100
0010
0100
1000
0100
0001
0100
,
1000
0100
0010
0100
0001
0010
0010
0000
,
0100
0010
0001
0000
0100
0010
1000
0000
,
0100
0010
0001
0010
0100
0100
0100
0000
,
0011
0MM0
1100
M00M
,
0010
0000
0100
0001
0000
0001
0010
0000
,
1000
0100
1000
0100
0000
0000
0000
0000
0010
0100
0010
0100
0000
0000
0000
0000
,
0001
1000
0001
1000
0000
0000
0000
0000
1000
0000
0100
0000
0010
0000
0100
0000
,
0100
1000
0100
1000
0000
0000
0000
0000
0001
0100
0001
0100
0000
0000
0000
0000
,
0010
0100
0010
0100
0000
0000
0000
0000
1000
0000
0100
0000
0010
0000
0000
0000
,
0001
0010
0001
0010
0000
0000
00MM
0000
0100
0010
0100
0010
0000
0000
0MM0
0000
,
0001
1000
0001
1000
0000
0000
MM00
0000
0001
0000
0010
0000
0100
0000
0010
0000
,
0001
0010
0001
0010
0000
0000
0M0M
0000
0100
0010
0100
0010
0000
0000
0MM0
0000
,
0001
0010
0000
0100
0000
0010
0101
0000
,
1000
0100
0001
0100
1000
0010
0001
0010
,
1000
0100
0010
0100
1000
0000
0011
0000
,
0100
0010
0100
1000
0100
0001
0010
0100
,
1000
0100
0010
0100
1000
1000
1000
0000
,
0100
0000
0000
0010
0100
0000
0010
0000
0001
0000
0010
0000
0100
0000
1000
0000
,
0100
0001
0010
0100
0010
0000
0101
0000
,
1000
0000
0000
0100
0010
0000
0001
0000
0010
0000
0100
0000
1000
0000
0000
0000
,
0100
0000
0000
0100
0000
0000
0100
0000
0000
0000
0000
0000
0001
0000
1000
0000
0001
0000
1000
0000
0000
0000
0000
0000
,
0200
0000
0310
0000
0200
00M0
130M
0000
,
0010
0000
0100
0000
1000
0000
0000
0100
0010
0000
0000
0000
0001
0010
0100
2000
,
0000
0000
3100
M000
0002
0000
0013
000M
,
0100
0000
0010
0000
1000
0000
0100
0020
0000
0000
0000
0000
0130
0000
0000
0000
,
0002
0000
00M0
0000
1003
0000
000M
1000
2000
0000
0000
0000
3001
0000
M000
0000
,
0100
0000
0010
0000
0001
0000
0000
0010
0100
0000
0000
0000
1000
0100
0001
0000
,
0020
0000
0000
0000
0130
0000
00M0
0100
0200
0000
0000
0000
1300
0000
M000
0000
,
0100
0000
0000
0000
1001
0000
0000
0100
0010
0000
0000
0001
0010
0100
0010
0000
,
1200
0000
0000
0000
0000
0000
0000
0000
0000
0000
0000
0000
1300
0000
0000
0000
0001
0000
0000
0000
1000
0000
0000
0000
0001
0000
0000
0000
0000
0000
0000
0000
0000
0000
0000
0000
1000
0000
0000
0100
0000
0000
0000
0000
0000
0010
0000
0000
,
0100
0000
1000
0100
0000
0010
0100
0000
0010
0000
0001
0000
0100
0001
0000
1000
,
0001
0000
0100
0001
0000
1000
0001
0000
0100
0000
0010
0000
0001
0010
0000
0100
,
0010
0000
0001
0010
0000
0010
0100
0000
0010
0000
1000
0000
0100
0010
0000
0100
,
1000
0000
0100
0010
0000
0010
0100
0000
1000
0000
0000
0000
0001
0100
0000
0010
,
0100
0000
1000
0100
0000
0010
0100
0000
0001
0000
0010
0000
0100
1000
0000
1000
,
0100
0000
0010
0100
0000
0100
0010
0000
0001
0000
0000
0000
0100
0010
0000
0100
,
0010
0000
0001
0010
0000
0100
0010
0000
1000
0000
0000
0000
1000
0100
0000
0010
,
0100
0000
1000
0100
0000
0010
0100
0000
1000
0000
0000
0000
0001
0000
0100
0000
,
1000
0100
0001
0100
1000
0100
0010
0100
,
0010
0001
0010
0100
0100
0000
1000
0100
,
0001
0010
0100
1000
0100
0001
0100
1000
,
0100
0000
0000
0100
0010
0000
0001
0000
0010
0000
0000
0000
2002
0000
0000
3003
,
0000
M00M
0000
0000
0220
0000
0000
0000
0330
0000
0MM0
0000
0001
0000
0000
0000
,
0010
0100
00M0
0100
0010
0000
1001
0000
;

//--------------- dance-single - C. Foy ----------------
#NOTES:
     dance-single:
     C. Foy:
     Challenge:
     18:
     0.964363,0.890436,0.293148,0.928301,1.885102,829,793,36,114,91,0,0.964363,0.890436,0.293148,0.928301,1.885102,829,793,36,114,91,0:
0000
0000
0000
0000
,
0000
0000
0000
0000
,
1000
0001
0000
0100
0010
1000
0010
0000
0010
0100
0000
0001
0010
0100
0010
0000
,
0100
1000
0000
0010
0100
0001
1000
0000
0100
0020
0001
0000
0031
0100
0010
0000
,
1010
1000
0000
0010
1000
0001
0100
0000
0002
0010
0000
0013
0001
0010
0011
0000
,
0011
0001
0000
1000
0010
0100
0001
0000
0020
0000
0000
0130
2000
0000
0001
3000
,
1001
0001
0000
1000
0001
0200
0010
0000
0320
0100
0000
0130
0001
1000
1001
0000
,
1100
1000
0000
0001
1000
0001
0101
0000
0101
0001
0100
0000
0110
0020
0100
0000
,
0230
0001
0000
0302
0010
0000
0013
0100
0000
0010
0001
0100
0010
1000
0100
0010
,
0002
0100
0000
0203
0010
0000
0320
1000
0000
1030
0100
0010
0001
0100
0001
1000
,
0001
1000
0001
0000
0000
0000
0100
0000
0001
0000
0000
0000
0100
0000
0001
0000
0010
0000
0100
0000
1000
0000
0010
0000
0100
0000
0000
0000
0001
0000
0000
0000
,
1000
0001
1000
0000
0001
0000
0100
0000
0010
0000
0000
0000
1000
0000
0100
0000
1000
0000
0010
0000
0000
0000
0100
0001
0100
0001
0100
0000
0001
0000
1000
0000
,
0200
1000
0000
2300
0010
0000
3020
0100
0000
0130
0010
0001
0010
1000
0010
0001
,
0010
1000
0000
0020
0100
0000
0230
0001
0000
0301
0100
0001
0010
0100
1000
0010
,
0100
0010
0100
0000
0000
0000
0002
0000
1000
0000
0000
0000
1003
0000
0010
0000
1000
0000
0100
0000
0010
0000
0001
0000
0100
0000
0000
0000
0001
0000
0000
0000
,
0100
0001
0100
0000
0010
0000
2000
0000
0100
0000
0000
0000
3100
0000
0001
0000
0100
0000
1000
0000
0000
0000
0001
1000
0001
0000
0100
0000
0001
0000
0100
0000
,
1000
0100
0000
0002
0010
0000
0010
0000
0023
0001
0000
0032
1000
0000
2003
0010
,
0000
3020
0100
0000
0100
0000
0100
0030
0010
1000
0000
0100
0010
0000
0001
0000
,
0200
0010
0000
0310
1000
0001
0000
0100
0010
0100
0000
0200
0001
0000
0001
0000
,
0302
0010
0000
0013
0200
1000
0000
1300
0002
0100
0000
0103
0010
0000
1000
0000
,
1MM1
0001
0000
1000
0001
1000
0100
1000
11MM
0100
0000
1000
0010
0100
0001
0100
,
M1M1
0001
0000
1000
1MM1
0000
2M2M
0000
3030
0000
M1M1
0000
2M2M
0000
3030
0000
,
MM11
0000
0001
0000
0100
0000
0002
0000
0000
0000
0010
0000
0000
0000
0013
0000
0001
0000
0100
0000
0010
0000
1000
0000
0000
0000
0010
1000
0010
1000
0010
0000
,
1000
0000
0001
0000
0100
0000
0010
0000
0000
0000
1000
0000
0100
0000
0010
0000
0001
0000
1000
0000
0001
0000
0100
0000
0001
0100
0001
0100
0001
0000
0100
0000
,
0010
0000
1000
0000
0100
0000
0020
0000
0000
0000
0100
0000
0030
0000
1000
0100
1000
0000
0100
0000
1000
0000
0010
0000
0000
0000
0100
0000
0010
0000
0100
0010
,
0100
0000
0010
0000
1000
0000
0100
0000
1000
0000
0001
0000
0100
0000
0001
0100
0002
0000
0000
0000
0013
0000
0001
0010
0001
0000
1000
0001
1000
0001
1000
0000
,
0001
0000
0100
0000
0001
0000
0020
0000
0000
0000
0001
0000
0000
0000
0031
0000
1000
0000
0100
0000
1000
0000
0010
0000
0000
0000
1000
0010
1000
0010
1000
0000
,
0010
0000
0100
0000
0002
0000
0010
0000
0000
0000
0013
0000
0100
0000
1000
0000
0001
0000
1000
0000
0100
0000
1000
0000
0100
1000
0100
1000
0100
0000
1000
0000
,
0M1M
0000
0100
0000
0001
0000
2000
0000
0000
0000
0001
0000
3000
0000
1000
0001
1MM0
0000
0001
0000
0200
0000
0010
0000
0000
0000
0310
0000
0100
0000
0001
0100
,
M0M1
0000
0100
0000
0010
0000
1000
0000
01MM
0000
0010
0000
MM01
0000
0010
0001
0020
0000
0000
0000
MM00
0030
0001
0010
0M01
0000
1000
0001
1000
0001
1000
0000
,
0MM1
0000
0100
0000
0002
0000
0100
0000
0000
0000
0100
0000
0003
0000
0010
0000
0100
0000
0001
0000
1000
0000
0100
0000
0000
0000
1000
0100
1000
0100
1000
0000
,
0100
0000
1000
0000
0020
0000
1000
0000
0000
0000
1030
0000
0010
0000
1000
0000
0100
0000
0010
0000
0001
0000
0100
0000
0001
0100
0001
0100
0001
0000
0100
0000
,
0001
0000
0010
0000
0002
0000
1000
0000
0000
0000
1000
0000
0003
0000
0001
1000
0001
0000
1000
0000
0020
0000
0100
0000
0000
0000
0130
0000
0010
0000
0100
0010
,
0100
0000
0010
0000
0100
0000
0001
0000
0010
0000
0100
0000
1000
0000
1000
0100
2000
0000
0000
0000
3010
0000
1000
0010
1000
0000
0001
1000
0001
1000
0001
0000
,
1000
0000
0001
0000
0010
0000
0001
0000
0000
0000
0001
0000
0000
0000
1000
0000
0001
0000
0010
0000
0001
0000
0100
0000
0000
0000
0001
0100
0001
0100
0001
0000
,
0100
0000
0001
0000
0200
0000
0010
0000
0000
0000
0310
0000
1000
0000
0100
0000
0010
0000
0001
0000
0100
0000
0001
0000
1000
0001
1000
0001
1000
0000
0001
0000
,
0100
0000
0010
0000
1000
0000
0001
0000
0000
0000
0100
0000
0000
0000
0001
0100
0001
0000
0100
0000
0001
0000
1000
0000
0000
0000
1000
0000
0100
0000
1000
0100
,
1000
0000
0000
0001
0000
0000
1000
0000
0000
0100
0000
0000
0010
0000
0000
0001
0000
0000
1000
0000
0000
0000
0000
0000
0M11
0000
0000
0000
1001
0000
0000
0000
1100
0000
0000
0000
10M1
0000
0000
0000
0000
0000
0000
0000
0000
0000
0000
0000
,
0000
0000
0000
0000
0000
0000
0000
0000
0000
0000
0000
0000
1000
0001
1000
0002
2MM0
0000
0000
0000
0000
0000
0000
0000
3003
0000
0000
0000
0000
0000
0000
0000
0000
0000
0000
0000
1000
0100
1000
0000
0100
0000
1000
0000
0100
0000
2000
0000
02MM
0000
0000
0000
0000
0000
0000
0000
3300
0000
0000
0000
0000
0000
0000
0000
,
0000
0000
0000
0000
0000
0000
0000
0000
0000
0000
0000
0000
0001
0100
0001
0200
M0M2
0000
0000
0000
0000
0000
0000
0000
0303
0000
0000
0000
0000
0000
0000
0000
0000
0000
0000
0000
0001
0100
0001
0000
0100
0000
0001
0000
0100
0001
0200
0000
M0M2
0000
0000
0000
0000
0000
0000
0000
0303
0000
0000
0000
0000
0000
0000
0000
,
0000
0000
0000
0000
0000
0000
0000
0000
0000
0000
0000
0000
0100
0001
0100
0002
M2M0
0000
0000
0000
0000
0000
0000
0000
0303
0000
0000
0000
0000
0000
0000
0000
0000
0000
0000
0000
0001
1000
0001
0000
1000
0000
0100
0000
1000
0001
2000
0000
0MM2
0000
0000
0000
0000
0000
0000
0000
3003
0000
0000
0000
0000
0000
0000
0000
,
0000
0000
0000
0000
0000
0000
0000
0000
0000
0000
0000
0000
1000
0100
1000
0200
20MM
0000
0000
0000
0000
0000
0000
0000
3300
0000
0000
0000
0000
0000
0000
0000
0000
0000
0000
0000
0001
0010
0001
0000
0010
0000
0001
0000
1000
0001
2000
0000
0MM2
0000
0000
0000
0000
0000
0000
0000
3003
0000
0000
0000
0000
0000
0000
0000
,
0000
0000
0000
0000
0000
0000
0000
0000
0000
0000
0000
0000
1000
0010
1000
0020
2M0M
0000
0000
0000
0000
0000
0000
0000
3030
0000
0000
0000
0000
0000
0000
0000
0000
0000
0000
0000
1000
0001
1000
0000
0100
0000
1000
0000
0100
0000
2000
0000
00M2
0000
0000
0000
0000
0000
0000
0000
3003
0000
0000
0000
0000
0000
0000
0000
,
0000
0000
0000
0000
0000
0000
0000
0000
0000
0000
0000
0000
0001
0100
0001
0200
M0M2
0000
0000
0000
0000
0000
0000
0000
0303
0000
0000
0000
0000
0000
0000
0000
0000
0000
0000
0000
0001
0100
0001
0000
1000
0000
0010
0000
1000
0010
2000
0000
0M02
0000
0000
0000
0000
0000
0000
3000
0003
0000
0000
0000
0000
0000
0000
0000
,
0000
0000
0000
0000
0000
0000
0000
0000
0000
0000
0000
0000
0100
0001
0100
0002
M2M0
0000
0000
0000
0000
0000
0000
0000
0303
0000
0000
0000
0000
0000
0000
0000
0000
0000
0000
0000
0100
0001
0100
0000
0001
0000
1000
0000
0001
1000
0002
0000
02M0
0000
0000
0000
0000
0000
0000
0000
0303
0000
0000
0000
0000
0000
0000
0000
,
0000
0000
0000
0000
0000
0000
0000
0000
0000
0000
0000
0000
0001
0010
0001
0020
MM02
0000
0000
0000
0000
0000
0000
0000
0033
0000
0000
0000
0000
0000
0000
0000
0000
0000
0000
0000
1000
0100
1000
0000
0100
0000
1000
0000
0001
1000
0002
0000
2MM0
0000
0000
0000
0000
0000
0000
0000
3003
0000
0000
0000
0M00
0000
0000
0000
,
M1M2
0000
0000
0003
0000
0000
0M0M
0000
0000
0000
0000
0000
0000
0000
0000
0000
0000
0000
0000
0000
0000
0000
0000
0000
1M1M
0000
0000
0000
0000
0000
0000
0000
1M01
0000
0000
0000
0000
0000
0000
0000
01M1
0000
0000
0000
0000
0000
0000
0000
M1M1
0000
0000
0000
0000
0000
0000
0000
M110
0000
0000
0000
0000
0000
0000
0000
M101
0000
0000
0000
0000
0000
0000
0000
0002
0000
0000
0000
0000
0000
0010
0000
0000
0000
0000
0000
0000
0000
0000
0000
0000
0000
2000
0000
0000
0003
0000
0000
,
0001
0000
0000
0000
0200
3000
0010
0000
0000
0300
0100
0000
1000
0000
0010
0000
0100
0000
0001
0000
0010
0000
0001
0000
0200
0000
0010
0000
0000
0000
0002
0300
,
1000
0000
0000
0000
0200
0003
0010
0000
0000
0000
0001
0300
0010
0000
0100
0000
1000
0000
0010
0000
1000
0000
0001
0000
1000
0001
1000
0000
0000
0000
0020
0000
,
1000
0000
0000
0000
1000
0030
0100
0000
0010
0000
0001
0000
0100
0000
0001
0000
0020
0000
0000
0000
0001
0000
0030
0000
1000
0001
1000
0000
0100
0000
0010
0000
,
0001
0000
0000
0000
0001
0000
0010
0000
0002
0000
0100
0000
0000
0000
0103
0000
0010
1000
0010
0000
1000
0000
0001
0000
0020
0000
0100
0000
0000
0000
0002
0030
,
1000
0000
0000
0000
0203
0000
0001
0000
0000
0000
0010
0300
0100
0000
0010
0000
0100
0000
0001
0000
0100
0000
1000
0000
0100
0000
0001
0000
0000
0000
0200
0000
,
0001
0000
0000
0000
0020
0300
0100
0000
0000
0000
1000
0030
0010
0000
1000
0000
0100
0000
0010
0000
0001
0000
0100
0000
0010
0100
0010
0000
0000
0000
2000
0000
,
0010
0000
0000
0000
0001
3000
0100
0000
0001
0000
0010
0000
0100
0000
1000
0000
0020
0000
0000
0000
1000
0000
0030
0000
0010
1000
0010
0000
0100
0000
0001
0000
,
0020
0000
0000
0000
0001
0030
0010
0000
0100
0000
0010
0000
0000
0000
0001
0000
0010
0001
0010
0000
0001
0000
0000
0000
0200
0000
0010
0000
0000
0000
0002
0300
,
0010
0000
0000
0000
1000
0000
0000
0000
0020
0003
0001
0000
0000
0000
0100
0030
1000
0000
0000
0000
0001
1000
0001
1000
0001
0000
0100
0000
0000
0000
0100
0000
,
0002
0000
0010
0000
0000
0000
0000
0000
2000
0003
0010
0000
0000
0000
0001
3000
2000
0000
0000
0000
0010
3000
0000
0000
1000
0010
1000
0000
0000
0000
0100
0000
,
2000
0000
0010
0000
0000
0000
0001
3000
0200
0000
0001
0000
0000
0000
0020
0300
1000
0000
0000
0000
0100
0000
0000
0000
2000
0030
0001
0000
0000
0000
0200
3000
,
0020
0300
0100
0000
0000
0000
0100
0030
2000
0000
0001
0000
0000
0000
0100
3000
1000
0000
0000
0000
0100
0000
0000
0000
1MM1
0000
1000
0000
0000
0000
0001
0000
,
1000
0001
0010
0001
MM11
0010
0000
0001
0100
0010
1000
0010
1M1M
1000
0000
0001
,
1MM1
M2M2
0303
1M1M
M2M2
0303
11MM
0000
;

//--------------- dance-double - M. Emirzian ----------------
#NOTES:
     dance-double:
     M. Emirzian:
     Easy:
     3:
     0.202411,0.222609,0.105859,0.146574,0,174,161,13,18,0,0,0.202411,0.222609,0.105859,0.146574,0,174,161,13,18,0,0:
00000000
00000000
00000000
00000000
,
00000000
00000000
00000000
00000000
,
00000000
00000000
00000000
00000000
,
00000000
00000000
00000000
00000000
,
10000000
00000000
00000000
00010000
,
02000000
00000000
03000000
00100000
,
20000000
00000000
30000000
01000000
,
00100000
00000000
00010000
01000000
,
00100000
10000000
01000000
00000000
,
00100000
00010000
01000000
00001000
,
00010000
00000000
00002020
00003030
,
00002002
00003003
00000010
00000100
,
00001000
00000001
00000100
00000000
,
00000010
00001000
00000100
00010000
,
00001000
00000000
02002000
03003000
,
02020000
03030000
00100000
10000000
,
00010000
00000000
00100000
00000000
,
01000000
10000000
01000000
00000000
,
00100000
00000000
00001000
00000000
,
00010000
00000100
00010000
00000000
,
00001000
00000000
00010000
00000000
,
00000100
00000010
00000100
00000000
,
00001000
00000001
00000000
00000100
,
00000010
00001000
00000000
00000100
,
00000010
00000001
00000000
00000100
,
00000010
00010000
00000000
00001000
,
01000000
00010000
00000000
00100000
,
01000000
10000000
00000000
00010000
,
01000000
00001000
00000000
00010000
,
00000100
00001000
00000000
00000001
,
00000010
00000000
00001100
00000000
,
00000010
00001000
00000100
00010000
,
00001000
00000000
00101000
00000000
,
00010000
01000000
00100000
10000000
,
01000000
00000000
00110000
00000000
,
00010000
01000000
00001000
00010000
,
00000100
00000000
00001100
00000000
,
00000001
00000100
00000010
00001000
,
00000100
00000000
00000010
00000000
,
00000001
00001000
00000100
00000000
,
00010000
00000000
00001000
00000000
,
00010000
00001000
01000000
00000000
,
00100000
00000000
10000000
00000000
,
01000000
00100000
00001000
00010000
,
00000010
00000000
00000100
00000000
,
00000001
00000000
00000010
00000000
00000100
00000000
00001000
00000001
,
00000100
00000000
00000000
00000010
,
00001000
00000001
00000000
00010000
,
00001000
01000000
00010000
00100000
,
00000000
22000000
33000000
20020000
,
30030000
00100000
10000000
01000000
,
00100000
00010000
00000000
01000000
,
00001000
00010000
00000100
00001000
,
00000000
00000202
00000303
00000022
,
00000033
00000100
00001000
00000001
,
00000000
00000100
00000000
00000010
,
00001000
00000100
00000000
00010000
,
00000000
00001000
00000000
01000000
,
00010000
00100000
00000000
01000000
,
00000000
10000000
00000000
00100000
,
01000000
00001000
00010000
00010010
;

//--------------- dance-double - M. Emirzian ----------------
#NOTES:
     dance-double:
     M. Emirzian:
     Medium:
     6:
     0.350149,0.371015,0.309434,0.065144,0,301,263,38,8,0,0,0.350149,0.371015,0.309434,0.065144,0,301,263,38,8,0,0:
00000000
00000000
00000000
00000000
,
00000000
00000000
00000000
00000000
,
00000000
00000000
00000000
00000000
,
00000000
00000000
00000000
00000000
,
10000000
00000000
00100000
00000000
02000000
00000000
03000000
00010000
,
10000000
01000000
00200000
00300000
,
00010000
00000000
00000000
00000000
01000000
00000000
00000000
00100000
,
10000000
00000000
00000000
01000000
00100000
00000000
00010000
00000000
,
01000000
00000000
00001000
00010000
00001000
00000000
00010000
00000000
,
00000100
00000000
00001000
00000010
00001000
00000000
00000100
00000000
,
00000010
00001001
00000010
00001001
,
00000100
00001001
00000010
00000100
,
00001000
00000000
00000001
00000100
00000001
00000000
00000010
00000000
,
00000100
00000000
00001000
00000010
00001000
00000000
00000100
00000000
,
00010000
00011000
00100000
00011000
,
01000000
00011000
00100000
00010000
,
10000000
00000000
01000000
00000000
00100000
00000000
00010000
10000000
,
01000000
00000000
00100000
00000000
00010000
00000000
01000000
00001000
,
00010000
00000000
00000100
00000000
00001000
00000000
00000010
00000100
,
00000001
00000010
00001100
00000001
,
00001100
00000000
00011000
00000000
,
01100000
00000000
00010000
10000000
00000000
00010000
10000000
00000000
,
01000000
00100000
00010000
00000000
00100000
00010000
00100000
00000000
,
01000000
10000000
00010000
00000000
01000000
00000000
01010000
00000000
,
00001000
00010000
00000100
00000000
00010000
00001000
00010000
00000000
,
00000100
00001000
00000001
00000000
00000010
00000000
00001001
00000000
,
00000010
00000100
00000001
00000000
00001000
00000100
00001000
00000000
,
00000010
00001000
00000100
00000000
00010000
00000000
00101000
00000000
,
01000000
10000000
00100000
00000000
01000000
00010000
01000000
00000000
,
00100000
10000000
00000000
01010000
00000000
00100000
10000000
00000000
,
01000000
00110000
01000000
00110000
,
01000000
00000000
00110000
00000000
00001000
00010000
00000100
00000000
,
00000010
00001100
00000010
00001100
,
00000010
00000000
00001100
00000000
00000001
00000100
00000010
00000000
,
00001000
00010010
00001000
00010010
,
00001000
00000000
00010010
00000000
00011000
00000000
00010000
00001000
,
01000000
10010000
01000000
10010000
,
00100000
00000000
10010000
00000000
00100000
10000000
01000000
00000000
,
00200000
00000000
00320000
00000000
20030000
00000000
30000000
00100000
,
10000000
01000000
00010000
00000000
00001000
00000000
00010000
00000000
,
00002000
00000000
00003200
00000000
00000302
00000000
00000003
00001000
,
00000001
00000100
00000010
00000000
00001000
00000000
00000000
00000000
,
00001000
00000001
00000100
00000000
00001000
00010000
00001000
00000000
,
00010000
01000000
10000000
00000000
01000000
00010000
00001000
00000000
,
00010000
01000000
10000000
00000000
00100000
00010000
00001000
00000000
,
00010000
00001000
00000100
00000000
00000001
00000010
00000100
00001000
,
00000001
00000000
00000000
00001000
,
00000100
00000010
00000100
00000000
00001000
00000000
00000001
00000000
,
00000100
00000010
00000100
00000000
00000001
00000000
00000010
00000000
,
00001100
00000001
00001100
00000010
,
00001100
00010000
00001000
01000000
,
00010000
00100000
00010000
00000000
01000000
00000000
00100000
00000000
,
10000000
01000000
10000000
00000000
00010000
00000000
00100000
00000000
,
00011000
00000100
00011000
01000000
,
00011000
00000010
00001000
00000100
,
00000010
00000000
00000001
00000000
00000100
00000010
00001000
00000000
,
00000001
00000000
00000100
00000000
00000010
00010000
00001000
00000000
,
00010000
00000000
00001000
00000000
01000000
00010000
10000000
00000000
,
00100000
01010000
10000000
11000000
,
00010000
01010000
00000000
00011000
,
00001000
00000001
00000000
00001000
00000001
00000000
00000110
00000000
;

//--------------- dance-double - M. Emirzian ----------------
#NOTES:
     dance-double:
     M. Emirzian:
     Hard:
     9:
     0.55954,0.692561,0.16286,0.073287,0.631082,481,461,20,9,0,0,0.55954,0.692561,0.16286,0.073287,0.631082,481,461,20,9,0,0:
00000000
00000000
00000000
00000000
,
00000000
00000000
00000000
00000000
,
00000000
00000000
00000000
00000000
,
00000000
00000000
00000000
00000000
,
00100000
00000000
10000000
00000000
00010000
00000000
00000000
00100000
,
10010000
00100000
01000000
00001000
,
00011000
00000000
00000000
00000000
00000010
00000000
00000000
00000001
,
00000110
00000000
00000000
00000010
00001100
00000000
00000011
00000000
,
00001000
00000100
00000000
00000100
00000010
00000000
00000010
00000001
00000000
00000000
00000100
00000000
00000010
00000000
00000000
00000000
,
00001000
00000100
00000000
00000100
00010000
00000000
00010000
00001000
00000000
01000000
00000000
01000000
00010000
00000000
00100000
00000000
,
01000000
10000000
00000000
10000000
00100000
00000000
00100000
01000000
00000000
00000000
00010000
00000000
10000000
00000000
00000000
00000000
,
01000000
00100000
00000000
00100000
00001000
00000000
00001000
00010000
00000000
00000010
00000000
00000010
00001000
00000000
00000001
00000000
,
00000100
00000001
00000000
00000001
00000010
00000000
00000010
00000100
00000000
00000000
00001000
00000000
00000001
00000000
00000000
00000000
,
00000100
00000010
00000000
00000010
00010000
00000000
00010000
00001000
00000000
00100000
00000000
00100000
00010000
00000000
10000000
00000000
,
00100000
01000000
00000000
01000000
00010000
00000000
00010000
00100000
00000000
00000000
01000000
00000000
10000000
00000000
00000000
00000000
,
00010000
01000000
00000000
01000000
00001000
00000000
00001000
00010000
00000000
00000010
00000000
00000010
00001000
00000000
00000100
00000000
,
00000010
00000001
00000000
00000001
00000100
00000000
00000000
00000000
00000010
00001000
00000000
00001000
00000100
00000000
00000000
00000000
,
00010000
00001000
00000000
01000000
00001000
00010000
00000000
00000000
00001000
01000000
00000000
00000000
00010000
00000000
00100000
00000000
,
01000000
10000000
00000000
10000000
00100000
00000000
00000000
00000000
01000000
00010000
00000000
00010000
00100000
00000000
00000000
00000000
,
01000000
10000000
00000000
00010000
01000000
00001000
00000000
00000000
00010000
00000010
00000000
00000000
00010000
00000000
00000100
00000000
,
00001000
00000010
00000000
00000010
00000100
00000000
00000000
00000000
00000001
00000010
00000000
00000010
00000100
00000000
00000000
00000000
,
00001100
00000000
00000001
00000110
00000000
00001000
00010100
00000000
,
00001000
00010000
00001000
00000000
01001000
00000000
00000000
00000000
00010000
01000000
00010000
00000000
10010000
00000000
00000000
00100000
,
10000000
01000000
00010000
00001000
00010000
01000000
10000000
00000000
,
00010000
00100000
00010000
00000000
00101000
00000000
00000000
00000000
00010000
00001000
00010000
00000000
00010100
00000000
00000000
00001000
,
00010000
00000100
00000010
00000001
00000100
00001000
00000100
00000000
,
00000001
00001000
00000001
00000000
00001100
00000000
00000000
00000000
00000010
00001000
00000010
00000000
00010010
00000000
00000000
00010000
,
00001000
00000100
00001000
00010000
00100000
01000000
00010000
00000000
,
00100000
01000000
00100000
00000000
11000000
00000000
00000000
00000000
00010000
01000000
00010000
00000000
10010000
00000000
00000000
01000000
,
10000000
00100000
00010000
00001000
00010000
00100000
10000000
00000000
,
01000000
00000000
00100000
00010000
00100000
00000000
01000000
00000000
10000000
00000000
00010000
00000000
01000000
00000000
00100000
00000000
,
10000000
01000000
00010000
00001000
00010000
01000000
00010000
00001000
,
00000010
00000000
00000100
00001000
00000100
00000000
00000010
00000000
00000001
00000000
00000100
00000000
00000010
00000000
00001000
00000000
,
00000100
00000001
00000100
00010000
00001000
00000100
00001000
00100000
,
00010000
00000000
01000000
00100000
01000000
00000000
00010000
00000000
10000000
00000000
00100000
00000000
00010000
00000000
00001000
00000000
,
00010000
00100000
10000000
01000000
00010000
00000100
00000010
00000001
,
00000100
00000000
00000010
00001000
00000010
00000000
00000100
00000000
00000001
00000000
00000010
00000000
00000100
00000000
00001000
00000000
,
00000010
00000000
00000000
00010000
00000000
00000000
00100000
00000000
00000000
10000000
00000000
00000000
01000000
00000000
00100000
00000000
00010000
00000000
00100000
00000000
00000000
00000000
00000000
00000000
,
02000000
00000000
00000000
00000000
23000000
00000000
00000000
00000000
30200000
00000000
00000000
00000000
00300000
00000000
01000000
00010000
,
01000000
00000000
00100000
00000000
10000000
00000000
00000000
01000000
00100000
00000000
00000000
00000000
00000100
00000000
00001000
00000002
,
00000000
00000000
00000000
00000003
00000200
00000000
00000000
00000000
00000320
00000000
00000000
00000000
00000030
00000000
00001000
00000100
,
00001000
00000000
00000001
00000000
00000100
00000000
00000010
00001000
00000000
00000000
00000000
00000000
00000100
00000000
00000000
00000000
,
00010000
00000000
00000000
00001000
01000000
00000000
00010000
00000000
10000000
00000000
01000000
00000000
00000000
00000000
00100000
00000000
00010000
00000000
00000000
01000000
00100000
00000000
10000000
00000000
01000000
00000000
00000000
00000000
00000000
00000000
00100000
00000000
,
00001000
00000000
00000000
00010000
00000100
00000000
00001000
00000000
00000010
00000000
00000100
00000000
00000000
00000000
00000001
00000000
00001000
00000000
00000000
00000100
00000010
00000000
00000001
00000000
00001000
00000000
00000000
00000000
00000000
00000000
00000010
00000000
,
00000100
00000000
00000000
00000001
00001000
00000000
00000100
00000000
00010000
00000000
00001000
00000000
00000000
00000000
01000000
00000000
00010000
00000000
00000000
00100000
01000000
00000000
10000000
00000000
00010000
00000000
00000000
00000000
00000000
00000000
01000000
00000000
,
00100000
00000000
00000000
10000000
01000000
00000000
00100000
00000000
00001000
00000000
00010000
00000000
00000000
00000000
00000100
00000000
00001000
00000000
00000000
00000010
00000100
00000000
00000001
00000000
00001000
00000000
00000100
00000000
00000010
00000000
00000000
00000000
,
00000002
00000000
00000000
00000000
00002003
00000000
00000000
00000000
00003200
00000000
00000000
00000000
00000310
00000001
00000000
00000001
,
00000100
00000000
00000100
00000010
00000000
00000000
00001000
00000000
00000100
00000000
00000000
00000000
00010000
00001000
00000000
00001000
,
01000000
00000000
01000000
00010000
00000000
00100000
00000000
01000000
10000000
00000000
00000000
00000000
00010000
01000000
00000000
01000000
,
00100000
00000000
00100000
10000000
00000000
00000000
01000000
00000000
00100000
00000000
00000000
00000000
00010000
01000000
00000000
01000000
,
00001000
00000000
00001000
00010000
00000000
00000100
00000000
00000100
00001000
00000000
00000000
00000000
00000001
00000100
00000000
00000100
,
00000010
00000000
00000010
00001000
00000000
00000000
00000100
00000000
00000010
00000000
00000000
00000000
00000001
00000100
00000000
00000100
,
00000010
00000000
00000010
00010000
00000000
00001000
00000000
00001000
01000000
00000000
00000000
00000000
00010000
00100000
00000000
00100000
,
01000000
00000000
01000000
10000000
00000000
00000000
00010000
00000000
01000000
00000000
00000000
00000000
00100000
10000000
00000000
10000000
,
01000000
00000000
01000000
00100000
00000000
00001000
00000000
00001000
00010000
00000000
00000000
00000000
00000100
00001000
00000000
00001000
,
00000010
00000000
00000000
00000000
00000100
00000001
00000000
00000001
00000010
00000000
00000000
00000000
00000100
00001000
00000000
00000010
,
00010000
00001000
00000000
00000000
01000000
00010000
00000000
00000000
00100000
00000000
01000000
00000000
10000000
00010000
00000000
00010000
,
01000000
00000000
00000000
00000000
00100000
10000000
00000000
10000000
01000000
00000000
00000000
00000000
00100000
00010000
00000000
01000000
,
00001000
00010000
00000000
00000000
00000010
00001000
00000000
00000000
00000100
00000000
00000010
00000000
00000001
00000100
00000000
00000100
,
00000010
00000000
00000000
00000000
00001000
00000100
00000000
00000100
00000010
00000000
00000000
00000000
00001001
00000000
00000000
00000000
,
00000100
00010100
00000000
00001000
00101000
00000000
10100000
00000000
;

//--------------- dance-double - M. Emirzian ----------------
#NOTES:
     dance-double:
     M. Emirzian:
     Challenge:
     10:
     0.670052,0.766764,0.130288,0.048858,0.944587,576,560,16,6,0,0,0.670052,0.766764,0.130288,0.048858,0.944587,576,560,16,6,0,0:
00000000
00000000
00000000
00000000
,
00000000
00000000
00000000
00000000
,
00000000
00000000
00000000
00000000
,
00000000
00000000
00000000
00000000
,
00000001
00000000
00001100
00000000
00001001
00000000
00000000
00000010
,
00001010
00011000
01001000
00000000
,
11000000
00000000
00000000
00000000
10100000
00000000
00000000
01000000
,
01010000
00000000
00000000
00100000
00011000
00000000
00010100
00000000
,
00001000
00000100
00000000
00000100
00000010
00000000
00000010
00000001
00000000
00001000
00000001
00001000
00000100
00000000
00000010
00000000
,
00000001
00000100
00000000
00000100
00000010
00000000
00000010
00001000
00000000
00000100
00000000
00010000
00001000
00010000
00000100
00000000
,
00010000
00001000
00000000
00001000
01000000
00000000
01000000
00010000
00000000
10000000
01000000
00100000
01000000
00000000
10000000
00000000
,
00010000
01000000
00000000
01000000
00100000
00000000
00100000
10000000
00000000
01000000
00000000
00010000
00001000
00100000
00001000
00000000
,
00010000
00000100
00000000
00000100
00001000
00000000
00001000
00000010
00000000
00000100
00000001
00000100
00000010
00000000
00001000
00000000
,
00000100
00000010
00000000
00000010
00000001
00000000
00000001
00000100
00000000
00001000
00000000
00010000
00000100
00010000
00001000
00000000
,
01000000
00010000
00000000
00010000
00100000
00000000
00100000
01000000
00000000
10000000
00010000
01000000
00100000
00000000
10000000
00000000
,
00010000
01000000
00000000
01000000
00100000
00000000
00100000
10000000
00000000
01000000
00000000
00100000
00001000
00010000
00001000
00000000
,
00010000
00000100
00000000
00001000
00000100
00001000
00000001
00000000
00001000
00000100
00000000
00000100
00000010
00000000
00000001
00000100
,
00000010
00000100
00000000
00000001
00001000
00000100
00000000
00000000
00010000
00001000
00000000
00000000
10000000
00000000
00100000
00000000
,
01000000
00010000
00000000
00100000
01000000
10000000
00000000
00000000
00010000
01000000
00000000
01000000
00100000
00000000
10000000
00000000
,
01000000
00100000
00000000
00010000
01000000
00001000
00000000
00000000
00001000
00000001
00000000
00000100
00000010
00000000
00001000
00000100
,
00000010
00000001
00000000
00001000
00000100
00001000
00000001
00000000
00000100
00000010
00000000
00000010
00001000
00000000
00000100
00000000
,
00000011
00000000
00001000
00010100
00000000
00010000
01001000
00000000
,
00100000
10000000
00100000
00000000
01000000
00010000
00000000
00100000
01000000
10000000
01000000
00000000
00100000
00010000
00000000
01000000
,
00001000
00010000
00000100
00000000
00001000
00000001
00000000
00000001
00000010
00000000
00000100
00000000
00001000
00000000
00000001
00000000
,
00000100
00000010
00000100
00000000
00000001
00001000
00000000
00000100
00010000
00001000
00010000
00000000
00100000
01000000
00000000
00010000
,
10000000
01000000
00100000
00000000
00010000
01000000
00000000
01000000
00100000
00000000
10000000
00000000
01000000
00000000
00100000
00000000
,
00010000
10000000
01000000
00000000
00010000
00001000
00000000
00100000
00001000
00010000
00000010
00000000
00001000
00000100
00000000
00000010
,
00000001
00000100
00000010
00000000
00001000
00000100
00000000
00000100
00000010
00000000
00000001
00000000
00000100
00000000
00001000
00000000
,
00010000
00001000
00100000
00000000
01000000
00100000
00000000
00010000
01000000
00100000
10000000
00000000
01000000
00100000
00000000
00010000
,
01000000
00001000
00010000
00000000
00000100
00001000
00000000
00001000
00000010
00000000
00000100
00000000
00000001
00000000
00000010
00000000
,
00000100
00001000
00000001
00000000
00000100
00000000
00000010
00000000
00010000
00000000
00001000
00000000
00000100
00000000
00000001
00000000
,
00000100
00000010
00001000
00000000
00000100
00000000
00010000
00000000
00001000
00000000
00000010
00000000
00001000
00000000
00010000
00000000
,
00100000
01000000
00010000
00000000
00100000
00000000
01000000
00000000
00100000
00000000
00010000
00000000
01000000
00000000
00100000
00000000
,
10000000
01000000
00100000
00000000
00010000
00000000
10000000
00000000
00100000
00000000
00010000
00000000
00001000
00000000
00010000
00000000
,
01000000
10000000
00010000
00000000
01000000
00000000
00100000
00000000
00010000
00000000
00001000
00000000
00000100
00000000
00000010
00000000
,
00010000
00000100
00000010
00000000
00000001
00000000
00000100
00000000
00000010
00000000
00010000
00000000
00001000
00000000
00000010
00000000
,
00000001
00000100
00000010
00000000
00001000
00000000
00000100
00000000
00010000
00000000
00100000
00000000
00010000
00000000
00001000
00000000
,
01000000
00000000
00000000
00010000
00000000
00000000
00100000
00000000
00000000
00000000
00000000
00000000
01000000
00000000
00000000
00000000
00000000
00000000
10000000
00000000
00000000
00000000
00000000
00000000
00010000
00000000
00000000
00000000
01000000
00000000
00000000
00000000
00100000
00000000
00000000
00000000
10000000
00000000
00000000
00000000
00000000
00000000
00000000
00000000
00000000
00000000
00000000
00000000
,
02000000
00000000
00000000
00000000
03200000
00000000
00000000
00000000
00320000
00000000
00000000
00000000
00030000
00000000
10000000
00100000
,
01000000
00000000
00010000
00000000
00100000
00000000
00000000
01000000
10000000
00000000
00000000
00000000
00010000
10000000
01000000
00020000
,
00000000
00000000
00000000
00030000
00002000
00000000
00000000
00000000
00003200
00000000
00000000
00000000
00000300
00000000
00000001
00000010
,
00000100
00000000
00001000
00000000
00000001
00000000
00001000
00000100
00000000
00000000
00000000
00000000
00100000
00000000
10000000
00000000
,
01000000
00000000
00000000
00100000
00010000
00000000
10000000
00000000
00100000
00000000
01000000
00000000
00000000
00000000
00010000
00000000
00100000
00000000
00000000
01000000
10000000
00000000
01000000
00000000
00010000
00000000
00001000
00000000
00000000
00000000
00010000
00000000
,
00000100
00000000
00000000
00001000
00000010
00000000
00000001
00000000
00000010
00000000
00001000
00000000
00000000
00000000
00000100
00000000
00000010
00000000
00000000
00000001
00000100
00000000
00001000
00000000
00010000
00000000
00001000
00000000
00000000
00000000
00000100
00000000
,
00001000
00000000
00000000
00010000
00001000
00000000
00010000
00000000
01000000
00000000
10000000
00000000
00000000
00000000
00010000
00000000
01000000
00000000
00000000
00100000
10000000
00000000
01000000
00000000
00100000
00000000
00010000
00000000
10000000
00000000
00100000
00000000
,
01000000
00000000
00000000
00001000
00010000
00000000
00001000
00000000
00000010
00000000
00000001
00000000
00000000
00000000
00000010
00000000
00000100
00000000
00000000
00001000
00000001
00000000
00000100
00000000
00000010
00000000
00001000
00000000
00000100
00000000
00000000
00000000
,
00011000
00000000
00000000
00000000
00000000
00000000
00000000
00000000
00000000
00000000
00000000
00000000
10000000
00000000
00000000
00000000
00100000
00000000
00000000
00000000
01000000
00000000
00000000
00000000
00010000
00000000
00000000
00000000
00100000
00000000
00000000
00000000
01000000
00000000
00000000
00000000
10000000
00000000
00000000
00010000
00000000
00000000
00000000
00000000
00000000
00010000
00000000
00000000
,
00100000
00000000
00100000
01000000
00000000
10000000
01000000
00100000
00010000
00000000
01000000
00000000
00001000
00010000
00000000
00010000
,
00000100
00000000
00000100
00001000
00000000
00000010
00000000
00000100
00000001
00000100
00000010
00000000
00001000
00000100
00000000
00000100
,
00000010
00000000
00000010
00000001
00000000
00000100
00000010
00010000
00001000
00000000
00010000
00000000
00001000
01000000
00000000
01000000
,
00010000
00000000
00010000
00100000
00000000
01000000
00000000
10000000
00010000
10000000
01000000
00000000
00010000
00001000
00000000
00001000
,
01000000
00000000
01000000
00001000
00000000
00010000
00000100
00010000
00001000
00000000
00000100
00000000
00000001
00001000
00000000
00001000
,
00000100
00000000
00000100
00000010
00000000
00000001
00000000
00000100
00000010
00001000
00000010
00000000
00000100
00001000
00000000
00001000
,
00010000
00000000
00001000
00000010
00000000
00000001
00000100
00000010
00001000
00000000
00000001
00000000
00000010
00000100
00000000
00000100
,
00001000
00000000
00000001
00000100
00000000
00001000
00000000
00010000
00000100
00010000
00001000
00000000
00100000
00010000
00000000
01000000
,
00100000
10000000
01000000
00000000
00100000
00010000
00000000
00010000
01000000
00000000
00100000
10000000
01000000
00100000
00000000
00010000
,
01000000
00001000
00000000
00000000
00001000
00000001
00000000
00000000
00000010
00000000
00000100
00000000
00001000
00000001
00000000
00000100
,
00000010
00001000
00000000
00000000
00000100
00000010
00000000
00000010
00000001
00000000
00000100
00000000
00000010
00001000
00000000
00000100
,
00000010
00000001
00000000
00000000
00000100
00000010
00000000
00000010
00001000
00000000
00000100
00010000
00001000
00010000
00000000
01000000
,
00100000
00010000
01000000
00000000
00100000
10000000
00000000
10000000
01000000
00000000
00100000
00010000
01000000
00010000
00000000
00100000
,
00001000
00010000
00000000
00000000
00000001
00001000
00000000
00000000
00010100
00000000
00000000
00000000
01001000
00000000
00000000
00000000
;

//--------------- lights-cabinet - ----------------
#NOTES:
     lights-cabinet:
     :
     Easy:
     1:
     0.834075,0.890436,1.017874,0.171003,0.521151,717,520,125,21,0,37,0.834075,0.890436,1.017874,0.171003,0.521151,717,520,125,21,0,37:
00000000
11110000
00000000
11110000
00000000
11110000
00000000
11110000
,
00000000
11110000
00000000
11110000
00000000
11110000
00000000
11110000
,
00000000
11110000
00000000
11110000
00000000
11110000
00000000
11110000
,
11110000
11110000
11110000
11110000
,
22220000
33330000
00000000
00000000
,
22220000
33330000
00000000
00000000
,
22220000
00000000
33330000
00000000
00000000
00000000
00000000
11110000
,
11110000
00000000
00000000
11110000
11110000
00000000
22220000
33330000
,
10000000
01000000
00100000
00010000
10000000
01000000
00100000
00010000
,
10000000
01000000
00100000
00010000
10000000
01000000
00100000
00010000
,
00010000
00100000
01000000
10000000
00010000
00100000
01000000
10000000
,
00010000
00100000
01000000
10000000
00010000
00100000
01000000
10000000
,
10000000
01000000
00100000
00010000
10000000
01000000
00100000
00010000
,
10000000
01000000
00100000
00010000
10000000
01000000
00100000
00010000
,
00010000
00100000
01000000
10000000
00010000
00100000
01000000
10000000
,
00010000
00100000
01000000
10000000
00010000
00100000
01000000
10000000
,
00110000
11000000
00000000
01010000
10100000
00000000
11000000
01010000
,
10100000
00110000
00000000
11000000
10010000
00110000
11000000
00000000
,
01010000
10100000
00000000
11000000
01010000
10100000
00110000
00000000
,
11000000
10010000
01010000
10100000
01010000
01100000
10010000
01100000
,
11110000
00000000
11110000
00000000
,
10100000
00000000
01010000
10100000
00000000
11110000
11110000
00000000
,
10000000
01000000
00100000
00010000
10000000
00000000
01100000
00000000
00010000
00000000
01100000
00000000
10010000
00000000
00000000
00000000
,
10000000
01000000
00100000
00010000
10000000
00000000
01100000
00000000
00010000
00000000
01100000
00000000
10010000
00000000
00000000
00000000
,
00010000
00100000
01000000
10000000
00010000
00000000
01100000
00000000
10000000
00000000
01100000
00000000
10010000
00000000
00000000
00000000
,
00010000
00100000
01000000
00000000
10010000
00000000
00000000
00000000
10000000
01000000
00100000
00000000
10010000
00000000
00000000
00000000
,
10000000
01000000
00100000
00010000
10000000
00000000
01100000
00000000
00010000
00000000
01100000
00000000
10010000
00000000
00000000
00000000
,
10000000
01000000
00100000
00010000
10000000
00000000
01100000
00000000
00010000
00000000
01100000
00000000
10010000
00000000
00000000
00000000
,
00010000
00100000
01000000
10000000
00010000
00000000
01100000
00000000
10000000
00000000
01100000
00000000
10010000
00000000
00000000
00000000
,
11000000
00110000
00000000
11000000
00000000
10010000
11110000
00000000
,
10000000
00100000
01000000
00010000
10000000
00100000
01000000
00010000
10000000
00100000
01000000
00010000
10000000
00100000
01000000
00010000
,
10000000
00100000
01000000
00010000
10000000
00100000
01000000
00010000
10000000
00100000
01000000
00010000
10000000
00000000
00000000
00000000
,
00010000
01000000
00100000
10000000
00010000
01000000
00100000
10000000
00010000
01000000
00100000
10000000
00010000
01000000
00100000
10000000
,
00010000
01000000
00100000
10000000
00010000
01000000
00100000
10000000
00010000
00000000
01100000
00000000
11110000
00000000
00000000
00000000
,
10000000
01000000
00100000
00010000
10000000
01000000
00100000
00010000
10000000
01000000
00100000
00010000
10000000
01000000
00100000
00010000
,
10000000
01000000
00100000
00010000
10000000
01000000
00100000
00010000
10000000
01000000
00100000
00010000
20000000
00000000
00000000
30000000
,
00010000
00100000
01000000
10000000
00010000
00100000
01000000
10000000
00010000
00100000
01000000
10000000
00010000
00100000
01000000
10000000
,
00010000
00000000
00000000
00100000
00000000
00000000
01000000
00000000
00000000
10000000
00000000
00000000
00010000
00000000
00000000
00100000
00000000
00000000
01000000
00000000
00000000
10000000
00000000
00000000
10010000
00000000
00000000
00000000
01100000
00000000
00000000
00000000
10010000
00000000
00000000
00000000
11110000
00000000
00000000
00000000
00000000
00000000
00000000
00000000
00000000
00000000
00000000
00000000
,
10000000
01000000
00100000
00010000
10000000
01000000
00100000
00010000
10000000
01000000
00100000
00010000
10000000
01000000
00100000
00010000
,
10000000
01000000
00100000
00010000
10000000
01000000
00100000
00010000
10000000
01000000
00100000
00010000
10000000
00000000
01100000
00000000
,
10000000
01000000
00100000
00010000
10000000
01000000
00100000
00010000
10000000
01000000
00100000
00010000
10000000
01000000
00100000
00010000
,
10000000
01000000
00100000
00010000
10000000
01000000
00100000
00010000
10000000
01000000
00100000
00010000
10000000
00000000
01100000
00000000
,
10000000
00000000
00000000
01000000
10000000
00000000
00010000
00000000
01000000
00000000
00100000
00000000
00000000
00000000
10000000
00000000
01000000
00000000
00000000
00100000
00010000
00000000
00100000
00000000
10000000
00000000
00010000
00000000
00000000
00000000
10000000
00000000
,
00010000
00000000
00000000
00100000
00010000
00000000
10000000
00000000
00100000
00000000
01000000
00000000
00000000
00000000
00010000
00000000
00100000
00000000
00000000
01000000
10000000
00000000
01000000
00000000
00010000
00000000
10000000
00000000
00100000
00000000
01000000
00000000
,
00010000
00000000
00000000
00100000
00010000
00000000
10000000
00000000
00100000
00000000
01000000
00000000
00000000
00000000
00010000
00000000
00100000
00000000
00000000
01000000
10000000
00000000
01000000
00000000
00010000
00000000
10000000
00000000
00000000
00000000
00010000
00000000
,
10000000
00000000
00000000
01000000
10000000
00000000
00010000
00000000
01000000
00000000
00100000
00000000
00000000
00000000
10000000
00000000
01000000
00000000
00000000
00100000
00010000
00000000
00100000
00000000
10000000
00000000
00010000
00000000
01000000
00000000
00100000
00000000
,
20000000
00000000
00000000
00000000
00020000
00000000
00000000
00000000
02200000
00000000
00000000
33330000
10000000
00000000
01000000
00000000
,
00100000
00010000
10000000
01000000
00100000
00010000
10000000
01000000
,
00100000
00010000
10000000
01000000
00100000
00010000
00010000
00100000
,
01000000
10000000
00010000
00100000
01000000
10000000
00010000
00100000
,
01000000
10000000
00010000
00100000
01000000
10000000
10000000
01000000
,
00100000
00010000
10000000
01000000
00100000
00010000
10000000
01000000
,
00100000
00010000
10000000
01000000
00100000
00010000
00010000
00100000
,
01000000
10000000
00010000
00100000
01000000
10000000
00010000
00100000
,
01000000
10000000
00010000
00100000
01000000
10000000
00110000
11000000
,
00000000
01010000
10100000
00000000
11000000
01010000
10100000
00110000
,
00000000
11000000
10010000
00110000
11000000
00000000
01010000
10100000
,
00000000
11000000
01010000
10100000
00110000
00000000
11000000
10010000
,
01010000
10100000
01010000
01100000
10010000
01100000
11110000
00000000
,
00000000
11110000
00000000
10100000
,
01010000
10100000
00000000
11110000
11110000
00000000
11110000
00000000
;
