#TITLE:Dreams of Passion;
#SUBTITLE:;
#ARTIST:Dax;
#TITLETRANSLIT:;
#SUBTITLETRANSLIT:;
#ARTISTTRANSLIT:;
#GENRE:;
#CREDIT:;
#MUSIC:dax - dreams of passion mix.ogg;
#BANNER:Dreams of Passion.png;
#BACKGROUND:Dreams of Passion-bg.png;
#CDTITLE:;
#SAMPLESTART:55.293;
#SAMPLELENGTH:12.900;
#SELECTABLE:YES;
#OFFSET:0.013;
#BPMS:0.000=97.055;
#STOPS:;
#BGCHANGES:;
#FGCHANGES:;

//--------------- dance-single - M. Puls ----------------
#NOTES:
     dance-single:
     M. Puls:
     Beginner:
     1:
     0.07147,0.097973,0.008338,0,0,60,59,1,0,0,0,0.07147,0.097973,0.008338,0,0,60,59,1,0,0,0:
0000
0000
0000
0000
,
0000
0000
0000
0000
,
0000
0000
0000
0000
,
0000
0000
0000
0000
,
1000
0000
0000
0000
,
0100
0000
0000
0000
,
1000
0000
0000
0000
,
0001
0000
0000
0000
,
0010
0000
0000
0000
,
0001
0000
0000
0000
,
0100
0000
0000
0000
,
0010
0000
0000
0000
,
0100
0000
0000
0000
,
1000
0000
0001
0000
,
1000
0000
0000
0000
,
0001
0000
1000
0000
,
0001
0000
0000
0000
,
0100
0000
0100
0000
,
0100
0000
0000
0000
,
0010
0000
0010
0000
,
0010
0000
0000
0000
,
1000
0000
0000
0000
,
0001
0000
0000
0000
,
1000
1000
0000
0000
,
0001
0001
0000
0000
,
1000
0001
0000
0000
,
0001
1000
0000
0000
,
0100
0100
0000
0000
,
0010
0010
0000
0000
,
1000
0000
0000
0000
,
0010
0000
0000
0000
,
0100
0000
0000
0000
,
0001
0000
0000
0000
,
0001
0000
0000
0000
,
0100
0000
0000
0000
,
0010
0000
0000
0000
,
1000
0000
0000
0000
,
0010
0000
0000
0000
,
0100
0000
0000
0000
,
1000
0000
1000
0000
,
1000
0000
0001
0000
,
0001
0000
0001
0000
,
0100
0000
0100
0000
,
0100
0000
0010
0000
,
0010
0000
0010
0000
,
0000
0000
0000
0000
,
0100
0000
0000
0000
,
1001
0000
0000
0000
;

//--------------- dance-single - K. Ward ----------------
#NOTES:
     dance-single:
     K. Ward:
     Easy:
     2:
     0.120307,0.156757,0.025014,0,0,101,98,3,0,0,0,0.120307,0.156757,0.025014,0,0,101,98,3,0,0,0:
0000
0000
0000
0000
,
0000
0000
0000
0000
,
0100
0000
0001
0000
,
0000
0000
0000
0000
,
0001
0000
0100
0000
,
0000
0000
0010
0000
,
0001
0000
0000
0000
,
0100
0000
0010
0000
,
0000
0000
1000
0000
,
0100
0000
0000
0000
,
0000
0000
0010
0000
,
0100
0000
0000
0000
,
0001
0000
0000
0000
,
0001
0000
1000
1000
,
0001
0000
0000
0000
,
0100
0000
0100
0100
,
0010
0000
0000
0000
,
1000
0000
0001
1000
,
0100
0000
0000
0000
,
0010
0010
0010
0010
,
0000
1001
0000
0000
,
0000
0110
0000
0100
,
0001
0001
1000
0000
,
0010
0010
1000
0000
,
0001
0001
0010
0000
,
0100
0100
1000
0000
,
0010
0010
0000
0000
,
1000
1000
0000
0000
,
0001
0001
0001
0000
,
1000
1000
1000
0000
,
0010
0010
0010
0000
,
0100
0100
0100
0000
,
1000
0100
0000
0000
,
0001
0010
0000
0000
,
0001
1000
0001
1000
,
0010
0010
0010
0000
,
0100
0000
0000
0000
,
0001
0000
0000
0000
,
1000
0000
0110
0000
,
0001
0000
0100
0000
,
0010
0000
1000
1000
,
0010
0000
0100
0000
,
0001
0000
0010
0010
,
0100
0000
1000
0000
,
0001
0001
0001
0001
,
1000
0000
0000
0010
,
0100
0000
0100
0000
0000
0000
0010
1000
,
0001
0000
0000
0000
;

//--------------- dance-single - K. Ward ----------------
#NOTES:
     dance-single:
     K. Ward:
     Medium:
     4:
     0.198924,0.235135,0.066705,0.066705,0,167,159,8,8,0,0,0.198924,0.235135,0.066705,0.066705,0,167,159,8,8,0,0:
0000
0000
0000
0000
,
0000
0000
0000
0000
,
0000
0000
0000
0000
,
0000
0000
0000
0000
,
0010
0000
0001
0000
,
1000
0000
0100
0000
,
0100
0000
1000
0000
,
0001
0000
0100
0010
,
0010
1010
0100
1100
,
1000
0001
1000
1000
,
1000
0110
0001
0110
,
0010
0100
0010
0010
,
0200
0001
0000
0001
,
0000
0001
0301
0001
,
2001
0000
0001
0001
,
0000
0001
3001
1000
,
0010
0110
1000
0110
,
0100
0000
0001
0000
1000
0001
0100
0000
,
0000
0010
0000
1000
,
0010
0100
0010
1000
,
0010
1000
1000
1000
,
0010
0010
0010
1000
,
1000
1000
0100
1000
,
0010
0010
0001
0010
,
1000
1000
0001
1000
,
0100
0100
0010
0010
,
1000
1000
1000
0001
,
1000
0000
1000
0000
0010
0100
0010
0000
,
1000
1000
0001
0100
,
0010
1000
0001
0100
,
0001
0100
0010
0100
,
0001
0001
1000
0001
,
1000
0000
0010
0000
0100
0010
0100
0000
,
0001
0001
0010
0001
,
1000
0000
1000
0000
0001
0100
0001
0000
,
0010
0010
0001
1001
,
2000
0001
0000
3001
,
0002
0100
0000
0103
,
0020
0000
0000
0130
,
0001
0001
0010
0001
,
1000
0010
1000
1000
,
0001
1000
0010
0100
,
0001
0100
0100
0100
,
0010
2000
0000
0000
3010
0000
0000
0000
,
0010
2000
0000
0000
3010
0000
0100
0000
,
0020
1000
1000
1030
,
1000
0010
0100
0001
,
1000
0000
0000
0000
;

//--------------- dance-single - K. Ward ----------------
#NOTES:
     dance-single:
     K. Ward:
     Hard:
     7:
     0.293026,0.313514,0.13341,0.141748,0.025014,246,230,16,17,0,0,0.293026,0.313514,0.13341,0.141748,0.025014,246,230,16,17,0,0:
0000
0000
0000
0000
,
0000
0000
0000
0000
,
0000
0000
0000
0000
,
0000
0000
0000
0000
,
1000
0000
0001
0000
0000
0000
0000
0100
0010
0000
1000
0000
0000
0000
0000
0000
,
0001
0000
1000
0000
0000
0000
0000
0001
0100
0000
0001
0000
0000
0000
0000
0000
,
0100
0000
0010
0000
0000
0000
0000
0100
0010
0000
1000
0000
0000
0000
0000
0000
,
0001
0000
0100
0000
0000
0000
0000
0001
0100
0000
0001
0000
1000
0000
0010
0000
,
2000
3001
0200
0301
,
0001
0100
0010
1000
0001
0000
0001
0000
,
0002
1003
0020
1030
,
1000
0010
0100
0001
1000
0000
1000
0010
,
0200
0010
0000
0001
,
0000
0000
0010
0000
0301
0100
0010
1000
,
2000
0001
0010
0010
,
0001
0000
0010
0000
3001
0100
0010
1000
,
0020
0130
0002
0103
,
0100
0000
0001
0000
1000
0100
1000
0002
,
0000
0103
0000
0001
,
1000
0000
0010
0000
0100
0000
0001
0000
1000
0010
1000
0000
0001
0100
0001
0000
,
1000
0010
0010
0010
,
0100
0010
0100
0000
0100
0000
0001
0000
,
0101
0000
0001
1000
0100
0010
0001
0000
,
1100
0000
1000
0001
0010
0001
1000
0000
,
0011
0000
0001
1000
0010
0100
0001
0000
,
1100
0000
0100
0001
1000
0100
1000
0000
,
0011
0010
0001
0000
0001
0100
0010
1000
,
0001
0000
0001
0000
1000
0010
0100
0000
,
1001
0000
0001
0100
0010
1000
0100
0000
,
1001
0000
1000
0010
0001
0100
0010
0000
,
1010
0000
0100
0010
1000
0001
0100
0000
,
1010
0000
0010
0100
0001
0100
0010
0000
,
1001
0000
1000
0100
0010
0001
1000
0100
,
0010
0000
0010
0100
1000
0001
0010
0100
,
1000
0000
1000
0000
0001
0010
0001
0000
,
1000
0000
1000
0000
0010
0100
0011
0000
,
0102
0000
0100
0000
0100
0000
1000
0003
,
1020
0000
1000
0000
1000
0100
1000
0030
,
2000
0000
0000
0000
0000
0001
0000
3001
,
1000
0100
0010
0001
1000
0100
1001
0000
,
1000
0100
0010
0001
1000
0100
1000
0000
,
0010
1000
0001
0000
0010
0001
0100
0000
,
1020
0000
0100
0000
0100
0000
0130
0001
,
0002
1000
0010
1003
,
0200
0010
1000
0310
,
2000
0010
0100
3010
,
0002
1000
0010
1003
,
1001
0000
0000
0000
;

//--------------- dance-double - M. Emirzian ----------------
#NOTES:
     dance-double:
     M. Emirzian:
     Easy:
     1:
     0.063132,0.099536,0.008338,0.016676,0,53,52,1,2,0,0,0.063132,0.099536,0.008338,0.016676,0,53,52,1,2,0,0:
00000000
00000000
00000000
00000000
,
00000000
00000000
00000000
00000000
,
10000000
00000000
00010000
00000000
,
00000000
00000000
00000000
00000000
,
00000001
00000000
00001000
00000000
,
00000000
00000000
00000100
00000000
,
00010000
00000000
00000000
00000000
,
00001000
00000000
01000000
00000000
,
00000000
00000000
00100000
00000000
,
10000000
00000000
00000000
00000000
,
00000000
00000000
01000000
00000000
,
00001000
00000000
00000000
00000000
,
00010000
00000000
00000000
00000000
,
00000001
00000000
00000000
00000000
,
00010000
00000000
00000000
00000000
,
10000000
00000000
00000000
00000000
,
00001000
00000000
00000000
00000000
,
00000001
00000000
00000000
00000000
,
00010000
00000000
00000000
00000000
,
10000000
00000000
00000000
00000000
,
00000000
00010000
00000000
00000000
,
00000000
00001000
00000000
00000000
,
00000000
00000001
00000000
00000000
,
00000000
00010000
00000000
00000000
,
00000000
10000000
00000000
00000000
,
00001000
00000000
00000000
00000000
,
00000001
00000000
00000000
00000000
,
00010000
00000000
00000000
00000000
,
10000000
00000000
00000000
00000000
,
00010000
00000000
00000000
00000000
,
00000001
00000000
00000000
00000000
,
00010000
00000000
00000000
00000000
,
01000000
00000000
00000000
00000000
,
10000000
00000000
00000000
00000000
,
00001000
00000000
00000000
00000000
,
00000001
00000000
00000000
00000000
,
00001000
00000000
00000000
00000000
,
10000000
00000000
00000000
00000000
,
00001000
00000000
00000000
00000000
,
00010000
00000000
00001000
00000000
,
00000001
00000000
00001000
00000000
,
00010000
00000000
10000000
00000000
,
00010000
00000000
00001000
00000000
,
00000001
00000000
00000000
00000000
,
00010000
00000000
00000000
00000000
,
10000000
00000000
00000000
00000000
,
00001000
00000000
00000000
00000000
,
00000220
00000000
00000000
00000330
;

//--------------- dance-double - M. Emirzian ----------------
#NOTES:
     dance-double:
     M. Emirzian:
     Medium:
     2:
     0.128645,0.159258,0.008338,0.016676,0,108,107,1,2,0,0,0.128645,0.159258,0.008338,0.016676,0,108,107,1,2,0,0:
00000000
00000000
00000000
00000000
,
00000000
00000000
00000000
00000000
,
10000000
00000000
00010000
00000000
,
00100000
00100000
00001000
00000000
,
00010000
00000000
00001000
00000000
,
00000010
00000000
00000001
00000000
,
00001000
00000000
00010000
00000000
,
10000000
00000000
10000000
00000000
,
00010000
00000000
00001000
00000000
,
00000001
00000000
00001000
00000000
,
00000100
00000000
00010000
00000000
,
00001000
00000000
01000000
00000000
,
00100000
00000000
10000000
00010000
,
00001000
00000000
00010000
00001000
,
00000001
00000000
00000000
00000100
,
00000000
00000010
00000000
00001000
,
00000000
00010000
00000000
01000000
,
00000000
00100000
00000000
00000000
,
10000000
00010000
00001000
00000001
,
00000000
00000100
00000010
00000010
,
00010000
00000000
00000000
00000000
,
00001000
01000000
10000000
00000000
,
01000000
00000000
00001000
00000000
,
00000010
00000001
00000001
00000000
,
00000100
00000000
00000010
00000000
,
00001000
00010000
10000000
00000000
,
01000000
00000000
00100000
00000000
,
00001000
00010000
00000001
00000000
,
00000100
00000000
00000100
00000000
,
00001000
00000000
00001000
00000000
,
00010000
10000000
00010000
00000000
,
01000000
00000000
00000000
00000000
,
10000000
00010000
00001000
00000000
,
00000001
00001000
00010000
00000000
,
01000000
00000000
10000000
00000000
,
00010000
00001000
00000001
00000000
,
00000100
00000000
00000100
00000000
,
00001000
00000000
00001000
00000000
,
00010000
00000000
00010000
00000000
,
01000000
00000000
01000000
00000000
,
00100000
00100000
10000000
00000000
,
01000000
00010000
00001000
00000000
,
00000100
00000001
00001000
00000000
,
00000001
00001000
00010000
10000000
,
00000000
10000000
00010000
00001000
,
00000001
00000000
00000000
00000000
,
00001000
00000000
00010000
00000000
,
20020000
00000000
00000000
30030000
;

//--------------- dance-double - M. Emirzian ----------------
#NOTES:
     dance-double:
     M. Emirzian:
     Hard:
     5:
     0.282305,0.333108,0.083381,0.050029,0,237,227,10,6,0,0,0.282305,0.333108,0.083381,0.050029,0,237,227,10,6,0,0:
00000000
00000000
00000000
00000000
,
00000000
00000000
00000000
00000000
,
00000000
00000000
00000000
00000000
,
00000000
00000000
00000000
00000000
,
10000000
00010000
00000000
01000000
00100000
10000000
00000000
00000000
,
01000000
00010000
00000000
00001000
00000010
00000001
00000000
00000000
,
00000100
00000010
00000000
00001000
00000100
00010000
00000000
00000000
,
00001000
01000000
00000000
00010000
00100000
01000000
00000000
00000000
,
10000000
00010000
00000000
01000000
00100000
00010000
00000000
00000000
,
00001000
00010000
00000000
00000010
00000100
00000001
00000000
00000000
,
00000010
00000100
00000000
00000000
00010000
00001000
00000000
00000000
,
01000000
00100000
10000000
00000000
00010000
00100000
01000000
10000000
,
00100000
00000000
00000000
00100000
01000000
00000000
00010000
00000000
,
00100000
00000000
00000000
00001000
00010000
00000000
00000010
00000000
,
00000100
00000000
00000000
00000001
00000010
00000000
00000100
00000000
,
00010000
00000000
00000000
00001000
00000100
00000000
00001000
00000000
,
00010000
00000000
00000000
01000000
10000000
00000000
00010000
00000000
,
01000000
00000000
00100000
00000000
10000000
01000000
00010000
00001000
,
00000200
00000000
00000000
00000301
,
00000010
00000000
00000100
00000000
00001000
00000010
00000100
00000001
,
00000100
00000010
00000010
00000010
,
00010000
00001000
01000000
00000000
00100000
00000000
00100000
00000000
,
01010000
00000000
00010000
10000000
01000000
00100000
00010000
00000000
,
01001000
00000000
00001000
00010000
00000010
00001000
00000100
00000000
,
00000011
00000000
00000001
00001000
00000010
00000100
00000001
00000000
,
00001100
00000000
00000100
00010000
00001000
01000000
00010000
00000000
,
10000000
01000000
10000000
00000000
00010000
00100000
01000000
10000000
,
00100000
00000000
00010000
00000000
00001000
00000010
00000001
00000000
,
00001001
00000000
00000001
00000100
00000010
00001000
00000100
00000000
,
00011000
00000000
00001000
00100000
00010000
01000000
00100000
00000000
,
10100000
00000000
01000000
00100000
00001000
00010000
00000100
00000000
,
00001010
00000000
00000010
00000100
00000001
00000100
00000010
00000000
,
00011000
00000000
00001000
01000000
00100000
10000000
00100000
00000000
,
01000000
00010000
00100000
01000000
10000000
00010000
00100000
01000000
,
10000000
00100000
01000000
00001000
,
00010000
00000100
00001000
00000000
00000010
00000100
00000001
00000010
,
00000100
00000000
00000100
00000000
00000100
00010000
00001000
00000000
,
00001000
00000000
00001000
00000000
00001000
01000000
00010000
00000000
,
00010000
00000000
00010000
00000000
00010000
10000000
01000000
00100000
,
00010000
01000000
00100000
10000000
00010000
01000000
00100000
10000000
,
00010000
00100000
00001000
00010000
00001000
00010000
00000100
00001000
,
00000010
00000100
00000001
00000000
00000010
00000000
00000100
00000000
,
00002000
00000010
00000100
00003010
,
00020000
00001000
00100000
00031000
,
02000000
00100000
00001000
03100000
,
20000000
00100000
01000000
30100000
,
00020000
00001000
00100000
00031000
,
00001010
00000000
00000000
00000000
;

//--------------- lights-cabinet - ----------------
#NOTES:
     lights-cabinet:
     :
     Easy:
     1:
     0.477656,0.568243,0.783784,0,0.025014,401,255,94,0,0,38,0.477656,0.568243,0.783784,0,0.025014,401,255,94,0,0,38:
00000000
00000000
00000000
00000000
,
00000000
00000000
00000000
00000000
,
00000000
10010000
00000000
00000000
00000000
01100000
00000000
00000000
,
00000000
10010000
00000000
00000000
01100000
00000000
10010000
00000000
,
11100000
00000000
00010000
00000000
00010000
00000000
00000000
01000000
10100000
00000000
10000000
00000000
00110000
00000000
00000000
00000000
,
10010000
00000000
10000000
00000000
10100000
00000000
00000000
00010000
01010000
00000000
01010000
00000000
01010000
00000000
00000000
00000000
,
11100000
00000000
00100000
00000000
00110000
00000000
00000000
01000000
10100000
00000000
10010000
00000000
10010000
00000000
00000000
00000000
,
01110000
00000000
01000000
00000000
01100000
00000000
00000000
00010000
11010000
00000000
00010000
00000000
10000000
00000000
00100000
00000000
,
10000000
00010000
11100000
00010000
,
10110000
01000000
01110000
10000000
10110000
10010000
10010000
00000000
,
01010000
10100000
10110000
11100000
,
10010000
00100000
01000000
00010000
11100000
00000000
10010000
00100000
,
11100000
00010000
01110000
00000000
10100000
10010000
01110000
00000000
,
10000000
01000000
00110000
00000000
10010000
01000000
00110000
10000000
,
10000000
10000000
10010000
00000000
01100000
00010000
00110000
00000000
,
10010000
00000000
11100000
00000000
10010000
01000000
00110000
10000000
,
10110000
00000000
11000000
00000000
10010000
00000000
01100000
00010000
,
11000000
00000000
00110000
00000000
11000000
01010000
10100000
00010000
,
10000000
01110000
10000000
10110000
,
10000000
00000000
00100000
00000000
11100000
00000000
00010000
00000000
10000000
00100000
10000000
00000000
00010000
01000000
00010000
00000000
,
10000000
10100000
10100000
10100000
,
01010000
00100000
11000000
00000000
01010000
00000000
10010000
00000000
,
11110000
00000000
00010000
10000000
01000000
00100000
00010000
00000000
,
11110000
00000000
10000000
00010000
00100000
00010000
10000000
00000000
,
11110000
00000000
00010000
10000000
00100000
01000000
00010000
00000000
,
11110000
00000000
01000000
00010000
10000000
01000000
10000000
00000000
,
11110000
00100000
00010000
00000000
00010000
01000000
00100000
10000000
,
00110000
00000000
00010000
00000000
10000000
00100000
01000000
00000000
,
11110000
00000000
00010000
01000000
00100000
10000000
01000000
00000000
,
11110000
00000000
10000000
00100000
00010000
01000000
00100000
00000000
,
11110000
00000000
01000000
00100000
10000000
00010000
01000000
00000000
,
11110000
00000000
00100000
01000000
00010000
01000000
00100000
00000000
,
11110000
00000000
10000000
01000000
00100000
00010000
10000000
01000000
,
10110000
00000000
00100000
01000000
10000000
00010000
00100000
01000000
,
11110000
00000000
10000000
00000000
00010000
00100000
00010000
00000000
,
11110000
00000000
10000000
00000000
00100000
01000000
00110000
00000000
,
11110000
01000000
01000000
10000000
,
11110000
00000000
11010000
00000000
11010000
01000000
10110000
00000000
,
11010000
00000000
00000000
00000000
11000000
00010000
11000000
00010000
,
10000000
01000000
00100000
00010000
10000000
01000000
10010000
00000000
,
10000000
01000000
00100000
00010000
10000000
01000000
10000000
00000000
,
00100000
10000000
00010000
00000000
00100000
00010000
01000000
00000000
,
10100000
00000000
01000000
00000000
01000000
00000000
01000000
00010000
,
00010000
10000000
00100000
10000000
,
01000000
00100000
10000000
00100000
,
10000000
00100000
01000000
00100000
,
00010000
10000000
00100000
10000000
,
10010000
00000000
00000000
00000000
;
