#TITLE:Don't Promise Me;
#SUBTITLE:;
#ARTIST:Reflection Theory;
#TITLETRANSLIT:;
#SUBTITLETRANSLIT:;
#ARTISTTRANSLIT:;
#GENRE:;
#CREDIT:;
#MUSIC:Don't Promise Me.ogg;
#BANNER:Don't Promise Me.png;
#BACKGROUND:Don't Promise Me-bg.png;
#CDTITLE:;
#SAMPLESTART:42.260;
#SAMPLELENGTH:14.860;
#SELECTABLE:YES;
#OFFSET:0.013;
#BPMS:0.000=132.100
,80.000=66.050
,88.000=132.100
,252.000=66.070
;
#STOPS:;
#BGCHANGES:;
#FGCHANGES:;

//--------------- dance-single - M. Puls ----------------
#NOTES:
     dance-single:
     M. Puls:
     Beginner:
     1:
     0.076073,0.147831,0.023844,0,0,67,64,3,0,0,0,0.076073,0.147831,0.023844,0,0,67,64,3,0,0,0:
0000
0000
0000
0000
,
0000
0000
0000
0000
,
0000
0000
0000
0000
,
0000
0000
0000
0000
,
0000
0000
0000
0000
,
0000
0000
0000
0000
,
0000
0000
1000
0000
,
0000
0000
0001
0000
,
0000
0000
1000
0000
,
0000
0000
0001
0000
,
0000
0000
1000
0000
,
0001
0000
1000
0000
,
0001
0000
0000
0000
,
1000
0000
0000
0000
,
0100
0000
0000
0000
,
0010
0000
0000
0000
,
0100
0000
0000
0000
,
1000
0000
0000
0000
,
0001
0000
0000
0000
,
1000
0000
0000
0000
,
0001
0000
0000
0000
,
0000
0000
0000
0000
,
1000
0000
0000
0000
,
1000
0000
0000
0000
,
0100
0000
0000
0000
,
1000
0000
0000
0000
,
0001
0000
0000
0000
,
0100
0000
0000
0000
,
0010
0000
0000
0000
,
1000
0000
0001
0000
,
0001
0000
0000
0000
,
0000
0000
1000
0000
,
1000
0000
0000
0000
,
0000
0000
0000
0000
,
0001
0000
0000
0000
,
0001
0000
0000
0000
,
0010
0000
0000
0000
,
0010
0000
0000
0000
,
0000
0000
0000
0000
,
0001
0000
0100
0000
,
0010
0000
0000
0000
,
1000
0000
0010
0000
,
0100
0000
0000
0000
,
0001
0000
0001
0000
,
0001
0000
0000
0000
,
1000
0000
1000
0000
,
0010
0000
0010
0000
,
0100
0000
0000
0000
,
0100
0000
0000
0000
,
0010
0000
0000
0000
,
1000
0000
0000
0000
,
0001
0000
0000
0000
,
1000
0000
0000
0000
,
0100
0000
0010
0000
,
0100
0000
1000
0000
,
1001
0000
0000
0000
,
0100
0000
0000
0000
,
1001
0000
0000
0000
,
0010
0000
0000
0000
,
1001
0000
0000
0000
,
1000
0000
0000
0000
,
0001
0000
1000
0000
,
0001
0000
0000
0000
;

//--------------- dance-single - R. McKanna ----------------
#NOTES:
     dance-single:
     R. McKanna:
     Easy:
     5:
     0.205511,0.302816,0.055635,0.206646,0,181,174,7,26,0,0,0.205511,0.302816,0.055635,0.206646,0,181,174,7,26,0,0:
0000
0000
0000
0000
,
0000
0000
0000
0000
,
0000
0000
0000
0000
,
0000
0000
0000
0000
,
0000
0001
0000
0001
,
0000
0010
0000
0010
,
0000
1000
0000
1000
,
0000
0100
0000
0100
,
0000
0001
0000
0001
,
0000
0100
0000
0100
,
0000
1000
0000
0001
,
0000
0010
0000
0010
0000
0010
0000
0010
,
0000
1000
1000
2000
,
3000
0001
0001
0002
,
0003
0100
0100
0200
,
0300
0010
0010
0020
,
0030
1000
1000
2000
,
3000
0100
0100
0200
,
0300
0010
0010
0020
,
0030
0001
0001
0001
,
0200
0000
0000
0000
,
0000
0000
0000
0000
,
0310
0000
0010
1000
,
0100
0000
0010
0001
,
0100
0000
0000
0100
0000
0000
0100
0000
,
0000
0000
0010
0000
,
1001
0000
1000
1000
,
0100
0000
0001
0001
,
0100
0000
0100
0001
,
0010
0001
0100
0000
,
0100
0000
0100
0001
,
0010
0000
0100
1000
,
0010
0000
0000
0010
0000
0000
0010
0000
,
0000
0000
0100
0000
,
1001
0000
0001
0001
,
0010
0000
1000
1000
,
0010
0000
0010
1000
,
0100
1000
0010
0000
,
0100
0001
0010
0001
,
0100
0001
0001
0002
,
0003
1000
1000
2000
,
3000
0010
0010
0020
,
0030
0100
0100
0200
,
0300
0001
0001
0002
,
0003
0010
0010
0020
,
0030
0100
0100
0200
,
0310
0001
0010
0002
,
0003
0100
0001
0200
,
0300
0100
0010
0200
,
0300
0010
1000
0020
,
0030
1000
0100
2000
,
3000
0100
0010
0200
,
0300
0010
0001
0020
,
0030
0001
0100
0002
,
0003
0100
0010
0200
,
0310
1000
0100
0010
,
1001
0001
0010
0100
,
1001
0010
0100
0010
,
1001
0100
0010
0100
,
1001
0001
1000
0100
,
0010
0100
1000
0001
,
1000
0001
0010
0100
,
0010
0001
1000
0100
,
2002
0000
3003
0000
;

//--------------- dance-single - K. Ward ----------------
#NOTES:
     dance-single:
     K. Ward:
     Medium:
     7:
     0.281584,0.350504,0.246386,0.047688,0,248,217,31,6,0,0,0.281584,0.350504,0.246386,0.047688,0,248,217,31,6,0,0:
0000
0000
0000
0000
,
0000
0000
0000
0000
,
0000
0000
0000
0000
,
0000
0000
0000
0000
,
1000
0001
1000
0001
,
0010
0100
0010
0100
,
0010
0001
1000
0001
,
1000
1000
0100
0010
,
1001
0001
0100
0010
,
0100
0001
1000
0001
,
0010
0100
0000
1001
,
0000
0010
0000
0100
0000
0010
0000
0000
,
0000
0000
1000
0000
0100
0000
0010
0001
,
0100
0000
0001
0000
0100
0000
0010
0100
,
0001
0000
1000
0000
0001
0000
0010
0100
,
1000
0010
0101
1100
,
0000
0000
0001
0000
0001
0000
0010
0001
,
1000
0000
1000
0000
0100
0000
0010
0001
,
0100
0010
0100
0010
,
0000
1100
0101
0110
,
2002
0000
0000
0000
,
0000
0000
0000
3003
,
1000
1000
0010
0100
,
0100
0001
0010
0101
,
1001
0000
0000
0110
0000
0000
1001
0000
,
0000
0000
1000
0100
,
0010
0010
0000
0100
,
0100
0000
0010
0000
0001
0100
0010
0000
,
0100
0000
0001
0000
,
1000
0000
0000
0000
0100
0010
0100
0000
,
1001
0000
0100
0100
,
0010
0000
0100
0000
0001
0010
0100
0000
,
1001
0000
0000
0110
0000
0000
1001
0000
,
0000
0000
0000
0000
0001
1000
0001
0000
,
1001
0000
0110
0000
1000
0100
1000
0000
,
0010
0000
0101
0000
0010
0100
1000
0000
,
1000
0000
0000
0001
0000
0000
0020
0000
,
0000
0000
0000
0000
,
0030
0000
0110
1001
,
0110
0000
0001
0000
0100
0000
0100
0010
,
1000
0000
0100
0000
0010
0000
0001
0010
,
0100
0000
1000
0000
0010
0000
0100
0001
,
1000
0001
0010
1001
,
0000
0000
0100
0000
0001
0000
0010
0100
,
1000
0000
0100
0000
0010
0000
0100
0010
,
0001
0000
0100
0000
0010
0000
0100
0010
,
1000
0200
0000
0300
,
1001
0000
1000
0000
0010
0000
0010
0100
,
0001
0000
0010
0000
0001
0000
0100
0001
,
1000
0000
0100
0000
0010
0000
0001
0010
,
0100
0010
0100
1001
,
0000
0000
0100
0000
0100
0000
0010
1000
,
0100
0000
0010
0000
0010
0000
0001
0100
,
0010
0100
0100
0010
,
0000
1100
0101
1001
,
0000
0000
0100
0000
0100
0000
0100
0010
,
0000
0000
0010
0000
0010
0000
0010
1000
,
0000
0000
1000
0000
1000
0000
1000
0001
,
0000
0010
0100
0010
,
0000
0100
0010
1100
,
0000
0001
1000
1001
,
0000
0010
0100
0010
,
2002
0000
0000
3003
,
0010
0000
0000
0000
;

//--------------- dance-single - R. McKanna ----------------
#NOTES:
     dance-single:
     R. McKanna:
     Hard:
     10:
     0.383771,0.403755,0.071531,0.286125,0.063583,338,329,9,36,0,0,0.383771,0.403755,0.071531,0.286125,0.063583,338,329,9,36,0,0:
0000
0000
0000
0000
,
0000
0000
0000
0000
,
0000
0000
0000
0000
,
0000
0000
0000
0000
,
1000
0010
0000
0100
0000
0010
0000
0100
,
0001
0100
0000
0010
0000
0100
0000
0010
,
1000
0010
0000
1000
0000
0100
0000
0010
,
0010
0010
0000
0100
0000
1000
0000
0010
,
0010
0010
0000
1000
0000
0100
0000
0001
,
0100
1000
0000
0001
0000
0010
0000
1000
,
0010
0001
0000
0010
0200
0000
0000
0300
,
0000
1001
0000
0110
0000
1010
0000
0101
,
0000
0100
0010
0100
0010
0100
0010
2000
,
0000
3100
0010
0100
0010
0100
0010
0002
,
0000
0103
0001
0100
0001
0100
0001
0020
,
0000
0130
1000
0100
1000
0100
1000
0000
,
0000
0010
0100
0010
0100
0010
0100
0002
,
0000
0013
0100
0010
0100
0010
0100
2000
,
0000
3010
1000
0010
1000
0010
1000
0200
,
0000
0310
0001
0010
0001
0010
0001
0000
,
0200
0000
0000
0000
,
0000
0000
0000
0300
,
0001
0010
0001
0100
,
0010
0000
1000
0000
0100
0010
0100
1000
,
0002
0000
0000
0203
0000
0000
0320
0000
,
1030
0000
0100
0000
1000
0010
0100
0010
,
1000
1000
0100
0100
,
0010
0000
0010
0001
0100
0010
0000
2000
,
0000
0000
0000
0000
0000
3000
0000
0001
,
0000
1000
0000
0000
0001
0010
0100
0000
,
1000
0100
1000
0010
,
0100
0001
0010
0100
,
2000
0000
0000
3020
0000
0000
0230
0000
,
0301
0000
0010
0000
0001
0100
0010
0100
,
0001
0000
0001
0000
0001
0010
0100
0010
,
0001
0000
0001
0000
0010
0100
1000
0000
,
0002
0000
0000
1000
0000
0003
2000
0000
,
0000
0000
0000
3100
,
0010
1001
0110
0101
,
1010
0000
0100
0010
1000
0010
0100
0002
,
0000
0013
0100
1000
0100
0010
0100
2000
,
0000
3010
1000
0001
1000
0010
1000
0200
,
0000
0310
0001
1000
0001
0010
0001
0000
,
0000
0100
0010
1000
0001
0100
0010
2000
,
0000
3100
0010
0001
0010
0100
0010
0002
,
0000
0013
0100
1000
0010
0100
0010
1000
,
0000
1000
0100
0010
0001
1000
0200
0000
,
0300
0010
0001
0100
0010
1000
0001
0020
,
0000
0130
1000
0001
0010
0100
1000
0002
,
0000
0103
0010
1000
0001
0100
0010
2000
,
0000
3010
0100
0001
1000
0010
0100
0000
,
0000
0001
0010
0100
1000
0001
0010
0200
,
0000
0310
0001
1000
0100
0010
0001
2000
,
0000
3010
0100
0001
1000
0010
0100
0002
,
0000
0103
0010
1000
0001
0100
0010
0000
,
1001
0000
0000
0000
1000
0000
0100
0000
1000
0000
0001
0100
0000
0100
0002
0000
,
0000
0000
0003
0000
1000
0000
0100
0000
0010
0000
0001
0100
0000
0100
0002
0000
,
0000
0000
0003
0000
0010
0000
0100
0000
1000
0000
0100
0010
0000
0010
0200
0000
,
0000
0000
0300
0000
0010
0000
0100
0000
0010
0000
0001
1000
0000
1000
0001
0000
,
0000
0000
0000
0000
0001
0000
0010
0000
0001
0000
1000
0010
0000
0010
2000
0000
,
0000
0000
3000
0000
0001
0000
0010
0000
0100
0000
1000
0010
0000
0010
2000
0000
,
0000
0000
3000
0000
0100
0000
0010
0000
0001
0000
0010
0100
0000
0100
0020
0000
,
0000
0000
0030
0000
0100
0000
1000
0000
0010
0000
1000
0001
0000
0001
1000
0000
,
0020
0000
0030
0000
;

//--------------- dance-double - M. Emirzian ----------------
#NOTES:
     dance-double:
     M. Emirzian:
     Easy:
     4:
     0.237302,0.252347,0.055635,0.023844,0,209,202,7,3,0,0,0.237302,0.252347,0.055635,0.023844,0,209,202,7,3,0,0:
00000000
00000000
00000000
00000000
,
00000000
00000000
00000000
00000000
,
00000000
00000000
00000000
00000000
,
00000000
00000000
00000000
00000000
,
00001000
00000000
00010000
00001000
,
00000000
01000000
00010000
00100000
,
01010000
00000000
00000000
00100000
,
10000000
01000000
10100000
00000000
,
01000000
00001000
00000000
00010000
,
00000100
00001000
00001010
00000000
,
00000000
00000100
00000001
00000010
,
00000101
00000000
00000000
00000100
,
00000010
00010000
00001000
00010000
,
00000100
00010000
00011000
01000000
,
00010000
00100000
00010000
01000000
,
10000000
01000000
00010000
00100000
,
00000000
01000000
10000000
01000000
,
00010000
01000000
10000000
01000000
,
00010000
00001000
00000100
00000001
,
00000100
00001000
00000100
00000001
,
00000100
00000000
00000010
00010000
,
00001000
01000000
00100000
10000000
,
00010000
00000000
00010000
01000000
,
00001000
00000000
00001000
00010000
,
00001000
00000010
00000001
00000010
,
00001000
00000000
00010000
00100000
,
10000000
00100000
00010000
00000000
,
00001000
00101000
00010000
01000000
,
00000000
10000000
00000000
01000000
,
00000000
00000000
01000000
00100000
,
00010000
00100000
10000000
00100000
,
00010000
01000000
10000000
01000000
,
00010000
00100000
00001000
00010000
,
00000100
00000000
00000010
00000001
,
00000100
00000000
00000010
00000000
,
00010010
00000000
00000100
00001000
,
00010000
00100000
10000000
01000000
,
00000000
01000000
00100000
00000000
,
00002000
00000000
00023000
00000000
,
00031000
00000010
00000001
00000010
,
00001000
00000010
00000001
00000100
,
00001000
00000100
00000001
00000010
,
00000100
00010000
00001000
00000100
,
00000000
00001000
00010000
01000000
,
10000000
01000000
00010000
01000000
,
10000000
00100000
00010000
00001000
,
00000100
00000001
00001000
00000001
,
00000000
00001000
00000100
00000001
,
00000100
00001000
00000010
00001000
,
00000100
00010000
00001000
00100000
,
01000000
10000000
00100000
10000000
,
00000000
10000000
00100000
00010000
,
00100000
10000000
00100000
00010000
,
00100000
10000000
01000000
00010000
,
00001000
00000100
00000001
00000010
,
00000100
00000100
00000010
00000010
,
00000001
00000001
00000100
00000100
,
00001000
00001000
00010000
00010000
,
00100000
00100000
10000000
10000000
,
00000000
10000000
00000000
10000000
,
10000000
01000000
01000000
00100000
,
00100000
00001000
00001000
00010000
,
00000100
00000000
00010000
00000000
,
00002000
00000000
00003000
00000000
;

//--------------- dance-double - M. Emirzian ----------------
#NOTES:
     dance-double:
     M. Emirzian:
     Medium:
     5:
     0.329271,0.37852,0.182802,0.031792,0,290,267,23,4,0,0,0.329271,0.37852,0.182802,0.031792,0,290,267,23,4,0,0:
00000000
00000000
00000000
00000000
,
00000000
00000000
00000000
00000000
,
00000000
00000000
00000000
00000000
,
00000000
00000000
00000000
00000000
,
00001000
00010000
00001000
00001000
,
00010000
00100000
10000000
00000000
,
01000000
00100000
00101000
00001000
,
00010000
00001000
00000010
00000000
,
00000001
00000100
00000010
00000010
,
00000100
00000001
00000010
00001000
,
00010000
00000000
00100000
00000000
,
10000000
00000000
01000000
00000000
00100000
00010000
01000000
00000000
,
00100000
00000000
10000000
00000000
01000000
00000000
00100000
00010000
,
01000000
00000000
00010000
00000000
01000000
00010000
00100000
00000000
,
01000000
00000000
00010000
00001000
00100000
00000000
00010000
00000000
,
01000000
00001000
00010000
00000000
00010100
00000000
00001100
00000000
,
00000010
00000000
00000001
00000000
00000100
00000000
00000010
00001000
,
00000100
00000000
00001000
00000000
00000100
00001000
00000010
00000000
,
00000100
00000000
00001000
00010000
00000010
00000000
00001000
00000000
,
00000100
00010000
00001000
00000000
00101000
00000000
00110000
00000000
,
02000000
00000000
03100000
00000000
10000000
01000000
00010000
00000000
,
00001000
00000010
00000001
00000100
00001000
00000100
00000001
00000000
,
00000100
00000000
00000010
00000000
00001000
00000001
00000010
00000000
,
00000100
00000000
00001000
00000010
00000100
00000000
00000101
00000000
,
00001001
00000000
00000010
00000100
00001000
00000000
00000010
00010000
,
00001000
00010000
00001000
01000000
,
00100000
00000000
10000000
00010000
,
01000000
00100000
20000000
00000000
,
31000000
00020000
00000000
00031000
,
00010000
00010010
00001010
00000100
,
00000001
00000000
00000010
00000000
00000100
00001000
00000001
00000000
,
00000010
00000000
00000100
00010000
00001000
00000000
00010100
00000000
,
00011000
00000000
01000000
00010000
00100000
00000000
01000000
10000000
,
00100000
00000000
01000000
00000000
00010000
00100000
01000000
00000000
,
10010000
00000000
01100000
00000000
10000000
01000000
00010000
01000000
,
10000000
00000000
00100000
00010000
00001000
00000000
00010000
00000000
,
00001000
00010000
00000100
00000000
00001000
00000010
00000100
00000000
,
00000001
00000010
00000101
00001001
,
00000100
00000000
00010000
00000000
,
00001000
00000000
01000000
00000000
00100000
00000000
00100000
01000000
,
00010000
00000000
01000000
00000000
00010000
01000000
00100000
00000000
,
00010000
00000000
00001000
00000010
00000100
00000000
00001000
00000000
,
00000100
00000010
00000001
00000000
00000101
00000000
00001001
00000000
,
00000010
00000000
00000100
00000000
00010000
00000000
00001000
01000000
,
00010000
00000000
01000000
00000000
00010000
01000000
00001000
00000000
,
00100000
00000000
01000000
10000000
00100000
00000000
10000000
00000000
,
00100000
10000000
01000000
00000000
00100000
00000000
00100000
00000000
,
00001000
00010000
00000100
00001000
,
00000010
00000000
00000010
00000100
00000001
00000000
00000010
00000000
,
00000100
00000010
00000001
00000100
,
00000010
00010000
00001000
00000000
00010000
00000000
00010000
00000000
,
00100000
10000000
00010000
01000000
,
10000000
00000000
01000000
00010000
10000000
00000000
01000000
00000000
,
00100000
00001000
00010000
00001000
,
00000010
00000100
00001000
00000010
00000100
00000001
00000010
00000100
,
00001001
00000100
00000001
00000001
,
00000100
00000100
00001000
00001000
,
00011000
00010000
00100000
00100000
,
10000000
10000000
11000000
00000000
,
10000000
10000000
00100000
00110000
,
00010000
00010000
00001000
00011000
,
00000010
00000010
00000001
00000001
,
00000101
00000000
00000100
00000000
,
00000200
00000000
00000300
00000000
;

//--------------- dance-double - M. Emirzian ----------------
#NOTES:
     dance-double:
     M. Emirzian:
     Hard:
     7:
     0.428053,0.479459,0.198698,0.015896,0.003974,377,352,25,2,0,0,0.428053,0.479459,0.198698,0.015896,0.003974,377,352,25,2,0,0:
00000000
00000000
00000000
00000000
,
00000000
00000000
00000000
00000000
,
00000000
00000000
00000000
00000000
,
00000000
00000000
00000000
00000000
,
00000001
00000100
00000000
00001000
00000000
00010000
00000000
00001000
,
00010000
00100000
00000000
10000000
00000000
00100000
00000000
10000000
,
01000000
00010000
00000000
00001000
00000000
00010000
00000000
01000000
,
00010000
00001000
00000000
00000010
00000001
00001000
00000010
00000000
,
00000100
00000001
00000000
00000010
00000000
00001000
00000000
00010000
,
00001000
01000000
00000000
00001000
00000000
00010000
00000000
00000010
,
00010000
00001000
00000000
00010000
00000000
01000000
00000000
10000000
,
00100000
01000000
00000000
00011000
00000000
00101000
00000000
01010000
,
00000000
00100000
10000000
01000000
00100000
00000000
00001000
00010000
,
00000000
01000000
10000000
00100000
01000000
00000000
00001000
00010000
,
00000000
00000010
00010000
00001000
00000100
00000000
00001000
00010000
,
00000000
00000010
00000100
00000001
00000010
00000100
00001001
00000000
,
00000000
00000100
00001000
00010000
00000010
00000000
00010000
00001000
,
00000000
01000000
00100000
10000000
00010000
00000000
00100000
01000000
,
00000000
10000000
00100000
01000000
00001000
00000000
00010000
00001000
,
00000000
00000100
00000010
00001000
00000001
00000010
00001100
00000000
,
00000020
00000000
00000130
00001000
00010000
01000000
10000000
00100000
,
01000000
00000000
00010000
00000000
00100000
00000000
01000000
00000000
00010000
00000000
00001000
00000000
00000010
00000001
00000100
00000000
,
00000010
00000000
00001001
00000000
00001010
00000000
00000010
00010000
,
00001000
01000000
00000100
00010000
00001000
00000000
00001000
00000000
,
01000000
00010000
10010000
00000000
00100000
00010000
01100000
00000000
,
10000000
00100000
00010000
00100000
10000000
00000000
01000000
00000000
,
00100000
00010000
01000000
00100000
,
00010000
00001000
00011000
00010000
,
00000100
00001000
00000010
00000000
00000100
00000001
00000010
00000000
,
00000100
00010000
00001000
00000010
00001000
00010000
00000100
00000000
,
00010010
00000000
00001010
00000000
00000100
00000001
00000010
00000100
,
00010000
00001000
01000000
00000000
00001000
00000000
00010000
00100000
,
01100000
00000000
01000000
00010000
10010000
00000000
00100000
10000000
,
01000000
00100000
00010000
01000000
00100000
01000000
00001000
00000000
,
00010100
00000000
00001100
00000000
00000100
00010000
00001000
00000100
,
00000001
00000010
00001000
00000010
00000001
00000000
00000100
00000010
,
00001000
00000000
00010100
00000000
00011000
00000000
00001000
01000000
,
00001000
00010000
01000000
10000000
00100000
10000000
01000000
00000000
,
00110000
01000000
01000000
01000000
,
00000000
00100000
10000000
01000000
00100000
00000000
00001000
00010000
,
00000000
01000000
10000000
00100000
01000000
00000000
00001000
00010000
,
00000000
00000100
00000010
00000001
00001000
00000000
00000010
00010000
,
00000000
00001000
00010000
00000100
00010000
00001000
00011000
00000000
,
00000000
00000010
00000100
00001000
00000100
00000000
00010000
00001000
,
00000000
00010000
00001000
01000000
00010000
00000000
00100000
01000000
,
00000000
10000000
00010000
01000000
00100000
00000000
10000000
01000000
,
00000000
00100000
00001000
00010000
00000100
00001000
00000101
00000000
,
00000001
00000000
00000010
00000000
00000001
00000100
00000010
00001000
,
00000100
00000010
00000001
00000100
00001000
00000100
00000010
00000100
,
00001000
00010000
00001000
00100000
00010000
10000000
00100000
01000000
,
00010000
10000000
01000000
00100000
00010000
00110000
10010000
00000000
,
10000000
01000000
00100000
00010000
00100000
00010000
10000000
00010000
,
01000000
00100000
01000000
00001000
00010000
01000000
00010000
00001000
,
00000010
00000100
00001000
00000010
00001000
00000001
00001000
00000100
,
00000010
00000001
00000100
00000010
00001000
00001001
00000110
00000000
,
00010000
00000100
00000000
00010000
00000000
00001000
00000000
01000000
,
00001000
00010000
00000000
00001000
00000000
00010000
00000000
00100000
,
10000000
01000000
00000000
00100000
00000000
00010000
00000000
10000000
,
00100000
01000000
00000000
00001000
00000000
00010000
00000000
00000010
,
00010000
00001000
00000000
00000010
00000000
00000001
00000000
00001000
,
00000100
00000010
00000000
00000100
00000000
00001000
00000000
00000010
,
00000100
00001000
00000000
00010000
00000000
01000000
10000000
00010000
,
01000000
00000000
00000000
00100000
00000000
00010000
00000000
00001000
,
00020000
00000000
00030000
00000000
;

//--------------- dance-double - M. Emirzian ----------------
#NOTES:
     dance-double:
     M. Emirzian:
     Challenge:
     9:
     0.540459,0.529928,0.635834,0.015896,0.027818,476,396,80,2,1,0,0.540459,0.529928,0.635834,0.015896,0.027818,476,396,80,2,1,0:
00000000
00000000
00000000
00000000
,
00000000
00000000
00000000
00000000
,
00000000
00000000
00000000
00000000
,
00000000
00000000
00000000
00000000
,
01000000
10010000
00000000
00110000
00000000
10010000
00000000
00100000
,
00001000
01010000
00000000
00011000
00000000
00001010
00000000
00000010
,
00000001
00001100
00000000
00001010
00000000
00000101
00000000
00000010
,
00000100
00011000
00000000
01001000
00000000
01100000
00000000
01000000
,
00001000
00110000
00000000
11000000
00000000
10010000
00000000
00100000
,
00001000
01010000
00000000
00011000
00000000
00001100
00000000
00000100
,
00000001
00001001
00000000
00001100
00000000
00000011
00000000
00000100
,
00000010
00011000
00000000
10010000
00000000
01100000
00000000
10010000
,
00000000
10000000
01000000
00100000
00010000
01000000
00001000
00110000
,
00000000
01000000
00001000
00010000
00001000
00000010
00000100
00011000
,
00000000
00000100
00000001
00000010
00000100
00001000
00000010
00010100
,
00000000
00001000
00000010
00000100
00000001
00000010
00001001
00000000
,
00000000
00000010
00010000
00001000
00010000
00100000
01000000
00011000
,
00000000
01000000
10000000
00100000
01000000
00010000
00100000
01001000
,
00000000
00100000
01000000
00001000
00010000
00000100
00000010
00010100
,
00010000
00001000
00000100
00000001
00000100
00001010
00001001
00001100
,
00000200
00000000
00001300
00000001
00000100
00001000
00010000
01000000
,
10000000
00000000
00100000
00000000
10000000
00000000
01000000
00000000
00010000
00000000
01000000
00000000
10000000
01000000
00100000
00000000
,
00010000
00000000
01000000
00000000
10010000
00000000
00100000
10000000
,
01000000
00010000
00001000
00010000
01000000
00100000
00001000
00000000
,
00010000
00100000
00010000
00001000
00000100
00000000
00000001
00000010
,
00001000
00000000
00010000
00000000
00001000
00000000
00000100
00000000
00000010
00001000
00000000
00000100
00000010
00000000
00000001
00000000
,
00001001
00000000
00000110
00000000
00000010
00000001
00000100
00001000
,
00000100
00000000
00001010
00000000
00010100
00000000
00001000
00000100
,
00001000
00000000
00010000
01000000
10000000
00000000
01100000
00000000
,
01000000
00000000
00010000
00000000
00100000
00000000
01000000
00000000
10000000
00100000
00000000
01000000
00001000
00000000
00010000
00000000
,
01000000
00010000
00001000
00000010
00000100
00001000
00000001
00000010
,
00001000
00010000
00001000
00000100
00000001
00000010
00001000
00000010
,
00000001
00000100
00001000
00010000
01000000
10000000
00100000
01000000
,
00001000
00000000
00010000
00000000
00100000
00000000
10000000
00000000
01000000
00100000
00000000
00010000
01000000
00000000
10000000
00000000
,
01000000
00010000
00100000
01000000
00010000
00001000
00000100
00000001
,
00000010
00000100
00001000
00000010
00000100
00001000
00010000
01000000
,
10000000
00100000
00010000
00001000
00000010
00000001
00000100
00001000
,
00000100
00000001
00000100
00001000
00010000
01000000
00100000
00001000
,
00010000
00010100
00000000
00101000
00000000
01000000
10010000
00000000
,
11000000
10000000
01000000
00100000
00010000
01000000
00001000
00110000
,
00000000
01000000
00001000
00010000
00000010
00001000
00000100
00010010
,
00000000
00001000
00000100
00000010
00000001
00000100
00000010
00011000
,
00000000
00000100
00001000
00010000
00001000
01000000
00110000
00000000
,
00000000
01000000
10000000
00100000
01000000
00001000
01000000
00110000
,
00000000
01000000
10000000
01000000
00010000
00001000
00100000
00010100
,
00000000
00000010
00001000
00000100
00000010
00000001
00000100
00010010
,
00000000
00001000
00000100
00001000
00010000
00100000
10010000
01010000
,
10100000
00010000
01000000
10000000
01000000
00010000
00100000
01000000
,
10000000
01000000
00010000
00001000
00000100
00000001
00000100
00001000
,
00010000
00001000
00000010
00000001
00000100
00001000
00000100
00000001
,
00000010
00000100
00010000
00000010
00010000
00011000
01001000
00100000
,
00010000
01000000
00100000
10000000
00100000
00010000
00001000
01000000
,
00010000
00100000
01000000
00010000
00001000
00000100
00000001
00000010
,
00001000
00000010
00000001
00001000
00000010
00010000
00001000
01000000
,
00001000
00010000
00100000
00010000
00001000
00011000
00101000
00110000
,
01000000
10010000
00000000
11000000
00000000
10010000
00000000
00100000
,
00001000
01100000
00000000
00101000
00000000
00011000
00000000
00001000
,
00000100
00000101
00000000
00001010
00000000
00001100
00000000
00000010
,
00000100
00011000
00000000
01001000
00000000
01100000
00000000
01000000
,
10000000
10010000
00000000
01010000
00000000
01001000
00000000
00010000
,
00000010
00011000
00000000
00001100
00000000
00000101
00000000
00000100
,
00000001
00001010
00000000
00001100
00000000
00001000
00000100
00010000
,
00001000
00000000
00000000
01000000
00000000
00100000
00000000
10000000
,
M0020000
00000000
00030000
00000000
;

//--------------- lights-cabinet - ----------------
#NOTES:
     lights-cabinet:
     :
     Easy:
     1:
     0.512073,0.908448,0.302021,0.095375,0.127167,451,375,38,12,0,19,0.512073,0.908448,0.302021,0.095375,0.127167,451,375,38,12,0,19:
00000000
00000000
00000000
00000000
,
00000000
11110000
00000000
11110000
,
00000000
11110000
00000000
11110000
,
11110000
11110000
11110000
11110000
,
10000000
00100000
00000000
01000000
00000000
00100000
00000000
01000000
,
00010000
01000000
00000000
00100000
00000000
01000000
00000000
00100000
,
10000000
00100000
00000000
10000000
00000000
01000000
00000000
00100000
,
00100000
00100000
00000000
01000000
00000000
10000000
00000000
00100000
,
00100000
00100000
00000000
10000000
00000000
01000000
00000000
00010000
,
01000000
10000000
00000000
00010000
00000000
00100000
00000000
10000000
,
00100000
00010000
00000000
00100000
01000000
00000000
00000000
00000000
,
00000000
11110000
00000000
11110000
00000000
11110000
00000000
11110000
,
00000000
01000000
00100000
01000000
00100000
01000000
00100000
10000000
,
00000000
01000000
00100000
01000000
00100000
01000000
00100000
00010000
,
00000000
01000000
00010000
01000000
00010000
01000000
00010000
00100000
,
00000000
01000000
10000000
01000000
10000000
01000000
10000000
00000000
,
00000000
00100000
01000000
00100000
01000000
00100000
01000000
00010000
,
00000000
00100000
01000000
00100000
01000000
00100000
01000000
10000000
,
00000000
00100000
10000000
00100000
10000000
00100000
10000000
01000000
,
00000000
00100000
00010000
00100000
00010000
00100000
00010000
00000000
,
11110000
10000000
01000000
00100000
00010000
00100000
01000000
10000000
01000000
00100000
00010000
00100000
01000000
10000000
01000000
00100000
,
00010000
00100000
01000000
10000000
01000000
00100000
00010000
00100000
01000000
10000000
01000000
00100000
00010000
10000000
01000000
00100000
,
00010000
00100000
00010000
01000000
,
00100000
00000000
10000000
00000000
01000000
00100000
01000000
10000000
,
10010000
00000000
00000000
01100000
00000000
00000000
10010000
00000000
,
11000000
00000000
01000000
00000000
10000000
00100000
01000000
00100000
,
10000000
00100000
10000000
00000000
01000000
10000000
01000000
00000000
,
01100000
00000000
10100000
00010000
01000000
00100000
00000000
22220000
,
00000000
33330000
00000000
10000000
01000000
00100000
10010000
00010000
,
00000000
10000000
00000000
00000000
11110000
11110000
11110000
00000000
,
10000000
01000000
10000000
00100000
,
01000000
00000000
00010000
00000000
00100000
00110000
11000000
00000000
,
10010000
00000000
00000000
01100000
00000000
00000000
10010000
00000000
,
00010000
00000000
00100000
00000000
00010000
01000000
00100000
01000000
,
00010000
00000000
00010000
00000000
00010000
00100000
01000000
00100000
,
00010000
00000000
00010000
00000000
00100000
01000000
10000000
00000000
,
10010000
00000000
00000000
01100000
00000000
00000000
22220000
00000000
,
33330000
00000000
00000000
01000000
,
00100000
10010000
01100000
01010000
,
10100000
00000000
01000000
00100000
10000000
00100000
01000000
00010000
,
00000000
00100000
01000000
10000000
01000000
00100000
01000000
10000000
,
00000000
00100000
10000000
00010000
10000000
00100000
10000000
01000000
,
00000000
00100000
00010000
10000000
00010000
00100000
00010000
00000000
,
00000000
01000000
00100000
10000000
00010000
01000000
00100000
10000000
,
00000000
01000000
00100000
00010000
00100000
01000000
00100000
00010000
,
00000000
00100000
01000000
10000000
00100000
01000000
00100000
10000000
,
00000000
10000000
01000000
00100000
00010000
10000000
01000000
00000000
,
00000000
00100000
00010000
01000000
00100000
10000000
00010000
00100000
,
00000000
01000000
10000000
00010000
00100000
01000000
10000000
00010000
,
00000000
01000000
00100000
10000000
00010000
01000000
00100000
10000000
,
00000000
00100000
01000000
00010000
10000000
00100000
01000000
00000000
,
00000000
00010000
00100000
01000000
10000000
00010000
00100000
01000000
,
00000000
00100000
00010000
10000000
01000000
00100000
00010000
10000000
,
00000000
00100000
01000000
00010000
10000000
00100000
01000000
00010000
,
00000000
01000000
00100000
10000000
00010000
01000000
00100000
00000000
,
10010000
00000000
00000000
00000000
10000000
00000000
01000000
00000000
10000000
00000000
00010000
01000000
00000000
01000000
00010000
00000000
,
00000000
00000000
00000000
00000000
10000000
00000000
01000000
00000000
00100000
00000000
00010000
01000000
00000000
01000000
00010000
00000000
,
00000000
00000000
00000000
00000000
00100000
00000000
01000000
00000000
10000000
00000000
01000000
00100000
00000000
00100000
01000000
00000000
,
00000000
00000000
00000000
00000000
00100000
00000000
01000000
00000000
00100000
00000000
00010000
10000000
00000000
10000000
00010000
00000000
,
00000000
00000000
00000000
00000000
00010000
00000000
00100000
00000000
00010000
00000000
10000000
00100000
00000000
00100000
10000000
00000000
,
00000000
00000000
00000000
00000000
00010000
00000000
00100000
00000000
01000000
00000000
10000000
00100000
00000000
00100000
10000000
00000000
,
00000000
00000000
00000000
00000000
01000000
00000000
00100000
00000000
00010000
00000000
00100000
01000000
00000000
01000000
00100000
00000000
,
00000000
00000000
00000000
00000000
01000000
00000000
10000000
00000000
00100000
00000000
10000000
00010000
00000000
00010000
10000000
00000000
,
22220000
00000000
33330000
00000000
;
